<?xml version="1.0" encoding="UTF-8"?>
<svg xmlns="http://www.w3.org/2000/svg" xmlns:xlink="http://www.w3.org/1999/xlink" version="1.2" >
<font id="Avenue Bold">
<font-face  font-family="Avenue" units-per-em="1000" ascent="795" descent="-205" font-style="normal" font-weight="700" font-stretch="normal" cap-height="687" x-height="517" underline-position="-133" underline-thickness="20" />
<missing-glyph  horiz-adv-x="500" d="M410 -210 L93 -210 L93 790 L410 790 L410 -210 Z M333 -141 L333 -108 L231 -108 L301 -61 L333 -61 L333 -28 L167 -28 L167 -61 L237 -61 L167 -108 L167 -141 L333 -141 Z M333 -5 L333 108 L167 108 L167 -5 L333 -5 Z M333 168 L333 281 L233 281 L233 225 L267 225 L267 248 L300 248 L300 201 L200 201 L200 281 L167 281 L167 168 L333 168 Z M333 303 L333 403 L300 403 L300 337 L167 337 L167 303 L333 303 Z M267 360 L267 430 L333 430 L333 463 L167 463 L167 430 L233 430 L233 393 L167 393 L167 360 L267 360 Z M333 490 L333 524 L267 524 L267 594 L167 594 L167 490 L333 490 Z M333 620 L333 653 L267 653 L267 690 L333 690 L333 723 L168 723 L168 690 L233 690 L233 653 L167 653 L167 620 L333 620 Z M200 75 L300 75 L300 28 L200 28 L200 75 Z M200 560 L233 560 L233 524 L200 524 L200 560 Z " />
<glyph glyph-name="null" d="" />
<glyph glyph-name="nonmarkingreturn" unicode="&#xd;" horiz-adv-x="250" d="" />
<glyph glyph-name="&amp;#x20;" unicode="&#x20;" horiz-adv-x="272" d="" />
<glyph glyph-name="&amp;#xa0;" unicode="&#xa0;" horiz-adv-x="272" d="" />
<glyph glyph-name="exclam" unicode="&#x21;" horiz-adv-x="331" d="M79 687 L253 687 L218 247 L114 247 L79 687 Z M69 85 Q69 103 76.5 120 Q84 137 97 150 Q110 163 127.5 170.5 Q145 178 166 178 Q185 178 202 170.5 Q219 163 231.5 150 Q244 137 251.5 120 Q259 103 259 85 Q259 65 251.5 47.5 Q244 30 231.5 16.5 Q219 3 202 -4.5 Q185 -12 166 -12 Q124 -12 96.5 16.5 Q69 45 69 85 Z " />
<glyph glyph-name="quotedbl" unicode="&#x22;" horiz-adv-x="530" d="M112 390 Q103 419 94 449.5 Q85 480 78 509.5 Q71 539 66.5 566 Q62 593 62 614 Q62 647 86 671 Q110 695 142 695 Q174 695 197.5 671 Q221 647 221 614 Q221 593 216.5 566 Q212 539 205 509.5 Q198 480 189.5 449.5 Q181 419 172 390 L112 390 Z M309 614 Q309 647 333 671 Q357 695 389 695 Q421 695 444.5 671 Q468 647 468 614 Q468 593 463.5 566 Q459 539 452 509.5 Q445 480 436.5 449.5 Q428 419 419 390 L359 390 Q350 419 341 449.5 Q332 480 325 509.5 Q318 539 313.5 566 Q309 593 309 614 Z " />
<glyph glyph-name="numbersign" unicode="&#x23;" horiz-adv-x="698" d="M134 158 L42 158 L69 267 L161 267 L199 418 L104 418 L131 528 L227 528 L267 687 L379 687 L339 528 L450 528 L490 687 L602 687 L562 528 L656 528 L629 418 L534 418 L496 267 L591 267 L564 158 L469 158 L429 0 L317 0 L357 158 L246 158 L206 0 L94 0 L134 158 Z M384 267 L422 418 L311 418 L273 267 L384 267 Z " />
<glyph glyph-name="dollar" unicode="&#x24;" horiz-adv-x="695" d="M325 -11 Q166 1 56 102 L144 208 Q185 173 229.5 151.5 Q274 130 325 122 L325 278 Q273 290 229 305 Q185 320 153 343.5 Q121 367 103.5 400.5 Q86 434 86 483 Q86 529 103 567.5 Q120 606 151.5 634.5 Q183 663 227 679.5 Q271 696 325 699 L325 759 L395 759 L395 696 Q462 689 516 665.5 Q570 642 615 604 L535 493 Q502 519 466.5 536.5 Q431 554 395 562 L395 411 Q449 399 493.5 383 Q538 367 569 343.5 Q600 320 617 287.5 Q634 255 634 208 Q634 114 571 55.5 Q508 -3 395 -11 L395 -74 L325 -74 L325 -11 Z M243 499 Q243 472 261.5 456.5 Q280 441 325 428 L325 567 Q287 564 265 544.5 Q243 525 243 499 Z M395 120 Q437 125 457.5 145 Q478 165 478 191 Q478 219 459 233.5 Q440 248 395 261 L395 120 Z " />
<glyph glyph-name="percent" unicode="&#x25;" horiz-adv-x="886" d="M623 687 L743 687 L264 0 L144 0 L623 687 Z M54 517 Q54 554 66.5 586 Q79 618 101.5 642 Q124 666 155.5 680 Q187 694 226 694 Q265 694 297 680 Q329 666 351.5 642 Q374 618 386.5 586 Q399 554 399 518 Q399 481 386.5 448.5 Q374 416 351 392.5 Q328 369 296.5 355.5 Q265 342 226 342 Q187 342 155.5 355.5 Q124 369 101.5 392.5 Q79 416 66.5 448 Q54 480 54 517 Z M156 517 Q156 478 176.5 454.5 Q197 431 226 431 Q257 431 277 454 Q297 477 297 517 Q297 556 277 580 Q257 604 226 604 Q195 604 175.5 580.5 Q156 557 156 517 Z M486 165 Q486 202 498.5 234.5 Q511 267 534 291 Q557 315 589 328.5 Q621 342 660 342 Q699 342 731 328 Q763 314 785.5 290 Q808 266 820 234 Q832 202 832 166 Q832 129 819.5 96.5 Q807 64 784 40 Q761 16 729 2.5 Q697 -11 659 -11 Q620 -11 588.5 2.5 Q557 16 534 40 Q511 64 498.5 96 Q486 128 486 165 Z M589 166 Q589 127 609 103 Q629 79 660 79 Q691 79 710.5 102.5 Q730 126 730 165 Q730 205 709.5 228.5 Q689 252 659 252 Q628 252 608.5 229 Q589 206 589 166 Z " />
<glyph glyph-name="ampersand" unicode="&#x26;" horiz-adv-x="730" d="M287 -12 Q237 -12 194 1.5 Q151 15 120 40.5 Q89 66 71.5 103.5 Q54 141 54 188 Q54 256 88.5 300.5 Q123 345 202 381 Q175 421 164.5 451 Q154 481 154 519 Q154 555 169.5 587.5 Q185 620 211.5 644 Q238 668 274 682 Q310 696 351 696 Q394 696 430 682.5 Q466 669 492.5 645.5 Q519 622 533.5 590 Q548 558 548 520 Q548 492 539 469.5 Q530 447 511.5 427.5 Q493 408 463.5 390 Q434 372 393 352 Q414 327 439 299.5 Q464 272 494 239 Q532 296 559 363 L670 310 Q647 265 624 226 Q601 187 575 152 L682 39 L556 -17 L485 58 Q442 24 393 6 Q344 -12 287 -12 Z M207 198 Q207 154 236 129 Q265 104 306 104 Q332 104 356.5 114 Q381 124 405 142 Q361 189 328 226 Q295 263 269 293 Q237 273 222 250 Q207 227 207 198 Z M285 519 Q285 495 296 475 Q307 455 327 429 Q376 449 396.5 467.5 Q417 486 417 519 Q417 548 399.5 567.5 Q382 587 354 587 Q325 587 305 568 Q285 549 285 519 Z " />
<glyph glyph-name="quotesingle" unicode="&#x27;" horiz-adv-x="283" d="M112 390 Q103 419 94 449.5 Q85 480 78 509.5 Q71 539 66.5 566 Q62 593 62 614 Q62 647 86 671 Q110 695 142 695 Q174 695 197.5 671 Q221 647 221 614 Q221 593 216.5 566 Q212 539 205 509.5 Q198 480 189.5 449.5 Q181 419 172 390 L112 390 Z " />
<glyph glyph-name="parenleft" unicode="&#x28;" horiz-adv-x="372" d="M268 -170 Q161 -94 101.5 18.5 Q42 131 42 265 Q42 400 101.5 512 Q161 624 268 700 L346 618 Q269 539 232 455.5 Q195 372 195 265 Q195 159 232 75.5 Q269 -8 346 -87 L268 -170 Z " />
<glyph glyph-name="parenright" unicode="&#x29;" horiz-adv-x="372" d="M26 -87 Q103 -8 140 75.5 Q177 159 177 265 Q177 372 140 455.5 Q103 539 26 618 L104 700 Q211 624 270.5 512 Q330 400 330 265 Q330 131 270.5 18.5 Q211 -94 104 -170 L26 -87 Z " />
<glyph glyph-name="asterisk" unicode="&#x2a;" horiz-adv-x="454" d="M227 342 Q210 342 198.5 353 Q187 364 187 378 Q187 404 196 434.5 Q205 465 209 492 Q187 475 166 452.5 Q145 430 122 416 Q109 408 94 413 Q79 418 71 433 Q63 447 66.5 462 Q70 477 82 485 Q105 498 135.5 505 Q166 512 191 522 Q165 533 135 540 Q105 547 82 561 Q70 568 66.5 583 Q63 598 71 613 Q79 627 94 632 Q109 637 122 629 Q145 615 166.5 592.5 Q188 570 209 553 Q205 579 196 609.5 Q187 640 187 667 Q187 681 198 692 Q209 703 226 703 Q243 703 254.5 692 Q266 681 266 667 Q266 640 256.5 609.5 Q247 579 243 553 Q265 570 286.5 592.5 Q308 615 331 628 Q343 636 358.5 631 Q374 626 382 612 Q390 598 386.5 582.5 Q383 567 370 560 Q347 546 316.5 539.5 Q286 533 261 522 Q287 512 317 505 Q347 498 370 484 Q383 477 386.5 461.5 Q390 446 382 432 Q374 418 358.5 413 Q343 408 331 416 Q308 429 286.5 452 Q265 475 244 492 Q248 465 257.5 434.5 Q267 404 267 378 Q267 364 255.5 353 Q244 342 227 342 Z " />
<glyph glyph-name="plus" unicode="&#x2b;" horiz-adv-x="604" d="M59 396 L237 396 L237 577 L368 577 L368 396 L545 396 L545 272 L368 272 L368 91 L237 91 L237 272 L59 272 L59 396 Z " />
<glyph glyph-name="comma" unicode="&#x2c;" horiz-adv-x="329" d="M96 -106 Q119 -85 135 -60.5 Q151 -36 158 -12 Q139 -12 122.5 -4.5 Q106 3 93.5 16 Q81 29 73.5 46 Q66 63 66 82 Q66 102 73.5 119 Q81 136 94 149.5 Q107 163 124 170.5 Q141 178 160 178 Q205 178 232 142 Q259 106 259 49 Q259 -45 150 -148 L96 -106 Z " />
<glyph glyph-name="hyphen" unicode="&#x2d;" horiz-adv-x="412" d="M68 341 L344 341 L344 211 L68 211 L68 341 Z " />
<glyph glyph-name="period" unicode="&#x2e;" horiz-adv-x="343" d="M173 -12 Q131 -12 103.5 16.5 Q76 45 76 85 Q76 103 83.5 120 Q91 137 104 150 Q117 163 134.5 170.5 Q152 178 173 178 Q192 178 209 170.5 Q226 163 238.5 150 Q251 137 258.5 120 Q266 103 266 85 Q266 65 258.5 47.5 Q251 30 238.5 16.5 Q226 3 209 -4.5 Q192 -12 173 -12 Z " />
<glyph glyph-name="slash" unicode="&#x2f;" horiz-adv-x="520" d="M351 743 L513 743 L169 -74 L7 -74 L351 743 Z " />
<glyph glyph-name="zero" unicode="0" horiz-adv-x="716" d="M358 -12 Q289 -12 232 14 Q175 40 134 87.5 Q93 135 70 200.5 Q47 266 47 344 Q47 422 70 487 Q93 552 134 599.5 Q175 647 232 673 Q289 699 358 699 Q426 699 483.5 673 Q541 647 582 599.5 Q623 552 646 487 Q669 422 669 344 Q669 266 646 200.5 Q623 135 582 87.5 Q541 40 483.5 14 Q426 -12 358 -12 Z M206 344 Q206 297 217 257.5 Q228 218 248.5 189.5 Q269 161 297 145 Q325 129 358 129 Q391 129 419 145 Q447 161 467 189.5 Q487 218 498 257.5 Q509 297 509 344 Q509 391 498 430 Q487 469 467 497.5 Q447 526 419 542 Q391 558 358 558 Q325 558 297 542 Q269 526 248.5 497.5 Q228 469 217 430 Q206 391 206 344 Z " />
<glyph glyph-name="one" unicode="1" horiz-adv-x="438" d="M201 510 L85 437 L23 546 L232 687 L357 687 L357 0 L201 0 L201 510 Z " />
<glyph glyph-name="two" unicode="2" horiz-adv-x="616" d="M41 126 L275 320 Q309 349 331.5 370.5 Q354 392 367 409 Q380 426 385 441 Q390 456 390 472 Q390 510 365 534 Q340 558 300 558 Q250 558 211 534.5 Q172 511 134 469 L35 564 Q88 630 154 664.5 Q220 699 305 699 Q359 699 404.5 683 Q450 667 482 637.5 Q514 608 532 567.5 Q550 527 550 478 Q550 449 543 422 Q536 395 517 366 Q498 337 465 304 Q432 271 380 230 L271 140 L566 140 L566 0 L41 0 L41 126 Z " />
<glyph glyph-name="three" unicode="3" horiz-adv-x="621" d="M295 -12 Q213 -12 143 20.5 Q73 53 28 106 L115 203 Q145 168 192 146 Q239 124 295 124 Q348 124 381 148.5 Q414 173 414 209 Q414 251 381.5 272.5 Q349 294 291 294 Q278 294 266 293 Q254 292 243 290 L199 388 L371 550 L69 550 L68 687 L557 687 L557 550 L380 388 Q468 390 520.5 341.5 Q573 293 573 208 Q573 160 553 119.5 Q533 79 496.5 49.5 Q460 20 408.5 4 Q357 -12 295 -12 Z " />
<glyph glyph-name="four" unicode="4" horiz-adv-x="655" d="M379 137 L44 137 L30 256 L345 686 L534 686 L534 267 L624 267 L624 137 L534 137 L534 0 L379 0 L379 137 Z M379 267 L379 523 L192 267 L379 267 Z " />
<glyph glyph-name="five" unicode="5" horiz-adv-x="625" d="M306 -13 Q218 -13 152 15.5 Q86 44 38 92 L128 202 Q167 166 212.5 144 Q258 122 307 122 Q364 122 395.5 151 Q427 180 427 222 Q427 265 395 291 Q363 317 308 317 Q270 317 237 305.5 Q204 294 177 273 L73 314 L83 687 L545 687 L545 547 L227 547 L222 405 Q248 422 280.5 433.5 Q313 445 355 445 Q401 445 442 430.5 Q483 416 514 388.5 Q545 361 563.5 320.5 Q582 280 582 227 Q582 172 562.5 128 Q543 84 507 52.5 Q471 21 420 4 Q369 -13 306 -13 Z " />
<glyph glyph-name="six" unicode="6" horiz-adv-x="649" d="M344 -12 Q268 -12 212.5 13.5 Q157 39 120.5 84.5 Q84 130 66 193.5 Q48 257 48 332 Q48 413 70.5 480 Q93 547 135 596 Q177 645 236 672 Q295 699 368 699 Q433 699 485.5 679.5 Q538 660 581 626 L508 508 Q476 534 444 548.5 Q412 563 369 563 Q303 563 262.5 514.5 Q222 466 211 384 Q243 413 286 429.5 Q329 446 377 446 Q425 446 467 431 Q509 416 540.5 388 Q572 360 590.5 319 Q609 278 609 227 Q609 174 589 130 Q569 86 533.5 54.5 Q498 23 449.5 5.5 Q401 -12 344 -12 Z M213 245 Q223 183 250.5 151.5 Q278 120 335 120 Q388 120 419 150 Q450 180 450 220 Q450 244 440.5 262.5 Q431 281 414.5 293.5 Q398 306 376.5 313 Q355 320 331 320 Q291 320 260 300 Q229 280 213 245 Z " />
<glyph glyph-name="seven" unicode="7" horiz-adv-x="577" d="M366 547 L29 547 L29 687 L546 687 L546 570 L270 0 L95 0 L366 547 Z " />
<glyph glyph-name="eight" unicode="8" horiz-adv-x="648" d="M323 -12 Q266 -12 215 1 Q164 14 126.5 39 Q89 64 67 101 Q45 138 45 185 Q45 245 82 288.5 Q119 332 178 355 Q127 377 95 415 Q63 453 63 512 Q63 557 84.5 592 Q106 627 142 651 Q178 675 225 687 Q272 699 323 699 Q375 699 422.5 686.5 Q470 674 506 650 Q542 626 563.5 591 Q585 556 585 512 Q585 454 553 416 Q521 378 469 355 Q530 330 566 287 Q602 244 602 185 Q602 137 580 100.5 Q558 64 520 39 Q482 14 431 1 Q380 -12 323 -12 Z M202 202 Q202 164 235.5 141 Q269 118 323 118 Q377 118 411 141 Q445 164 445 202 Q445 221 434 236.5 Q423 252 405.5 263 Q388 274 366.5 280 Q345 286 323 287 Q302 286 280 280 Q258 274 241 263 Q224 252 213 236.5 Q202 221 202 202 Z M217 491 Q217 473 226.5 458 Q236 443 251 432.5 Q266 422 285 416 Q304 410 323 409 Q343 410 362.5 416.5 Q382 423 397 433.5 Q412 444 421.5 458.5 Q431 473 431 491 Q431 524 401 546.5 Q371 569 323 569 Q275 569 246 546.5 Q217 524 217 491 Z " />
<glyph glyph-name="nine" unicode="9" horiz-adv-x="649" d="M305 699 Q381 699 436.5 673.5 Q492 648 528.5 602.5 Q565 557 583 493.5 Q601 430 601 355 Q601 274 578.5 207 Q556 140 514 91 Q472 42 413 15 Q354 -12 281 -12 Q216 -12 163.5 7.5 Q111 27 68 61 L141 179 Q173 153 205 138.5 Q237 124 280 124 Q346 124 386.5 172.5 Q427 221 438 303 Q406 274 363 257.5 Q320 241 272 241 Q224 241 182 256 Q140 271 108.5 299 Q77 327 58.5 368 Q40 409 40 460 Q40 513 60 557 Q80 601 115.5 632.5 Q151 664 199.5 681.5 Q248 699 305 699 Z M199 467 Q199 443 208.5 424.5 Q218 406 234.5 393.5 Q251 381 272.5 374 Q294 367 318 367 Q358 367 389 387 Q420 407 436 442 Q426 504 398.5 535.5 Q371 567 314 567 Q261 567 230 537 Q199 507 199 467 Z " />
<glyph glyph-name="colon" unicode="&#x3a;" horiz-adv-x="330" d="M167 343 Q125 343 97.5 371.5 Q70 400 70 440 Q70 458 77.5 475 Q85 492 98 505 Q111 518 128.5 525.5 Q146 533 167 533 Q186 533 203 525.5 Q220 518 232.5 505 Q245 492 252.5 475 Q260 458 260 440 Q260 420 252.5 402.5 Q245 385 232.5 371.5 Q220 358 203 350.5 Q186 343 167 343 Z M70 85 Q70 103 77.5 120 Q85 137 98 150 Q111 163 128.5 170.5 Q146 178 167 178 Q186 178 203 170.5 Q220 163 232.5 150 Q245 137 252.5 120 Q260 103 260 85 Q260 65 252.5 47.5 Q245 30 232.5 16.5 Q220 3 203 -4.5 Q186 -12 167 -12 Q125 -12 97.5 16.5 Q70 45 70 85 Z " />
<glyph glyph-name="semicolon" unicode="&#x3b;" horiz-adv-x="327" d="M95 -106 Q118 -85 134 -60.5 Q150 -36 157 -12 Q138 -12 121.5 -4.5 Q105 3 92.5 16 Q80 29 72.5 46 Q65 63 65 82 Q65 102 72.5 119 Q80 136 93 149.5 Q106 163 123 170.5 Q140 178 159 178 Q204 178 231 142 Q258 106 258 49 Q258 -45 149 -148 L95 -106 Z M67 440 Q67 458 74.5 475 Q82 492 95 505 Q108 518 125.5 525.5 Q143 533 164 533 Q183 533 200 525.5 Q217 518 229.5 505 Q242 492 249.5 475 Q257 458 257 440 Q257 420 249.5 402.5 Q242 385 229.5 371.5 Q217 358 200 350.5 Q183 343 164 343 Q122 343 94.5 371.5 Q67 400 67 440 Z " />
<glyph glyph-name="less" unicode="&#x3c;" horiz-adv-x="598" d="M57 283 L57 404 L525 606 L525 482 L178 343 L525 206 L525 81 L57 283 Z " />
<glyph glyph-name="equal" unicode="&#x3d;" horiz-adv-x="690" d="M102 514 L588 514 L588 390 L102 390 L102 514 Z M102 285 L588 285 L588 161 L102 161 L102 285 Z " />
<glyph glyph-name="greater" unicode="&#x3e;" horiz-adv-x="598" d="M73 206 L421 343 L73 482 L73 606 L541 404 L541 283 L73 81 L73 206 Z " />
<glyph glyph-name="question" unicode="&#x3f;" horiz-adv-x="542" d="M187 403 Q255 405 297.5 428.5 Q340 452 340 486 Q340 517 313.5 538.5 Q287 560 243 560 Q208 560 176.5 544 Q145 528 122 502 L34 592 Q78 640 137 669.5 Q196 699 270 699 Q320 699 362 684 Q404 669 434 642.5 Q464 616 480.5 580 Q497 544 497 501 Q497 467 484 436 Q471 405 448 379.5 Q425 354 393 335 Q361 316 323 307 L323 240 L187 240 L187 403 Z M158 85 Q158 103 165.5 120 Q173 137 186 150 Q199 163 216.5 170.5 Q234 178 255 178 Q274 178 291 170.5 Q308 163 320.5 150 Q333 137 340.5 120 Q348 103 348 85 Q348 65 340.5 47.5 Q333 30 320.5 16.5 Q308 3 291 -4.5 Q274 -12 255 -12 Q213 -12 185.5 16.5 Q158 45 158 85 Z " />
<glyph glyph-name="at" unicode="&#x40;" horiz-adv-x="911" d="M441 -116 Q360 -116 290.5 -86.5 Q221 -57 169.5 -6 Q118 45 89 113.5 Q60 182 60 260 Q60 345 93 420.5 Q126 496 183 553 Q240 610 316.5 643 Q393 676 479 676 Q560 676 628.5 648 Q697 620 747 572.5 Q797 525 825 462 Q853 399 853 329 Q853 264 834.5 215.5 Q816 167 786 135.5 Q756 104 719.5 88.5 Q683 73 647 73 Q596 73 565.5 95 Q535 117 522 152 Q495 117 458 96 Q421 75 376 75 Q339 75 308 88.5 Q277 102 254.5 126 Q232 150 220 183.5 Q208 217 208 257 Q208 308 226.5 353.5 Q245 399 276 433 Q307 467 347.5 486.5 Q388 506 431 506 Q480 506 512 485.5 Q544 465 562 436 L574 493 L700 483 Q688 419 678.5 372.5 Q669 326 662.5 293.5 Q656 261 652.5 239.5 Q649 218 649 204 Q649 178 663.5 164 Q678 150 703 150 Q723 150 742 161 Q761 172 776 194 Q791 216 800.5 250 Q810 284 810 329 Q810 393 785 449 Q760 505 716 546.5 Q672 588 610.5 612 Q549 636 477 636 Q399 636 330.5 606 Q262 576 211 525 Q160 474 130.5 406 Q101 338 101 261 Q101 191 127 129 Q153 67 199 21.5 Q245 -24 308 -50.5 Q371 -77 444 -77 Q505 -77 555.5 -62 Q606 -47 657 -16 L678 -47 Q623 -82 566 -99 Q509 -116 441 -116 Z M339 267 Q339 226 361.5 203 Q384 180 422 180 Q469 180 500 216 Q531 252 536 306 Q541 349 520.5 375 Q500 401 460 401 Q434 401 411.5 390 Q389 379 373 360.5 Q357 342 348 317.5 Q339 293 339 267 Z " />
<glyph glyph-name="A" unicode="A" horiz-adv-x="778" d="M754 0 L579 0 L533 113 L246 113 L200 0 L25 0 L302 687 L477 687 L754 0 Z M485 233 L390 470 L294 233 L485 233 Z " />
<glyph glyph-name="B" unicode="B" horiz-adv-x="724" d="M85 687 L437 687 Q484 687 522.5 674 Q561 661 589 638.5 Q617 616 632.5 584.5 Q648 553 648 515 Q648 463 622.5 424 Q597 385 552 362 Q612 335 645 289 Q678 243 678 186 Q678 145 661 110.5 Q644 76 614 51.5 Q584 27 542 13.5 Q500 0 450 0 L85 0 L85 687 Z M422 132 Q464 132 491 154 Q518 176 518 211 Q518 246 491 268 Q464 290 422 290 L240 290 L240 132 L422 132 Z M399 412 Q438 412 463 432 Q488 452 488 483 Q488 515 463 535 Q438 555 399 555 L240 555 L240 412 L399 412 Z " />
<glyph glyph-name="C" unicode="C" horiz-adv-x="712" d="M412 -12 Q337 -12 270.5 16.5 Q204 45 154 93.5 Q104 142 74.5 207 Q45 272 45 344 Q45 416 74.5 480.5 Q104 545 154 593.5 Q204 642 270.5 670.5 Q337 699 412 699 Q491 699 560 668 Q629 637 680 583 L567 482 Q538 517 498 537.5 Q458 558 412 558 Q370 558 332.5 541 Q295 524 266.5 494.5 Q238 465 221.5 426.5 Q205 388 205 344 Q205 300 221.5 261 Q238 222 266.5 192.5 Q295 163 332.5 146 Q370 129 412 129 Q459 129 499 149.5 Q539 170 568 205 L680 104 Q629 50 560 19 Q491 -12 412 -12 Z " />
<glyph glyph-name="D" unicode="D" horiz-adv-x="775" d="M85 687 L333 687 Q420 687 493 661.5 Q566 636 618.5 590.5 Q671 545 700.5 482 Q730 419 730 344 Q730 269 700.5 205.5 Q671 142 618.5 96.5 Q566 51 493 25.5 Q420 0 333 0 L85 0 L85 687 Z M354 141 Q402 141 441.5 156 Q481 171 510 198 Q539 225 555 262 Q571 299 571 344 Q571 388 555 425 Q539 462 510 489 Q481 516 441.5 531 Q402 546 354 546 L240 546 L240 141 L354 141 Z " />
<glyph glyph-name="E" unicode="E" horiz-adv-x="674" d="M85 687 L618 687 L618 547 L241 547 L241 420 L583 420 L583 280 L241 280 L241 140 L618 140 L618 0 L85 0 L85 687 Z " />
<glyph glyph-name="F" unicode="F" horiz-adv-x="658" d="M85 687 L618 687 L618 547 L241 547 L241 407 L583 407 L583 267 L241 267 L241 0 L85 0 L85 687 Z " />
<glyph glyph-name="G" unicode="G" horiz-adv-x="753" d="M415 -12 Q340 -12 273 16.5 Q206 45 155 93.5 Q104 142 74.5 207 Q45 272 45 344 Q45 416 74.5 480.5 Q104 545 155 593.5 Q206 642 273 670.5 Q340 699 415 699 Q493 699 567.5 668.5 Q642 638 694 583 L581 482 Q551 517 506.5 537.5 Q462 558 415 558 Q372 558 334 541 Q296 524 267.5 494.5 Q239 465 222 426.5 Q205 388 205 344 Q205 300 222 261 Q239 222 267.5 192.5 Q296 163 334 146 Q372 129 415 129 Q449 129 481.5 139.5 Q514 150 542 170 L542 269 L387 269 L387 389 L694 389 L694 104 Q642 50 567.5 19 Q493 -12 415 -12 Z " />
<glyph glyph-name="H" unicode="H" horiz-adv-x="783" d="M85 687 L240 687 L240 420 L543 420 L543 687 L698 687 L698 0 L543 0 L543 280 L240 280 L240 0 L85 0 L85 687 Z " />
<glyph glyph-name="I" unicode="I" horiz-adv-x="437" d="M43 141 L141 141 L141 546 L43 546 L43 687 L393 687 L393 546 L296 546 L296 141 L393 141 L393 0 L43 0 L43 141 Z " />
<glyph glyph-name="J" unicode="J" horiz-adv-x="570" d="M257 -12 Q224 -12 190 -3.5 Q156 5 125 20 Q94 35 68 56 Q42 77 25 102 L127 202 Q144 170 175 149.5 Q206 129 240 129 Q284 129 312 159 Q340 189 340 237 L340 567 L183 567 L183 687 L495 687 L495 224 Q495 172 477.5 129 Q460 86 428.5 54.5 Q397 23 353.5 5.5 Q310 -12 257 -12 Z " />
<glyph glyph-name="K" unicode="K" horiz-adv-x="741" d="M85 687 L240 687 L240 380 L510 687 L697 687 L432 391 L717 0 L529 0 L324 280 L240 190 L240 0 L85 0 L85 687 Z " />
<glyph glyph-name="L" unicode="L" horiz-adv-x="611" d="M85 687 L240 687 L240 140 L579 140 L579 0 L85 0 L85 687 Z " />
<glyph glyph-name="M" unicode="M" horiz-adv-x="989" d="M132 687 L287 687 L495 309 L702 687 L858 687 L938 0 L782 0 L727 463 L495 40 L261 464 L207 0 L52 0 L132 687 Z " />
<glyph glyph-name="N" unicode="N" horiz-adv-x="801" d="M85 687 L240 687 L561 255 L561 687 L716 687 L716 0 L561 0 L240 432 L240 0 L85 0 L85 687 Z " />
<glyph glyph-name="O" unicode="O" horiz-adv-x="824" d="M412 -12 Q337 -12 270.5 16.5 Q204 45 154 93.5 Q104 142 74.5 207 Q45 272 45 344 Q45 416 74.5 480.5 Q104 545 154 593.5 Q204 642 270.5 670.5 Q337 699 412 699 Q487 699 553.5 670.5 Q620 642 670 593.5 Q720 545 749 480.5 Q778 416 778 344 Q778 272 749 207 Q720 142 670 93.5 Q620 45 553.5 16.5 Q487 -12 412 -12 Z M205 344 Q205 300 221.5 261 Q238 222 266.5 192.5 Q295 163 332.5 146 Q370 129 412 129 Q454 129 491.5 146 Q529 163 557.5 192.5 Q586 222 602.5 261 Q619 300 619 344 Q619 388 602.5 426.5 Q586 465 557.5 494.5 Q529 524 491.5 541 Q454 558 412 558 Q370 558 332.5 541 Q295 524 266.5 494.5 Q238 465 221.5 426.5 Q205 388 205 344 Z " />
<glyph glyph-name="P" unicode="P" horiz-adv-x="666" d="M85 687 L367 687 Q423 687 471 670 Q519 653 553.5 622 Q588 591 607.5 548 Q627 505 627 454 Q627 403 607.5 360 Q588 317 553.5 286 Q519 255 471 237.5 Q423 220 367 220 L240 220 L240 0 L85 0 L85 687 Z M352 362 Q403 362 435 387 Q467 412 467 454 Q467 496 435 520.5 Q403 545 352 545 L240 545 L240 362 L352 362 Z " />
<glyph glyph-name="Q" unicode="Q" horiz-adv-x="830" d="M412 -12 Q337 -12 270.5 16.5 Q204 45 154 93.5 Q104 142 74.5 207 Q45 272 45 344 Q45 416 74.5 480.5 Q104 545 154 593.5 Q204 642 270.5 670.5 Q337 699 412 699 Q487 699 553.5 670.5 Q620 642 670 593.5 Q720 545 749 480.5 Q778 416 778 344 Q778 280 755 222.5 Q732 165 692 119 L786 0 L612 0 L331 357 L505 357 L592 247 Q605 268 612 292.5 Q619 317 619 344 Q619 388 602.5 426.5 Q586 465 557.5 494.5 Q529 524 491.5 541 Q454 558 412 558 Q370 558 332.5 541 Q295 524 266.5 494.5 Q238 465 221.5 426.5 Q205 388 205 344 Q205 300 221.5 261 Q238 222 266.5 192.5 Q295 163 332.5 146 Q370 129 412 129 Q423 129 432.5 131 Q442 133 452 136 L547 14 Q483 -12 412 -12 Z " />
<glyph glyph-name="R" unicode="R" horiz-adv-x="693" d="M322 220 L240 220 L240 0 L85 0 L85 687 L367 687 Q423 687 471 670 Q519 653 553.5 622 Q588 591 607.5 548 Q627 505 627 454 Q627 380 588.5 324.5 Q550 269 484 242 L654 0 L477 0 L322 220 Z M352 362 Q403 362 435 387 Q467 412 467 454 Q467 496 435 520.5 Q403 545 352 545 L240 545 L240 362 L352 362 Z " />
<glyph glyph-name="S" unicode="S" horiz-adv-x="656" d="M344 -12 Q253 -12 174.5 17 Q96 46 35 102 L123 208 Q173 166 228.5 142.5 Q284 119 349 119 Q403 119 430 140 Q457 161 457 191 Q457 209 449.5 221 Q442 233 425 242 Q408 251 381.5 258.5 Q355 266 316 275 Q261 287 215 302.5 Q169 318 135.5 341 Q102 364 83.5 398 Q65 432 65 483 Q65 531 83.5 571 Q102 611 136 639.5 Q170 668 217.5 683.5 Q265 699 322 699 Q407 699 473.5 674 Q540 649 594 604 L514 493 Q467 530 417 549 Q367 568 317 568 Q272 568 247 548 Q222 528 222 499 Q222 481 229.5 469 Q237 457 254 447 Q271 437 298.5 429.5 Q326 422 365 413 Q421 401 467 385 Q513 369 545.5 345.5 Q578 322 595.5 289 Q613 256 613 208 Q613 158 594.5 117.5 Q576 77 541.5 48 Q507 19 457 3.5 Q407 -12 344 -12 Z " />
<glyph glyph-name="T" unicode="T" horiz-adv-x="645" d="M245 547 L32 547 L32 687 L612 687 L612 547 L400 547 L400 0 L245 0 L245 547 Z " />
<glyph glyph-name="U" unicode="U" horiz-adv-x="767" d="M383 -12 Q314 -12 256.5 11 Q199 34 157.5 75 Q116 116 93 173 Q70 230 70 298 L70 687 L225 687 L225 305 Q225 266 237 234 Q249 202 270 178.5 Q291 155 320 142 Q349 129 383 129 Q418 129 447 142 Q476 155 497 178.5 Q518 202 530 234 Q542 266 542 305 L542 687 L697 687 L697 298 Q697 230 674 173 Q651 116 609 75 Q567 34 509.5 11 Q452 -12 383 -12 Z " />
<glyph glyph-name="V" unicode="V" horiz-adv-x="781" d="M26 687 L201 687 L391 217 L580 687 L755 687 L478 0 L303 0 L26 687 Z " />
<glyph glyph-name="W" unicode="W" horiz-adv-x="1083" d="M26 687 L201 687 L401 192 L465 351 L329 687 L483 687 L541 542 L600 687 L755 687 L619 350 L683 191 L883 687 L1057 687 L780 0 L606 0 L542 159 L478 0 L303 0 L26 687 Z " />
<glyph glyph-name="X" unicode="X" horiz-adv-x="737" d="M526 0 L277 342 L370 469 L460 345 L208 0 L27 0 L277 342 L27 687 L211 687 L370 469 L529 687 L710 687 L460 345 L710 0 L526 0 Z " />
<glyph glyph-name="Y" unicode="Y" horiz-adv-x="738" d="M291 244 L23 687 L203 687 L370 390 L542 687 L715 687 L448 244 L448 0 L291 0 L291 244 Z " />
<glyph glyph-name="Z" unicode="Z" horiz-adv-x="666" d="M46 117 L401 547 L54 547 L54 687 L614 687 L614 570 L260 140 L619 140 L619 0 L47 0 L46 117 Z " />
<glyph glyph-name="bracketleft" unicode="&#x5b;" horiz-adv-x="391" d="M82 704 L357 704 L357 604 L202 604 L202 -45 L357 -45 L357 -145 L82 -145 L82 704 Z " />
<glyph glyph-name="backslash" unicode="&#x5c;" horiz-adv-x="520" d="M7 743 L169 743 L513 -74 L351 -74 L7 743 Z " />
<glyph glyph-name="bracketright" unicode="&#x5d;" horiz-adv-x="391" d="M34 -45 L189 -45 L189 604 L34 604 L34 704 L309 704 L309 -145 L34 -145 L34 -45 Z " />
<glyph glyph-name="asciicircum" unicode="&#x5e;" horiz-adv-x="507" d="M201 687 L307 687 L455 413 L347 413 L253 593 L159 413 L52 413 L201 687 Z " />
<glyph glyph-name="underscore" unicode="&#x5f;" horiz-adv-x="732" d="M68 -66 L664 -66 L664 -153 L68 -153 L68 -66 Z " />
<glyph glyph-name="grave" unicode="&#x60;" horiz-adv-x="298" d="M24 707 L161 732 L276 575 L172 575 L24 707 Z " />
<glyph glyph-name="a" unicode="a" horiz-adv-x="576" d="M371 50 Q343 20 303.5 4 Q264 -12 222 -12 Q131 -12 79 29.5 Q27 71 27 143 Q27 210 84.5 254 Q142 298 242 308 Q271 311 304.5 313 Q338 315 371 319 Q367 357 340 383.5 Q313 410 256 410 Q223 410 188.5 400 Q154 390 119 373 L71 472 Q125 499 179 514 Q233 529 290 529 Q340 529 382 513.5 Q424 498 454.5 469.5 Q485 441 502 400 Q519 359 519 308 L519 0 L371 0 L371 50 Z M174 147 Q174 122 196.5 107.5 Q219 93 257 93 Q298 93 331 111 Q364 129 371 163 L371 225 Q342 222 315.5 220.5 Q289 219 264 217 Q222 212 198 193 Q174 174 174 147 Z " />
<glyph glyph-name="b" unicode="b" horiz-adv-x="676" d="M68 699 L222 699 L222 436 Q253 480 299 504.5 Q345 529 402 529 Q454 529 497.5 509 Q541 489 572.5 453 Q604 417 622 367.5 Q640 318 640 259 Q640 199 622 149.5 Q604 100 572.5 64 Q541 28 497.5 8 Q454 -12 402 -12 Q345 -12 299 12.5 Q253 37 222 81 L222 0 L68 0 L68 699 Z M230 259 Q230 196 265 156.5 Q300 117 357 117 Q386 117 410.5 127.5 Q435 138 453 157 Q471 176 481 202 Q491 228 491 259 Q491 290 481 316 Q471 342 453 360.5 Q435 379 410.5 389.5 Q386 400 357 400 Q300 400 265 360.5 Q230 321 230 259 Z " />
<glyph glyph-name="c" unicode="c" horiz-adv-x="544" d="M315 -12 Q258 -12 206.5 9.5 Q155 31 116 68 Q77 105 54.5 154.5 Q32 204 32 259 Q32 314 55 363 Q78 412 117 449 Q156 486 207.5 507.5 Q259 529 317 529 Q381 529 432.5 505 Q484 481 522 440 L420 353 Q401 374 373 387 Q345 400 316 400 Q289 400 264.5 389 Q240 378 221.5 358.5 Q203 339 192 314 Q181 289 181 260 Q181 231 192 205 Q203 179 221.5 159.5 Q240 140 264.5 128.5 Q289 117 316 117 Q346 117 374.5 130 Q403 143 423 165 L525 80 Q487 38 434 13 Q381 -12 315 -12 Z " />
<glyph glyph-name="d" unicode="d" horiz-adv-x="670" d="M447 72 Q416 32 372 10 Q328 -12 274 -12 Q222 -12 178.5 8 Q135 28 103.5 64 Q72 100 54.5 149.5 Q37 199 37 259 Q37 318 54.5 367.5 Q72 417 103.5 453 Q135 489 178.5 509 Q222 529 274 529 Q328 529 372 507 Q416 485 447 445 L447 699 L601 699 L601 0 L447 0 L447 72 Z M186 259 Q186 196 223 156.5 Q260 117 319 117 Q376 117 411.5 156.5 Q447 196 447 259 Q447 321 411.5 360.5 Q376 400 319 400 Q290 400 265.5 389.5 Q241 379 223.5 360.5 Q206 342 196 316 Q186 290 186 259 Z " />
<glyph glyph-name="e" unicode="e" horiz-adv-x="594" d="M313 -12 Q255 -12 204 8 Q153 28 115.5 64 Q78 100 56.5 150 Q35 200 35 260 Q35 319 55.5 368.5 Q76 418 112.5 453.5 Q149 489 198.5 509 Q248 529 305 529 Q386 529 444 492 Q502 455 533 386 Q549 351 557.5 309.5 Q566 268 566 219 L180 219 Q190 168 223.5 137 Q257 106 307 106 Q342 106 377.5 119.5 Q413 133 438 156 L524 68 Q507 50 482.5 35.5 Q458 21 430 10 Q402 -1 372 -6.5 Q342 -12 313 -12 Z M418 308 Q413 331 405 347 Q391 376 366.5 393.5 Q342 411 306 411 Q260 411 227 383.5 Q194 356 182 308 L418 308 Z " />
<glyph glyph-name="f" unicode="f" horiz-adv-x="373" d="M95 559 Q95 595 106.5 624.5 Q118 654 139 675 Q160 696 189.5 708 Q219 720 254 720 Q286 720 318.5 707 Q351 694 374 674 L340 581 Q332 589 318.5 593.5 Q305 598 291 598 Q270 598 256.5 582 Q243 566 243 541 L243 517 L353 517 L353 393 L243 393 L243 0 L95 0 L95 393 L25 393 L25 517 L95 517 L95 559 Z " />
<glyph glyph-name="g" unicode="g" horiz-adv-x="623" d="M311 -179 Q255 -179 209 -167.5 Q163 -156 130 -135.5 Q97 -115 78.5 -86 Q60 -57 60 -22 Q60 3 73 24.5 Q86 46 108.5 63 Q131 80 161 92 Q191 104 225 110 L314 88 Q293 83 269.5 73.5 Q246 64 225.5 51.5 Q205 39 192 24.5 Q179 10 179 -5 Q179 -37 214.5 -54.5 Q250 -72 314 -74 Q377 -75 412 -61.5 Q447 -48 447 -22 Q447 -4 425 9.5 Q403 23 359 29 Q343 31 328 33 Q313 35 297 37 Q281 39 262.5 41.5 Q244 44 219 48 Q143 61 103.5 93 Q64 125 64 175 Q64 201 81 226.5 Q98 252 124 266 L214 221 Q188 207 188 193 Q188 182 208 174.5 Q228 167 280 160 Q300 157 333.5 153 Q367 149 402 143 Q485 129 528 87 Q571 45 571 -20 Q571 -96 503.5 -137.5 Q436 -179 311 -179 Z M303 189 Q252 189 209.5 201.5 Q167 214 136.5 236.5 Q106 259 89 290.5 Q72 322 72 359 Q72 397 89 428 Q106 459 136.5 481.5 Q167 504 209.5 516.5 Q252 529 303 529 Q354 529 396 516.5 Q438 504 469 481.5 Q500 459 517 428 Q534 397 534 359 Q534 322 517 290.5 Q500 259 469 236.5 Q438 214 396 201.5 Q354 189 303 189 Z M303 285 Q344 285 369.5 305.5 Q395 326 395 359 Q395 392 369.5 412.5 Q344 433 303 433 Q262 433 236.5 412.5 Q211 392 211 359 Q211 326 236.5 305.5 Q262 285 303 285 Z M477 409 L377 520 Q398 516 417 515 Q436 514 453 514 Q465 514 482.5 514.5 Q500 515 518.5 515.5 Q537 516 554 516.5 Q571 517 583 517 L583 406 L477 409 Z " />
<glyph glyph-name="h" unicode="h" horiz-adv-x="626" d="M68 699 L222 699 L222 456 Q246 489 286 509 Q326 529 376 529 Q418 529 453 514.5 Q488 500 513.5 473.5 Q539 447 553 410 Q567 373 567 329 L567 0 L420 0 L420 296 Q420 342 393.5 371 Q367 400 325 400 Q281 400 251.5 372.5 Q222 345 222 303 L222 0 L68 0 L68 699 Z " />
<glyph glyph-name="i" unicode="i" horiz-adv-x="290" d="M68 517 L222 517 L222 0 L68 0 L68 517 Z M62 668 Q62 701 86.5 725.5 Q111 750 146 750 Q180 750 203.5 725.5 Q227 701 227 668 Q227 634 203.5 609.5 Q180 585 146 585 Q111 585 86.5 609.5 Q62 634 62 668 Z " />
<glyph glyph-name="j" unicode="j" horiz-adv-x="276" d="M50 -178 Q22 -178 -7.5 -172 Q-37 -166 -56 -157 L-40 -43 Q-30 -48 -15.5 -50 Q-1 -52 13 -52 Q34 -52 47.5 -36.5 Q61 -21 61 5 L61 517 L214 517 L214 -11 Q214 -48 202 -78.5 Q190 -109 168 -131 Q146 -153 116 -165.5 Q86 -178 50 -178 Z M52 668 Q52 701 76.5 725.5 Q101 750 136 750 Q170 750 193.5 725.5 Q217 701 217 668 Q217 634 193.5 609.5 Q170 585 136 585 Q101 585 76.5 609.5 Q52 634 52 668 Z " />
<glyph glyph-name="k" unicode="k" horiz-adv-x="596" d="M68 699 L222 699 L222 300 L405 517 L581 517 L383 289 L579 0 L404 0 L281 190 L222 125 L222 0 L68 0 L68 699 Z " />
<glyph glyph-name="l" unicode="l" horiz-adv-x="290" d="M233 -12 Q197 -12 166.5 0.5 Q136 13 114 35 Q92 57 80 87.5 Q68 118 68 155 L68 699 L222 699 L222 171 Q222 145 235.5 129.5 Q249 114 270 114 L233 -12 Z " />
<glyph glyph-name="m" unicode="m" horiz-adv-x="942" d="M68 517 L222 517 L222 451 Q242 487 277.5 508 Q313 529 361 529 Q423 529 470.5 496 Q518 463 539 408 Q550 462 591.5 495.5 Q633 529 693 529 Q734 529 769 514 Q804 499 829.5 472.5 Q855 446 870 409.5 Q885 373 885 329 L885 -1 L737 -1 L737 302 Q737 346 712.5 373 Q688 400 649 400 Q607 400 580.5 374.5 Q554 349 554 310 L553 314 L553 -1 L405 -1 L405 302 Q405 346 380.5 373 Q356 400 317 400 Q275 400 248.5 374.5 Q222 349 222 310 L222 0 L68 0 L68 517 Z " />
<glyph glyph-name="n" unicode="n" horiz-adv-x="626" d="M68 517 L222 517 L222 456 Q246 489 286 509 Q326 529 376 529 Q418 529 453 514.5 Q488 500 513.5 473.5 Q539 447 553 410 Q567 373 567 329 L567 0 L420 0 L420 296 Q420 342 393.5 371 Q367 400 325 400 Q281 400 251.5 372.5 Q222 345 222 303 L222 0 L68 0 L68 517 Z " />
<glyph glyph-name="o" unicode="o" horiz-adv-x="633" d="M317 -12 Q259 -12 207 9.5 Q155 31 116.5 67.5 Q78 104 55.5 153.5 Q33 203 33 259 Q33 315 55.5 364 Q78 413 116.5 450 Q155 487 207 508 Q259 529 317 529 Q376 529 427.5 508 Q479 487 517 450 Q555 413 577.5 364 Q600 315 600 259 Q600 203 577.5 153.5 Q555 104 517 67.5 Q479 31 427.5 9.5 Q376 -12 317 -12 Z M180 259 Q180 230 191 204 Q202 178 220.5 158.5 Q239 139 264 128 Q289 117 317 117 Q345 117 370 128 Q395 139 413.5 158.5 Q432 178 442.5 204 Q453 230 453 259 Q453 288 442.5 314 Q432 340 413.5 359 Q395 378 370 389 Q345 400 317 400 Q289 400 264 389 Q239 378 220.5 359 Q202 340 191 314 Q180 288 180 259 Z " />
<glyph glyph-name="p" unicode="p" horiz-adv-x="668" d="M68 517 L222 517 L222 447 Q253 485 296.5 507 Q340 529 394 529 Q446 529 489.5 509 Q533 489 564.5 453 Q596 417 614 367.5 Q632 318 632 259 Q632 199 614 149.5 Q596 100 564.5 64 Q533 28 489.5 8 Q446 -12 394 -12 Q340 -12 296.5 10 Q253 32 222 71 L222 -172 L68 -172 L68 517 Z M222 259 Q222 196 257 156.5 Q292 117 349 117 Q378 117 402.5 127.5 Q427 138 445 157 Q463 176 473 202 Q483 228 483 259 Q483 290 473 316 Q463 342 445 360.5 Q427 379 402.5 389.5 Q378 400 349 400 Q292 400 257 360.5 Q222 321 222 259 Z " />
<glyph glyph-name="q" unicode="q" horiz-adv-x="677" d="M455 83 Q424 38 378 13 Q332 -12 274 -12 Q222 -12 178.5 8 Q135 28 103.5 64 Q72 100 54.5 149.5 Q37 199 37 259 Q37 318 54.5 367.5 Q72 417 103.5 453 Q135 489 178.5 509 Q222 529 274 529 Q332 529 378 504 Q424 479 455 434 L455 517 L609 517 L609 -172 L455 -172 L455 83 Z M186 259 Q186 196 223 156.5 Q260 117 319 117 Q376 117 411.5 156.5 Q447 196 447 259 Q447 321 411.5 360.5 Q376 400 319 400 Q290 400 265.5 389.5 Q241 379 223.5 360.5 Q206 342 196 316 Q186 290 186 259 Z " />
<glyph glyph-name="r" unicode="r" horiz-adv-x="433" d="M68 517 L222 517 L222 420 Q248 471 293 500 Q338 529 397 529 L397 400 Q316 400 269 357.5 Q222 315 222 242 L222 0 L68 0 L68 517 Z " />
<glyph glyph-name="s" unicode="s" horiz-adv-x="505" d="M260 -12 Q197 -12 135 8 Q73 28 25 66 L86 162 Q126 133 174 116.5 Q222 100 264 100 Q334 100 334 144 Q334 167 307.5 178.5 Q281 190 239 201 Q200 210 165.5 221.5 Q131 233 105 250.5 Q79 268 64 294 Q49 320 49 360 Q49 397 63.5 428 Q78 459 104.5 481.5 Q131 504 169 516.5 Q207 529 253 529 Q310 529 362.5 511 Q415 493 459 464 L403 366 Q368 389 328.5 404 Q289 419 253 419 Q225 419 206.5 407 Q188 395 188 375 Q188 355 210 346 Q232 337 282 323 Q316 315 350 304 Q384 293 411.5 274.5 Q439 256 456 228 Q473 200 473 157 Q473 118 458 87 Q443 56 415 34 Q387 12 347.5 0 Q308 -12 260 -12 Z " />
<glyph glyph-name="t" unicode="t" horiz-adv-x="398" d="M252 -12 Q217 -12 188 0 Q159 12 138 33 Q117 54 105 83.5 Q93 113 93 149 L93 393 L23 393 L23 517 L93 517 L93 659 L241 659 L241 517 L351 517 L351 393 L241 393 L241 174 Q241 148 255 132.5 Q269 117 289 117 Q304 117 317 121.5 Q330 126 338 134 L373 34 Q350 14 317 1 Q284 -12 252 -12 Z " />
<glyph glyph-name="u" unicode="u" horiz-adv-x="626" d="M558 0 L404 0 L404 61 Q380 28 340 8 Q300 -12 250 -12 Q208 -12 173 2.5 Q138 17 112.5 43.5 Q87 70 73 107 Q59 144 59 188 L59 517 L206 517 L206 221 Q206 175 232.5 146 Q259 117 301 117 Q345 117 374.5 144.5 Q404 172 404 214 L404 517 L558 517 L558 0 Z " />
<glyph glyph-name="v" unicode="v" horiz-adv-x="612" d="M12 517 L172 517 L307 177 L440 517 L600 517 L379 0 L236 0 L12 517 Z " />
<glyph glyph-name="w" unicode="w" horiz-adv-x="842" d="M15 517 L165 517 L260 206 L357 517 L484 517 L583 206 L676 517 L826 517 L651 0 L513 0 L421 315 L329 0 L192 0 L15 517 Z " />
<glyph glyph-name="x" unicode="x" horiz-adv-x="568" d="M283 150 L175 0 L13 0 L202 263 L21 517 L187 517 L285 379 L384 517 L546 517 L366 266 L555 0 L390 0 L283 150 Z " />
<glyph glyph-name="y" unicode="y" horiz-adv-x="595" d="M184 -180 Q150 -180 113 -171 Q76 -162 49 -146 L81 -42 Q101 -53 119.5 -59.5 Q138 -66 150 -66 Q170 -66 186 -60 Q202 -54 210 -40 L227 -5 L12 517 L171 517 L302 161 L426 517 L582 517 L374 -22 Q344 -100 295 -140 Q246 -180 184 -180 Z " />
<glyph glyph-name="z" unicode="z" horiz-adv-x="531" d="M36 108 L291 387 L43 387 L43 517 L491 517 L490 409 L236 130 L493 130 L493 0 L36 0 L36 108 Z " />
<glyph glyph-name="braceleft" unicode="&#x7b;" horiz-adv-x="399" d="M356 -166 Q291 -161 246 -148 Q201 -135 172.5 -112.5 Q144 -90 131.5 -58.5 Q119 -27 120 16 Q121 38 121 67.5 Q121 97 121 135 Q121 180 99 200 Q77 220 26 220 L26 312 Q78 312 100 332 Q122 352 121 397 L120 515 Q120 558 132.5 590 Q145 622 173 644 Q201 666 246.5 679 Q292 692 356 697 L368 604 Q328 599 303 592 Q278 585 263.5 574 Q249 563 244.5 546 Q240 529 240 503 L241 379 Q241 292 163 266 Q241 241 241 152 Q241 136 241 118 Q241 100 240.5 82.5 Q240 65 240 51 Q240 37 240 29 Q240 3 245 -14.5 Q250 -32 264.5 -43 Q279 -54 304 -61 Q329 -68 368 -73 L356 -166 Z " />
<glyph glyph-name="bar" unicode="&#x7c;" horiz-adv-x="311" d="M102 743 L208 743 L208 -74 L102 -74 L102 743 Z " />
<glyph glyph-name="braceright" unicode="&#x7d;" horiz-adv-x="399" d="M31 -73 Q70 -68 95.5 -61 Q121 -54 135.5 -43 Q150 -32 155 -14.5 Q160 3 160 29 L159 152 Q158 240 236 266 Q159 292 159 379 Q159 407 159.5 437.5 Q160 468 160 503 Q160 529 155 546 Q150 563 135.5 574 Q121 585 96 592 Q71 599 31 604 L43 697 Q108 692 152.5 679 Q197 666 225.5 644.5 Q254 623 266.5 591 Q279 559 279 515 Q279 475 278.5 450.5 Q278 426 278 397 Q278 352 299.5 332 Q321 312 373 312 L373 220 Q322 220 300 200 Q278 180 278 135 L279 16 Q279 -27 266.5 -58.5 Q254 -90 226 -112.5 Q198 -135 153 -148 Q108 -161 43 -166 L31 -73 Z " />
<glyph glyph-name="asciitilde" unicode="&#x7e;" horiz-adv-x="523" d="M330 293 Q309 293 290 301 Q271 309 254.5 318 Q238 327 224 335 Q210 343 198 343 Q166 343 157 292 L81 303 Q89 370 116 403.5 Q143 437 194 437 Q215 437 234 429 Q253 421 269.5 412 Q286 403 300 395 Q314 387 326 387 Q357 387 367 438 L442 427 Q434 360 407.5 326.5 Q381 293 330 293 Z " />
<glyph glyph-name="exclamdown" unicode="&#xa1;" horiz-adv-x="332" d="M252 -170 L78 -170 L113 270 L217 270 L252 -170 Z M72 432 Q72 452 79.5 469.5 Q87 487 99.5 500.5 Q112 514 129 521.5 Q146 529 165 529 Q207 529 234.5 500.5 Q262 472 262 432 Q262 414 254.5 397 Q247 380 234 367 Q221 354 203.5 346.5 Q186 339 165 339 Q146 339 129 346.5 Q112 354 99.5 367 Q87 380 79.5 397 Q72 414 72 432 Z " />
<glyph glyph-name="cent" unicode="&#xa2;" horiz-adv-x="614" d="M313 -10 Q262 -4 216.5 20 Q171 44 137.5 80 Q104 116 84.5 162 Q65 208 65 259 Q65 310 84.5 355.5 Q104 401 137.5 437 Q171 473 216.5 496.5 Q262 520 313 527 L313 589 L379 589 L379 528 Q433 523 477.5 499.5 Q522 476 555 440 L453 353 Q439 369 420 380 Q401 391 379 396 L379 120 Q402 125 422 136.5 Q442 148 456 165 L558 80 Q524 43 479.5 19 Q435 -5 379 -10 L379 -74 L313 -74 L313 -10 Z M214 260 Q214 211 242.5 173 Q271 135 313 122 L313 395 Q271 382 242.5 345 Q214 308 214 260 Z " />
<glyph glyph-name="sterling" unicode="&#xa3;" horiz-adv-x="704" d="M64 63 L152 120 L152 254 L82 254 L82 334 L152 334 L152 463 Q152 515 169.5 558 Q187 601 218.5 632.5 Q250 664 294 681.5 Q338 699 390 699 Q425 699 459.5 690.5 Q494 682 525 667 Q556 652 581.5 631 Q607 610 623 585 L520 485 Q506 517 474.5 537.5 Q443 558 408 558 Q363 558 335 528 Q307 498 307 450 L307 334 L466 334 L466 254 L307 254 L307 120 L646 120 L646 0 L64 0 L64 63 Z " />
<glyph glyph-name="yen" unicode="&#xa5;" horiz-adv-x="792" d="M148 179 L317 179 L317 241 L148 241 L148 321 L270 321 L49 687 L229 687 L396 390 L568 687 L741 687 L520 321 L644 321 L644 241 L474 241 L474 179 L644 179 L644 98 L474 98 L474 0 L317 0 L317 98 L148 98 L148 179 Z " />
<glyph glyph-name="dieresis" unicode="&#xa8;" horiz-adv-x="466" d="M126 582 Q94 582 73.5 603.5 Q53 625 53 656 Q53 685 73.5 706.5 Q94 728 126 728 Q156 728 177.5 706.5 Q199 685 199 656 Q199 625 177.5 603.5 Q156 582 126 582 Z M267 656 Q267 685 288 706.5 Q309 728 340 728 Q371 728 392 706.5 Q413 685 413 656 Q413 625 392 603.5 Q371 582 340 582 Q309 582 288 603.5 Q267 625 267 656 Z " />
<glyph glyph-name="copyright" unicode="&#xa9;" horiz-adv-x="913" d="M457 -116 Q375 -116 302.5 -85 Q230 -54 176 0 Q122 54 91 126 Q60 198 60 280 Q60 362 91 434 Q122 506 176 559.5 Q230 613 302.5 644 Q375 675 457 675 Q539 675 611 644 Q683 613 737 559.5 Q791 506 822 434 Q853 362 853 280 Q853 198 822 126 Q791 54 737 0 Q683 -54 611 -85 Q539 -116 457 -116 Z M101 280 Q101 207 129 142 Q157 77 205.5 29 Q254 -19 319 -47 Q384 -75 457 -75 Q530 -75 594.5 -47 Q659 -19 707.5 29 Q756 77 784 142 Q812 207 812 280 Q812 353 784 417.5 Q756 482 707.5 530 Q659 578 594.5 606 Q530 634 457 634 Q384 634 319 606 Q254 578 205.5 530 Q157 482 129 417.5 Q101 353 101 280 Z M180 280 Q180 335 203 384 Q226 433 265 470 Q304 507 355.5 528.5 Q407 550 465 550 Q529 550 580.5 526 Q632 502 670 461 L568 374 Q549 395 521 408 Q493 421 464 421 Q437 421 412.5 410 Q388 399 369.5 379.5 Q351 360 340 335 Q329 310 329 281 Q329 252 340 226 Q351 200 369.5 180.5 Q388 161 412.5 149.5 Q437 138 464 138 Q494 138 522.5 151 Q551 164 571 186 L673 101 Q635 59 582 34 Q529 9 463 9 Q406 9 354.5 30.5 Q303 52 264 89 Q225 126 202.5 175.5 Q180 225 180 280 Z " />
<glyph glyph-name="guillemotleft" unicode="&#xab;" horiz-adv-x="589" d="M29 254 L194 457 L314 432 L172 255 L314 76 L194 49 L29 254 Z M432 457 L552 432 L410 255 L552 76 L432 49 L267 254 L432 457 Z " />
<glyph glyph-name="registered" unicode="&#xae;" horiz-adv-x="625" d="M313 184 Q262 184 217 203.5 Q172 223 138.5 256.5 Q105 290 85.5 334.5 Q66 379 66 430 Q66 481 85.5 525.5 Q105 570 138.5 603 Q172 636 217 655.5 Q262 675 313 675 Q364 675 408.5 655.5 Q453 636 486.5 603 Q520 570 539.5 525.5 Q559 481 559 430 Q559 379 539.5 334.5 Q520 290 486.5 256.5 Q453 223 408.5 203.5 Q364 184 313 184 Z M106 430 Q106 387 122.5 349.5 Q139 312 167 284 Q195 256 232.5 240 Q270 224 313 224 Q356 224 393.5 240 Q431 256 459 284 Q487 312 503 349.5 Q519 387 519 430 Q519 472 503 509.5 Q487 547 459 575 Q431 603 393.5 619 Q356 635 313 635 Q270 635 232.5 619 Q195 603 167 575 Q139 547 122.5 509.5 Q106 472 106 430 Z M190 580 L325 580 Q376 580 409.5 551 Q443 522 443 476 Q443 443 425.5 418 Q408 393 379 381 L449 280 L360 280 L296 371 L271 371 L271 280 L190 280 L190 580 Z M323 453 Q336 453 344 459 Q352 465 352 476 Q352 486 344 492 Q336 498 323 498 L271 498 L271 453 L323 453 Z " />
<glyph glyph-name="macron" unicode="&#xaf;" horiz-adv-x="485" d="M68 669 L417 669 L417 580 L68 580 L68 669 Z " />
<glyph glyph-name="acute" unicode="&#xb4;" horiz-adv-x="300" d="M138 732 L275 707 L126 575 L23 575 L138 732 Z " />
<glyph glyph-name="paragraph" unicode="&#xb6;" horiz-adv-x="741" d="M293 280 Q238 280 193.5 294.5 Q149 309 118 336 Q87 363 70 400 Q53 437 53 482 Q53 527 70 564.5 Q87 602 117 629 Q147 656 188.5 670.5 Q230 685 280 685 L638 685 L638 -50 L526 -50 L526 580 L405 580 L405 -50 L293 -50 L293 280 Z " />
<glyph glyph-name="periodcentered" unicode="&#xb7;" horiz-adv-x="327" d="M164 192 Q128 192 103 216.5 Q78 241 78 277 Q78 312 103 337 Q128 362 164 362 Q199 362 224 337 Q249 312 249 277 Q249 241 224 216.5 Q199 192 164 192 Z " />
<glyph glyph-name="cedilla" unicode="&#xb8;" horiz-adv-x="280" d="M128 -197 Q100 -197 75 -189 Q50 -181 33 -168 L60 -109 Q74 -120 89 -126 Q104 -132 120 -132 Q137 -132 149 -124 Q161 -116 161 -102 Q161 -91 152.5 -83.5 Q144 -76 129 -76 Q121 -76 113.5 -78.5 Q106 -81 100 -85 L77 -64 L109 11 L185 11 L163 -43 Q195 -43 216 -62 Q237 -81 237 -111 Q237 -152 206.5 -174.5 Q176 -197 128 -197 Z " />
<glyph glyph-name="guillemotright" unicode="&#xbb;" horiz-adv-x="589" d="M37 76 L178 255 L37 432 L156 457 L321 254 L156 49 L37 76 Z M416 255 L275 432 L394 457 L559 254 L394 49 L275 76 L416 255 Z " />
<glyph glyph-name="questiondown" unicode="&#xbf;" horiz-adv-x="542" d="M355 114 Q287 112 244.5 88.5 Q202 65 202 31 Q202 0 228.5 -21.5 Q255 -43 299 -43 Q334 -43 365.5 -27 Q397 -11 420 15 L508 -75 Q464 -123 405 -152.5 Q346 -182 272 -182 Q222 -182 180 -167 Q138 -152 108 -125.5 Q78 -99 61.5 -63 Q45 -27 45 16 Q45 50 58 81 Q71 112 94 137.5 Q117 163 149 182 Q181 201 219 210 L219 277 L355 277 L355 114 Z M195 432 Q195 452 202.5 469.5 Q210 487 222.5 500.5 Q235 514 252 521.5 Q269 529 288 529 Q330 529 357.5 500.5 Q385 472 385 432 Q385 414 377.5 397 Q370 380 357 367 Q344 354 326.5 346.5 Q309 339 288 339 Q269 339 252 346.5 Q235 354 222.5 367 Q210 380 202.5 397 Q195 414 195 432 Z " />
<glyph glyph-name="Agrave" unicode="&#xc0;" horiz-adv-x="778" d="M754 0 L579 0 L533 113 L246 113 L200 0 L25 0 L302 687 L477 687 L754 0 Z M329 902 L444 745 L340 745 L192 877 L329 902 Z M485 233 L390 470 L294 233 L485 233 Z " />
<glyph glyph-name="Aacute" unicode="&#xc1;" horiz-adv-x="778" d="M754 0 L579 0 L533 113 L246 113 L200 0 L25 0 L302 687 L477 687 L754 0 Z M485 233 L390 470 L294 233 L485 233 Z M453 902 L590 877 L441 745 L338 745 L453 902 Z " />
<glyph glyph-name="Acircumflex" unicode="&#xc2;" horiz-adv-x="778" d="M754 0 L579 0 L533 113 L246 113 L200 0 L25 0 L302 687 L477 687 L754 0 Z M326 893 L453 893 L560 745 L465 745 L389 818 L315 745 L221 745 L326 893 Z M485 233 L390 470 L294 233 L485 233 Z " />
<glyph glyph-name="Atilde" unicode="&#xc3;" horiz-adv-x="778" d="M754 0 L579 0 L533 113 L246 113 L200 0 L25 0 L302 687 L477 687 L754 0 Z M208 752 Q216 819 243 852.5 Q270 886 321 886 Q342 886 361 878 Q380 870 396.5 861 Q413 852 427 844 Q441 836 453 836 Q484 836 494 887 L569 876 Q561 809 534.5 775.5 Q508 742 457 742 Q436 742 417 750 Q398 758 381.5 767 Q365 776 351 784 Q337 792 325 792 Q293 792 284 741 L208 752 Z M485 233 L390 470 L294 233 L485 233 Z " />
<glyph glyph-name="Adieresis" unicode="&#xc4;" horiz-adv-x="778" d="M754 0 L579 0 L533 113 L246 113 L200 0 L25 0 L302 687 L477 687 L754 0 Z M210 826 Q210 855 230.5 876.5 Q251 898 283 898 Q313 898 334.5 876.5 Q356 855 356 826 Q356 795 334.5 773.5 Q313 752 283 752 Q251 752 230.5 773.5 Q210 795 210 826 Z M485 233 L390 470 L294 233 L485 233 Z M424 826 Q424 855 445 876.5 Q466 898 497 898 Q528 898 549 876.5 Q570 855 570 826 Q570 795 549 773.5 Q528 752 497 752 Q466 752 445 773.5 Q424 795 424 826 Z " />
<glyph glyph-name="Aring" unicode="&#xc5;" horiz-adv-x="778" d="M754 0 L579 0 L533 113 L246 113 L200 0 L25 0 L302 687 L477 687 L754 0 Z M275 865 Q275 889 284 909.5 Q293 930 309 946 Q325 962 345.5 971 Q366 980 390 980 Q414 980 434.5 971 Q455 962 471 946 Q487 930 496 909.5 Q505 889 505 865 Q505 841 496 820 Q487 799 471 783.5 Q455 768 434.5 759 Q414 750 390 750 Q366 750 345.5 759 Q325 768 309 783.5 Q293 799 284 820 Q275 841 275 865 Z M485 233 L390 470 L294 233 L485 233 Z M337 865 Q337 843 352.5 827.5 Q368 812 390 812 Q411 812 426.5 827.5 Q442 843 442 865 Q442 886 426.5 901.5 Q411 917 390 917 Q368 917 352.5 901.5 Q337 886 337 865 Z " />
<glyph glyph-name="AE" unicode="&#xc6;" horiz-adv-x="1108" d="M420 687 L1052 687 L1052 547 L675 547 L675 420 L1017 420 L1017 280 L675 280 L675 140 L1052 140 L1052 0 L519 0 L519 113 L268 113 L203 0 L24 0 L420 687 Z M519 233 L519 547 L338 233 L519 233 Z " />
<glyph glyph-name="Ccedilla" unicode="&#xc7;" horiz-adv-x="712" d="M397 -197 Q369 -197 344 -189 Q319 -181 302 -168 L329 -109 Q343 -120 358 -126 Q373 -132 389 -132 Q406 -132 418 -124 Q430 -116 430 -102 Q430 -91 421.5 -83.5 Q413 -76 398 -76 Q390 -76 382.5 -78.5 Q375 -81 369 -85 L346 -64 L369 -9 Q302 -1 243 30 Q184 61 140 108.5 Q96 156 70.5 216.5 Q45 277 45 344 Q45 416 74.5 480.5 Q104 545 154 593.5 Q204 642 270.5 670.5 Q337 699 412 699 Q491 699 560 668 Q629 637 680 583 L567 482 Q538 517 498 537.5 Q458 558 412 558 Q370 558 332.5 541 Q295 524 266.5 494.5 Q238 465 221.5 426.5 Q205 388 205 344 Q205 300 221.5 261 Q238 222 266.5 192.5 Q295 163 332.5 146 Q370 129 412 129 Q459 129 499 149.5 Q539 170 568 205 L680 104 Q635 56 574.5 26 Q514 -4 445 -11 L432 -43 Q464 -43 485 -62 Q506 -81 506 -111 Q506 -152 475.5 -174.5 Q445 -197 397 -197 Z " />
<glyph glyph-name="Egrave" unicode="&#xc8;" horiz-adv-x="674" d="M85 687 L618 687 L618 547 L241 547 L241 420 L583 420 L583 280 L241 280 L241 140 L618 140 L618 0 L85 0 L85 687 Z M292 902 L407 745 L303 745 L155 877 L292 902 Z " />
<glyph glyph-name="Eacute" unicode="&#xc9;" horiz-adv-x="674" d="M85 687 L618 687 L618 547 L241 547 L241 420 L583 420 L583 280 L241 280 L241 140 L618 140 L618 0 L85 0 L85 687 Z M416 902 L553 877 L404 745 L301 745 L416 902 Z " />
<glyph glyph-name="Ecircumflex" unicode="&#xca;" horiz-adv-x="674" d="M85 687 L618 687 L618 547 L241 547 L241 420 L583 420 L583 280 L241 280 L241 140 L618 140 L618 0 L85 0 L85 687 Z M289 893 L416 893 L523 745 L428 745 L352 818 L278 745 L184 745 L289 893 Z " />
<glyph glyph-name="Edieresis" unicode="&#xcb;" horiz-adv-x="674" d="M85 687 L618 687 L618 547 L241 547 L241 420 L583 420 L583 280 L241 280 L241 140 L618 140 L618 0 L85 0 L85 687 Z M172 826 Q172 855 192.5 876.5 Q213 898 245 898 Q275 898 296.5 876.5 Q318 855 318 826 Q318 795 296.5 773.5 Q275 752 245 752 Q213 752 192.5 773.5 Q172 795 172 826 Z M386 826 Q386 855 407 876.5 Q428 898 459 898 Q490 898 511 876.5 Q532 855 532 826 Q532 795 511 773.5 Q490 752 459 752 Q428 752 407 773.5 Q386 795 386 826 Z " />
<glyph glyph-name="Igrave" unicode="&#xcc;" horiz-adv-x="437" d="M43 141 L141 141 L141 546 L43 546 L43 687 L393 687 L393 546 L296 546 L296 141 L393 141 L393 0 L43 0 L43 141 Z M158 902 L273 745 L169 745 L21 877 L158 902 Z " />
<glyph glyph-name="Iacute" unicode="&#xcd;" horiz-adv-x="437" d="M43 141 L141 141 L141 546 L43 546 L43 687 L393 687 L393 546 L296 546 L296 141 L393 141 L393 0 L43 0 L43 141 Z M282 902 L419 877 L270 745 L167 745 L282 902 Z " />
<glyph glyph-name="Icircumflex" unicode="&#xce;" horiz-adv-x="437" d="M43 141 L141 141 L141 546 L43 546 L43 687 L393 687 L393 546 L296 546 L296 141 L393 141 L393 0 L43 0 L43 141 Z M155 893 L282 893 L389 745 L294 745 L218 818 L144 745 L50 745 L155 893 Z " />
<glyph glyph-name="Idieresis" unicode="&#xcf;" horiz-adv-x="437" d="M43 141 L141 141 L141 546 L43 546 L43 687 L393 687 L393 546 L296 546 L296 141 L393 141 L393 0 L43 0 L43 141 Z M38 826 Q38 855 58.5 876.5 Q79 898 111 898 Q141 898 162.5 876.5 Q184 855 184 826 Q184 795 162.5 773.5 Q141 752 111 752 Q79 752 58.5 773.5 Q38 795 38 826 Z M252 826 Q252 855 273 876.5 Q294 898 325 898 Q356 898 377 876.5 Q398 855 398 826 Q398 795 377 773.5 Q356 752 325 752 Q294 752 273 773.5 Q252 795 252 826 Z " />
<glyph glyph-name="Eth" unicode="&#xd0;" horiz-adv-x="819" d="M40 416 L129 416 L129 687 L377 687 Q464 687 537 661.5 Q610 636 662.5 590.5 Q715 545 744.5 482 Q774 419 774 344 Q774 269 744.5 205.5 Q715 142 662.5 96.5 Q610 51 537 25.5 Q464 0 377 0 L129 0 L129 276 L40 276 L40 416 Z M398 141 Q446 141 485.5 156 Q525 171 554 198 Q583 225 599 262 Q615 299 615 344 Q615 388 599 425 Q583 462 554 489 Q525 516 485.5 531 Q446 546 398 546 L284 546 L284 416 L422 416 L421 276 L284 276 L284 141 L398 141 Z " />
<glyph glyph-name="Ntilde" unicode="&#xd1;" horiz-adv-x="801" d="M85 687 L240 687 L561 255 L561 687 L716 687 L716 0 L561 0 L240 432 L240 0 L85 0 L85 687 Z M219 752 Q227 819 254 852.5 Q281 886 332 886 Q353 886 372 878 Q391 870 407.5 861 Q424 852 438 844 Q452 836 464 836 Q495 836 505 887 L580 876 Q572 809 545.5 775.5 Q519 742 468 742 Q447 742 428 750 Q409 758 392.5 767 Q376 776 362 784 Q348 792 336 792 Q304 792 295 741 L219 752 Z " />
<glyph glyph-name="Ograve" unicode="&#xd2;" horiz-adv-x="824" d="M412 -12 Q337 -12 270.5 16.5 Q204 45 154 93.5 Q104 142 74.5 207 Q45 272 45 344 Q45 416 74.5 480.5 Q104 545 154 593.5 Q204 642 270.5 670.5 Q337 699 412 699 Q487 699 553.5 670.5 Q620 642 670 593.5 Q720 545 749 480.5 Q778 416 778 344 Q778 272 749 207 Q720 142 670 93.5 Q620 45 553.5 16.5 Q487 -12 412 -12 Z M205 344 Q205 300 221.5 261 Q238 222 266.5 192.5 Q295 163 332.5 146 Q370 129 412 129 Q454 129 491.5 146 Q529 163 557.5 192.5 Q586 222 602.5 261 Q619 300 619 344 Q619 388 602.5 426.5 Q586 465 557.5 494.5 Q529 524 491.5 541 Q454 558 412 558 Q370 558 332.5 541 Q295 524 266.5 494.5 Q238 465 221.5 426.5 Q205 388 205 344 Z M352 902 L467 745 L363 745 L215 877 L352 902 Z " />
<glyph glyph-name="Oacute" unicode="&#xd3;" horiz-adv-x="824" d="M412 -12 Q337 -12 270.5 16.5 Q204 45 154 93.5 Q104 142 74.5 207 Q45 272 45 344 Q45 416 74.5 480.5 Q104 545 154 593.5 Q204 642 270.5 670.5 Q337 699 412 699 Q487 699 553.5 670.5 Q620 642 670 593.5 Q720 545 749 480.5 Q778 416 778 344 Q778 272 749 207 Q720 142 670 93.5 Q620 45 553.5 16.5 Q487 -12 412 -12 Z M205 344 Q205 300 221.5 261 Q238 222 266.5 192.5 Q295 163 332.5 146 Q370 129 412 129 Q454 129 491.5 146 Q529 163 557.5 192.5 Q586 222 602.5 261 Q619 300 619 344 Q619 388 602.5 426.5 Q586 465 557.5 494.5 Q529 524 491.5 541 Q454 558 412 558 Q370 558 332.5 541 Q295 524 266.5 494.5 Q238 465 221.5 426.5 Q205 388 205 344 Z M476 902 L613 877 L464 745 L361 745 L476 902 Z " />
<glyph glyph-name="Ocircumflex" unicode="&#xd4;" horiz-adv-x="824" d="M412 -12 Q337 -12 270.5 16.5 Q204 45 154 93.5 Q104 142 74.5 207 Q45 272 45 344 Q45 416 74.5 480.5 Q104 545 154 593.5 Q204 642 270.5 670.5 Q337 699 412 699 Q487 699 553.5 670.5 Q620 642 670 593.5 Q720 545 749 480.5 Q778 416 778 344 Q778 272 749 207 Q720 142 670 93.5 Q620 45 553.5 16.5 Q487 -12 412 -12 Z M205 344 Q205 300 221.5 261 Q238 222 266.5 192.5 Q295 163 332.5 146 Q370 129 412 129 Q454 129 491.5 146 Q529 163 557.5 192.5 Q586 222 602.5 261 Q619 300 619 344 Q619 388 602.5 426.5 Q586 465 557.5 494.5 Q529 524 491.5 541 Q454 558 412 558 Q370 558 332.5 541 Q295 524 266.5 494.5 Q238 465 221.5 426.5 Q205 388 205 344 Z M349 893 L476 893 L583 745 L488 745 L412 818 L338 745 L244 745 L349 893 Z " />
<glyph glyph-name="Otilde" unicode="&#xd5;" horiz-adv-x="824" d="M412 -12 Q337 -12 270.5 16.5 Q204 45 154 93.5 Q104 142 74.5 207 Q45 272 45 344 Q45 416 74.5 480.5 Q104 545 154 593.5 Q204 642 270.5 670.5 Q337 699 412 699 Q487 699 553.5 670.5 Q620 642 670 593.5 Q720 545 749 480.5 Q778 416 778 344 Q778 272 749 207 Q720 142 670 93.5 Q620 45 553.5 16.5 Q487 -12 412 -12 Z M205 344 Q205 300 221.5 261 Q238 222 266.5 192.5 Q295 163 332.5 146 Q370 129 412 129 Q454 129 491.5 146 Q529 163 557.5 192.5 Q586 222 602.5 261 Q619 300 619 344 Q619 388 602.5 426.5 Q586 465 557.5 494.5 Q529 524 491.5 541 Q454 558 412 558 Q370 558 332.5 541 Q295 524 266.5 494.5 Q238 465 221.5 426.5 Q205 388 205 344 Z M231 752 Q239 819 266 852.5 Q293 886 344 886 Q365 886 384 878 Q403 870 419.5 861 Q436 852 450 844 Q464 836 476 836 Q507 836 517 887 L592 876 Q584 809 557.5 775.5 Q531 742 480 742 Q459 742 440 750 Q421 758 404.5 767 Q388 776 374 784 Q360 792 348 792 Q316 792 307 741 L231 752 Z " />
<glyph glyph-name="Odieresis" unicode="&#xd6;" horiz-adv-x="824" d="M412 -12 Q337 -12 270.5 16.5 Q204 45 154 93.5 Q104 142 74.5 207 Q45 272 45 344 Q45 416 74.5 480.5 Q104 545 154 593.5 Q204 642 270.5 670.5 Q337 699 412 699 Q487 699 553.5 670.5 Q620 642 670 593.5 Q720 545 749 480.5 Q778 416 778 344 Q778 272 749 207 Q720 142 670 93.5 Q620 45 553.5 16.5 Q487 -12 412 -12 Z M205 344 Q205 300 221.5 261 Q238 222 266.5 192.5 Q295 163 332.5 146 Q370 129 412 129 Q454 129 491.5 146 Q529 163 557.5 192.5 Q586 222 602.5 261 Q619 300 619 344 Q619 388 602.5 426.5 Q586 465 557.5 494.5 Q529 524 491.5 541 Q454 558 412 558 Q370 558 332.5 541 Q295 524 266.5 494.5 Q238 465 221.5 426.5 Q205 388 205 344 Z M232 826 Q232 855 252.5 876.5 Q273 898 305 898 Q335 898 356.5 876.5 Q378 855 378 826 Q378 795 356.5 773.5 Q335 752 305 752 Q273 752 252.5 773.5 Q232 795 232 826 Z M446 826 Q446 855 467 876.5 Q488 898 519 898 Q550 898 571 876.5 Q592 855 592 826 Q592 795 571 773.5 Q550 752 519 752 Q488 752 467 773.5 Q446 795 446 826 Z " />
<glyph glyph-name="multiply" unicode="&#xd7;" horiz-adv-x="552" d="M60 206 L185 331 L58 459 L151 552 L279 424 L404 550 L492 461 L367 336 L494 209 L401 116 L274 243 L148 118 L60 206 Z " />
<glyph glyph-name="Oslash" unicode="&#xd8;" horiz-adv-x="831" d="M144 108 Q99 156 74 216 Q49 276 49 344 Q49 416 78.5 480.5 Q108 545 158 593.5 Q208 642 274.5 670.5 Q341 699 416 699 Q467 699 513.5 686 Q560 673 602 649 L634 687 L769 687 L683 585 Q729 537 755.5 475 Q782 413 782 344 Q782 272 753 207 Q724 142 674 93.5 Q624 45 557.5 16.5 Q491 -12 416 -12 Q363 -12 314.5 2 Q266 16 224 42 L188 0 L53 0 L144 108 Z M209 344 Q209 312 218 282 Q227 252 244 226 L506 536 Q464 558 416 558 Q374 558 336.5 541 Q299 524 270.5 494.5 Q242 465 225.5 426.5 Q209 388 209 344 Z M319 155 Q363 129 416 129 Q458 129 495.5 146 Q533 163 561.5 192.5 Q590 222 606.5 261 Q623 300 623 344 Q623 379 612.5 410.5 Q602 442 584 468 L319 155 Z " />
<glyph glyph-name="Ugrave" unicode="&#xd9;" horiz-adv-x="767" d="M383 -12 Q314 -12 256.5 11 Q199 34 157.5 75 Q116 116 93 173 Q70 230 70 298 L70 687 L225 687 L225 305 Q225 266 237 234 Q249 202 270 178.5 Q291 155 320 142 Q349 129 383 129 Q418 129 447 142 Q476 155 497 178.5 Q518 202 530 234 Q542 266 542 305 L542 687 L697 687 L697 298 Q697 230 674 173 Q651 116 609 75 Q567 34 509.5 11 Q452 -12 383 -12 Z M323 902 L438 745 L334 745 L186 877 L323 902 Z " />
<glyph glyph-name="Uacute" unicode="&#xda;" horiz-adv-x="767" d="M383 -12 Q314 -12 256.5 11 Q199 34 157.5 75 Q116 116 93 173 Q70 230 70 298 L70 687 L225 687 L225 305 Q225 266 237 234 Q249 202 270 178.5 Q291 155 320 142 Q349 129 383 129 Q418 129 447 142 Q476 155 497 178.5 Q518 202 530 234 Q542 266 542 305 L542 687 L697 687 L697 298 Q697 230 674 173 Q651 116 609 75 Q567 34 509.5 11 Q452 -12 383 -12 Z M447 902 L584 877 L435 745 L332 745 L447 902 Z " />
<glyph glyph-name="Ucircumflex" unicode="&#xdb;" horiz-adv-x="767" d="M383 -12 Q314 -12 256.5 11 Q199 34 157.5 75 Q116 116 93 173 Q70 230 70 298 L70 687 L225 687 L225 305 Q225 266 237 234 Q249 202 270 178.5 Q291 155 320 142 Q349 129 383 129 Q418 129 447 142 Q476 155 497 178.5 Q518 202 530 234 Q542 266 542 305 L542 687 L697 687 L697 298 Q697 230 674 173 Q651 116 609 75 Q567 34 509.5 11 Q452 -12 383 -12 Z M320 893 L447 893 L554 745 L459 745 L383 818 L309 745 L215 745 L320 893 Z " />
<glyph glyph-name="Udieresis" unicode="&#xdc;" horiz-adv-x="767" d="M383 -12 Q314 -12 256.5 11 Q199 34 157.5 75 Q116 116 93 173 Q70 230 70 298 L70 687 L225 687 L225 305 Q225 266 237 234 Q249 202 270 178.5 Q291 155 320 142 Q349 129 383 129 Q418 129 447 142 Q476 155 497 178.5 Q518 202 530 234 Q542 266 542 305 L542 687 L697 687 L697 298 Q697 230 674 173 Q651 116 609 75 Q567 34 509.5 11 Q452 -12 383 -12 Z M203 826 Q203 855 223.5 876.5 Q244 898 276 898 Q306 898 327.5 876.5 Q349 855 349 826 Q349 795 327.5 773.5 Q306 752 276 752 Q244 752 223.5 773.5 Q203 795 203 826 Z M417 826 Q417 855 438 876.5 Q459 898 490 898 Q521 898 542 876.5 Q563 855 563 826 Q563 795 542 773.5 Q521 752 490 752 Q459 752 438 773.5 Q417 795 417 826 Z " />
<glyph glyph-name="Yacute" unicode="&#xdd;" horiz-adv-x="738" d="M291 244 L23 687 L203 687 L370 390 L542 687 L715 687 L448 244 L448 0 L291 0 L291 244 Z M433 902 L570 877 L421 745 L318 745 L433 902 Z " />
<glyph glyph-name="Thorn" unicode="&#xde;" horiz-adv-x="688" d="M76 687 L229 687 L229 579 L388 579 Q444 579 492 561.5 Q540 544 574.5 513 Q609 482 628.5 439 Q648 396 648 345 Q648 294 628.5 251 Q609 208 574.5 177 Q540 146 492 129 Q444 112 388 112 L231 112 L231 0 L76 0 L76 687 Z M373 254 Q424 254 456 278.5 Q488 303 488 345 Q488 387 456 412 Q424 437 373 437 L231 437 L231 254 L373 254 Z " />
<glyph glyph-name="germandbls" unicode="&#xdf;" horiz-adv-x="626" d="M68 518 Q68 562 86 598.5 Q104 635 137 661.5 Q170 688 215.5 703 Q261 718 315 718 Q369 718 414 703 Q459 688 492 661.5 Q525 635 543 598.5 Q561 562 561 518 Q561 459 538.5 419 Q516 379 472 362 Q531 341 561.5 296 Q592 251 592 186 Q592 145 575 110.5 Q558 76 528 51.5 Q498 27 456 13.5 Q414 0 364 0 L293 0 L293 132 L336 132 Q378 132 405 154 Q432 176 432 211 Q432 246 405 268 Q378 290 336 290 L293 290 L293 412 L312 412 Q351 412 376.5 433.5 Q402 455 402 487 Q402 519 377.5 540 Q353 561 312 561 Q273 561 247.5 539.5 Q222 518 222 480 L222 0 L68 0 L68 518 Z " />
<glyph glyph-name="agrave" unicode="&#xe0;" horiz-adv-x="576" d="M371 50 Q343 20 303.5 4 Q264 -12 222 -12 Q131 -12 79 29.5 Q27 71 27 143 Q27 210 84.5 254 Q142 298 242 308 Q271 311 304.5 313 Q338 315 371 319 Q367 357 340 383.5 Q313 410 256 410 Q223 410 188.5 400 Q154 390 119 373 L71 472 Q125 499 179 514 Q233 529 290 529 Q340 529 382 513.5 Q424 498 454.5 469.5 Q485 441 502 400 Q519 359 519 308 L519 0 L371 0 L371 50 Z M230 732 L345 575 L241 575 L93 707 L230 732 Z M174 147 Q174 122 196.5 107.5 Q219 93 257 93 Q298 93 331 111 Q364 129 371 163 L371 225 Q342 222 315.5 220.5 Q289 219 264 217 Q222 212 198 193 Q174 174 174 147 Z " />
<glyph glyph-name="aacute" unicode="&#xe1;" horiz-adv-x="576" d="M371 50 Q343 20 303.5 4 Q264 -12 222 -12 Q131 -12 79 29.5 Q27 71 27 143 Q27 210 84.5 254 Q142 298 242 308 Q271 311 304.5 313 Q338 315 371 319 Q367 357 340 383.5 Q313 410 256 410 Q223 410 188.5 400 Q154 390 119 373 L71 472 Q125 499 179 514 Q233 529 290 529 Q340 529 382 513.5 Q424 498 454.5 469.5 Q485 441 502 400 Q519 359 519 308 L519 0 L371 0 L371 50 Z M174 147 Q174 122 196.5 107.5 Q219 93 257 93 Q298 93 331 111 Q364 129 371 163 L371 225 Q342 222 315.5 220.5 Q289 219 264 217 Q222 212 198 193 Q174 174 174 147 Z M354 732 L491 707 L342 575 L239 575 L354 732 Z " />
<glyph glyph-name="acircumflex" unicode="&#xe2;" horiz-adv-x="576" d="M371 50 Q343 20 303.5 4 Q264 -12 222 -12 Q131 -12 79 29.5 Q27 71 27 143 Q27 210 84.5 254 Q142 298 242 308 Q271 311 304.5 313 Q338 315 371 319 Q367 357 340 383.5 Q313 410 256 410 Q223 410 188.5 400 Q154 390 119 373 L71 472 Q125 499 179 514 Q233 529 290 529 Q340 529 382 513.5 Q424 498 454.5 469.5 Q485 441 502 400 Q519 359 519 308 L519 0 L371 0 L371 50 Z M227 723 L354 723 L461 575 L366 575 L290 648 L216 575 L122 575 L227 723 Z M174 147 Q174 122 196.5 107.5 Q219 93 257 93 Q298 93 331 111 Q364 129 371 163 L371 225 Q342 222 315.5 220.5 Q289 219 264 217 Q222 212 198 193 Q174 174 174 147 Z " />
<glyph glyph-name="atilde" unicode="&#xe3;" horiz-adv-x="576" d="M371 50 Q343 20 303.5 4 Q264 -12 222 -12 Q131 -12 79 29.5 Q27 71 27 143 Q27 210 84.5 254 Q142 298 242 308 Q271 311 304.5 313 Q338 315 371 319 Q367 357 340 383.5 Q313 410 256 410 Q223 410 188.5 400 Q154 390 119 373 L71 472 Q125 499 179 514 Q233 529 290 529 Q340 529 382 513.5 Q424 498 454.5 469.5 Q485 441 502 400 Q519 359 519 308 L519 0 L371 0 L371 50 Z M109 582 Q117 649 144 682.5 Q171 716 222 716 Q243 716 262 708 Q281 700 297.5 691 Q314 682 328 674 Q342 666 354 666 Q385 666 395 717 L470 706 Q462 639 435.5 605.5 Q409 572 358 572 Q337 572 318 580 Q299 588 282.5 597 Q266 606 252 614 Q238 622 226 622 Q194 622 185 571 L109 582 Z M174 147 Q174 122 196.5 107.5 Q219 93 257 93 Q298 93 331 111 Q364 129 371 163 L371 225 Q342 222 315.5 220.5 Q289 219 264 217 Q222 212 198 193 Q174 174 174 147 Z " />
<glyph glyph-name="adieresis" unicode="&#xe4;" horiz-adv-x="576" d="M371 50 Q343 20 303.5 4 Q264 -12 222 -12 Q131 -12 79 29.5 Q27 71 27 143 Q27 210 84.5 254 Q142 298 242 308 Q271 311 304.5 313 Q338 315 371 319 Q367 357 340 383.5 Q313 410 256 410 Q223 410 188.5 400 Q154 390 119 373 L71 472 Q125 499 179 514 Q233 529 290 529 Q340 529 382 513.5 Q424 498 454.5 469.5 Q485 441 502 400 Q519 359 519 308 L519 0 L371 0 L371 50 Z M110 656 Q110 685 130.5 706.5 Q151 728 183 728 Q213 728 234.5 706.5 Q256 685 256 656 Q256 625 234.5 603.5 Q213 582 183 582 Q151 582 130.5 603.5 Q110 625 110 656 Z M174 147 Q174 122 196.5 107.5 Q219 93 257 93 Q298 93 331 111 Q364 129 371 163 L371 225 Q342 222 315.5 220.5 Q289 219 264 217 Q222 212 198 193 Q174 174 174 147 Z M324 656 Q324 685 345 706.5 Q366 728 397 728 Q428 728 449 706.5 Q470 685 470 656 Q470 625 449 603.5 Q428 582 397 582 Q366 582 345 603.5 Q324 625 324 656 Z " />
<glyph glyph-name="aring" unicode="&#xe5;" horiz-adv-x="576" d="M371 50 Q343 20 303.5 4 Q264 -12 222 -12 Q131 -12 79 29.5 Q27 71 27 143 Q27 210 84.5 254 Q142 298 242 308 Q271 311 304.5 313 Q338 315 371 319 Q367 357 340 383.5 Q313 410 256 410 Q223 410 188.5 400 Q154 390 119 373 L71 472 Q125 499 179 514 Q233 529 290 529 Q340 529 382 513.5 Q424 498 454.5 469.5 Q485 441 502 400 Q519 359 519 308 L519 0 L371 0 L371 50 Z M174 147 Q174 122 196.5 107.5 Q219 93 257 93 Q298 93 331 111 Q364 129 371 163 L371 225 Q342 222 315.5 220.5 Q289 219 264 217 Q222 212 198 193 Q174 174 174 147 Z M175 695 Q175 719 184 739.5 Q193 760 209 776 Q225 792 245.5 801 Q266 810 290 810 Q314 810 334.5 801 Q355 792 371 776 Q387 760 396 739.5 Q405 719 405 695 Q405 671 396 650 Q387 629 371 613.5 Q355 598 334.5 589 Q314 580 290 580 Q266 580 245.5 589 Q225 598 209 613.5 Q193 629 184 650 Q175 671 175 695 Z M237 695 Q237 673 252.5 657.5 Q268 642 290 642 Q311 642 326.5 657.5 Q342 673 342 695 Q342 716 326.5 731.5 Q311 747 290 747 Q268 747 252.5 731.5 Q237 716 237 695 Z " />
<glyph glyph-name="ae" unicode="&#xe6;" horiz-adv-x="932" d="M246 -12 Q197 -12 156.5 0 Q116 12 87.5 33.5 Q59 55 43 85.5 Q27 116 27 153 Q27 191 44 223 Q61 255 90 277.5 Q119 300 159 312.5 Q199 325 244 325 Q308 325 372 299 L372 308 Q372 349 344.5 377.5 Q317 406 255 406 Q220 406 187 396 Q154 386 123 371 L72 472 Q127 499 174 514 Q221 529 278 529 Q336 529 379.5 508.5 Q423 488 450 453 Q486 489 535.5 509 Q585 529 643 529 Q724 529 782 492 Q840 455 871 386 Q887 351 895.5 309.5 Q904 268 904 219 L518 219 Q528 168 561.5 137 Q595 106 645 106 Q680 106 715.5 119.5 Q751 133 776 156 L862 68 Q845 50 820.5 35.5 Q796 21 768 10 Q740 -1 710 -6.5 Q680 -12 651 -12 Q589 -12 536.5 10 Q484 32 446 72 Q415 32 363.5 10 Q312 -12 246 -12 Z M176 157 Q176 128 199.5 110.5 Q223 93 262 93 Q311 93 341.5 116.5 Q372 140 372 176 L372 207 Q323 226 266 226 Q228 226 202 206.5 Q176 187 176 157 Z M756 308 Q751 331 743 347 Q729 376 704.5 393.5 Q680 411 644 411 Q598 411 565 383.5 Q532 356 520 308 L756 308 Z " />
<glyph glyph-name="ccedilla" unicode="&#xe7;" horiz-adv-x="544" d="M291 -197 Q263 -197 238 -189 Q213 -181 196 -168 L223 -109 Q237 -120 252 -126 Q267 -132 283 -132 Q300 -132 312 -124 Q324 -116 324 -102 Q324 -91 315.5 -83.5 Q307 -76 292 -76 Q284 -76 276.5 -78.5 Q269 -81 263 -85 L240 -64 L264 -7 Q215 2 173 26 Q131 50 99.5 85.5 Q68 121 50 165.5 Q32 210 32 259 Q32 314 55 363 Q78 412 117 449 Q156 486 207.5 507.5 Q259 529 317 529 Q381 529 432.5 505 Q484 481 522 440 L420 353 Q401 374 373 387 Q345 400 316 400 Q289 400 264.5 389 Q240 378 221.5 358.5 Q203 339 192 314 Q181 289 181 260 Q181 231 192 205 Q203 179 221.5 159.5 Q240 140 264.5 128.5 Q289 117 316 117 Q346 117 374.5 130 Q403 143 423 165 L525 80 Q490 42 443.5 18 Q397 -6 339 -11 L326 -43 Q358 -43 379 -62 Q400 -81 400 -111 Q400 -152 369.5 -174.5 Q339 -197 291 -197 Z " />
<glyph glyph-name="egrave" unicode="&#xe8;" horiz-adv-x="594" d="M313 -12 Q255 -12 204 8 Q153 28 115.5 64 Q78 100 56.5 150 Q35 200 35 260 Q35 319 55.5 368.5 Q76 418 112.5 453.5 Q149 489 198.5 509 Q248 529 305 529 Q386 529 444 492 Q502 455 533 386 Q549 351 557.5 309.5 Q566 268 566 219 L180 219 Q190 168 223.5 137 Q257 106 307 106 Q342 106 377.5 119.5 Q413 133 438 156 L524 68 Q507 50 482.5 35.5 Q458 21 430 10 Q402 -1 372 -6.5 Q342 -12 313 -12 Z M245 732 L360 575 L256 575 L108 707 L245 732 Z M418 308 Q413 331 405 347 Q391 376 366.5 393.5 Q342 411 306 411 Q260 411 227 383.5 Q194 356 182 308 L418 308 Z " />
<glyph glyph-name="eacute" unicode="&#xe9;" horiz-adv-x="594" d="M313 -12 Q255 -12 204 8 Q153 28 115.5 64 Q78 100 56.5 150 Q35 200 35 260 Q35 319 55.5 368.5 Q76 418 112.5 453.5 Q149 489 198.5 509 Q248 529 305 529 Q386 529 444 492 Q502 455 533 386 Q549 351 557.5 309.5 Q566 268 566 219 L180 219 Q190 168 223.5 137 Q257 106 307 106 Q342 106 377.5 119.5 Q413 133 438 156 L524 68 Q507 50 482.5 35.5 Q458 21 430 10 Q402 -1 372 -6.5 Q342 -12 313 -12 Z M418 308 Q413 331 405 347 Q391 376 366.5 393.5 Q342 411 306 411 Q260 411 227 383.5 Q194 356 182 308 L418 308 Z M369 732 L506 707 L357 575 L254 575 L369 732 Z " />
<glyph glyph-name="ecircumflex" unicode="&#xea;" horiz-adv-x="594" d="M313 -12 Q255 -12 204 8 Q153 28 115.5 64 Q78 100 56.5 150 Q35 200 35 260 Q35 319 55.5 368.5 Q76 418 112.5 453.5 Q149 489 198.5 509 Q248 529 305 529 Q386 529 444 492 Q502 455 533 386 Q549 351 557.5 309.5 Q566 268 566 219 L180 219 Q190 168 223.5 137 Q257 106 307 106 Q342 106 377.5 119.5 Q413 133 438 156 L524 68 Q507 50 482.5 35.5 Q458 21 430 10 Q402 -1 372 -6.5 Q342 -12 313 -12 Z M242 723 L369 723 L476 575 L381 575 L305 648 L231 575 L137 575 L242 723 Z M418 308 Q413 331 405 347 Q391 376 366.5 393.5 Q342 411 306 411 Q260 411 227 383.5 Q194 356 182 308 L418 308 Z " />
<glyph glyph-name="edieresis" unicode="&#xeb;" horiz-adv-x="594" d="M313 -12 Q255 -12 204 8 Q153 28 115.5 64 Q78 100 56.5 150 Q35 200 35 260 Q35 319 55.5 368.5 Q76 418 112.5 453.5 Q149 489 198.5 509 Q248 529 305 529 Q386 529 444 492 Q502 455 533 386 Q549 351 557.5 309.5 Q566 268 566 219 L180 219 Q190 168 223.5 137 Q257 106 307 106 Q342 106 377.5 119.5 Q413 133 438 156 L524 68 Q507 50 482.5 35.5 Q458 21 430 10 Q402 -1 372 -6.5 Q342 -12 313 -12 Z M125 656 Q125 685 145.5 706.5 Q166 728 198 728 Q228 728 249.5 706.5 Q271 685 271 656 Q271 625 249.5 603.5 Q228 582 198 582 Q166 582 145.5 603.5 Q125 625 125 656 Z M418 308 Q413 331 405 347 Q391 376 366.5 393.5 Q342 411 306 411 Q260 411 227 383.5 Q194 356 182 308 L418 308 Z M339 656 Q339 685 360 706.5 Q381 728 412 728 Q443 728 464 706.5 Q485 685 485 656 Q485 625 464 603.5 Q443 582 412 582 Q381 582 360 603.5 Q339 625 339 656 Z " />
<glyph glyph-name="igrave" unicode="&#xec;" horiz-adv-x="290" d="M68 517 L222 517 L222 0 L68 0 L68 517 Z M85 732 L200 575 L96 575 L-52 707 L85 732 Z " />
<glyph glyph-name="iacute" unicode="&#xed;" horiz-adv-x="290" d="M68 517 L222 517 L222 0 L68 0 L68 517 Z M209 732 L346 707 L197 575 L94 575 L209 732 Z " />
<glyph glyph-name="icircumflex" unicode="&#xee;" horiz-adv-x="290" d="M68 517 L222 517 L222 0 L68 0 L68 517 Z M82 723 L209 723 L316 575 L221 575 L145 648 L71 575 L-23 575 L82 723 Z " />
<glyph glyph-name="idieresis" unicode="&#xef;" horiz-adv-x="290" d="M68 517 L222 517 L222 0 L68 0 L68 517 Z M-34 656 Q-34 685 -13.5 706.5 Q7 728 39 728 Q69 728 90.5 706.5 Q112 685 112 656 Q112 625 90.5 603.5 Q69 582 39 582 Q7 582 -13.5 603.5 Q-34 625 -34 656 Z M180 656 Q180 685 201 706.5 Q222 728 253 728 Q284 728 305 706.5 Q326 685 326 656 Q326 625 305 603.5 Q284 582 253 582 Q222 582 201 603.5 Q180 625 180 656 Z " />
<glyph glyph-name="eth" unicode="&#xf0;" horiz-adv-x="621" d="M309 118 Q364 118 398.5 153 Q433 188 433 244 Q433 297 399 333 Q365 369 307 369 Q252 369 217 334.5 Q182 300 182 245 Q182 188 217.5 153 Q253 118 309 118 Z M34 250 Q34 304 50.5 348.5 Q67 393 97 425.5 Q127 458 168 476 Q209 494 258 494 Q307 494 343.5 475 Q380 456 409 422 Q390 460 359.5 494.5 Q329 529 289 562 L187 516 L152 595 L211 621 Q194 633 176.5 644.5 Q159 656 141 668 L278 727 Q312 701 339 678 L428 718 L463 639 L411 616 Q497 535 539.5 457 Q582 379 582 282 Q582 217 562 163 Q542 109 505.5 70 Q469 31 418.5 9.5 Q368 -12 308 -12 Q248 -12 197.5 7.5 Q147 27 111 61.5 Q75 96 54.5 144.5 Q34 193 34 250 Z " />
<glyph glyph-name="ntilde" unicode="&#xf1;" horiz-adv-x="626" d="M68 517 L222 517 L222 456 Q246 489 286 509 Q326 529 376 529 Q418 529 453 514.5 Q488 500 513.5 473.5 Q539 447 553 410 Q567 373 567 329 L567 0 L420 0 L420 296 Q420 342 393.5 371 Q367 400 325 400 Q281 400 251.5 372.5 Q222 345 222 303 L222 0 L68 0 L68 517 Z M132 582 Q140 649 167 682.5 Q194 716 245 716 Q266 716 285 708 Q304 700 320.5 691 Q337 682 351 674 Q365 666 377 666 Q408 666 418 717 L493 706 Q485 639 458.5 605.5 Q432 572 381 572 Q360 572 341 580 Q322 588 305.5 597 Q289 606 275 614 Q261 622 249 622 Q217 622 208 571 L132 582 Z " />
<glyph glyph-name="ograve" unicode="&#xf2;" horiz-adv-x="633" d="M317 -12 Q259 -12 207 9.5 Q155 31 116.5 67.5 Q78 104 55.5 153.5 Q33 203 33 259 Q33 315 55.5 364 Q78 413 116.5 450 Q155 487 207 508 Q259 529 317 529 Q376 529 427.5 508 Q479 487 517 450 Q555 413 577.5 364 Q600 315 600 259 Q600 203 577.5 153.5 Q555 104 517 67.5 Q479 31 427.5 9.5 Q376 -12 317 -12 Z M257 732 L372 575 L268 575 L120 707 L257 732 Z M180 259 Q180 230 191 204 Q202 178 220.5 158.5 Q239 139 264 128 Q289 117 317 117 Q345 117 370 128 Q395 139 413.5 158.5 Q432 178 442.5 204 Q453 230 453 259 Q453 288 442.5 314 Q432 340 413.5 359 Q395 378 370 389 Q345 400 317 400 Q289 400 264 389 Q239 378 220.5 359 Q202 340 191 314 Q180 288 180 259 Z " />
<glyph glyph-name="oacute" unicode="&#xf3;" horiz-adv-x="633" d="M317 -12 Q259 -12 207 9.5 Q155 31 116.5 67.5 Q78 104 55.5 153.5 Q33 203 33 259 Q33 315 55.5 364 Q78 413 116.5 450 Q155 487 207 508 Q259 529 317 529 Q376 529 427.5 508 Q479 487 517 450 Q555 413 577.5 364 Q600 315 600 259 Q600 203 577.5 153.5 Q555 104 517 67.5 Q479 31 427.5 9.5 Q376 -12 317 -12 Z M180 259 Q180 230 191 204 Q202 178 220.5 158.5 Q239 139 264 128 Q289 117 317 117 Q345 117 370 128 Q395 139 413.5 158.5 Q432 178 442.5 204 Q453 230 453 259 Q453 288 442.5 314 Q432 340 413.5 359 Q395 378 370 389 Q345 400 317 400 Q289 400 264 389 Q239 378 220.5 359 Q202 340 191 314 Q180 288 180 259 Z M381 732 L518 707 L369 575 L266 575 L381 732 Z " />
<glyph glyph-name="ocircumflex" unicode="&#xf4;" horiz-adv-x="633" d="M317 -12 Q259 -12 207 9.5 Q155 31 116.5 67.5 Q78 104 55.5 153.5 Q33 203 33 259 Q33 315 55.5 364 Q78 413 116.5 450 Q155 487 207 508 Q259 529 317 529 Q376 529 427.5 508 Q479 487 517 450 Q555 413 577.5 364 Q600 315 600 259 Q600 203 577.5 153.5 Q555 104 517 67.5 Q479 31 427.5 9.5 Q376 -12 317 -12 Z M254 723 L381 723 L488 575 L393 575 L317 648 L243 575 L149 575 L254 723 Z M180 259 Q180 230 191 204 Q202 178 220.5 158.5 Q239 139 264 128 Q289 117 317 117 Q345 117 370 128 Q395 139 413.5 158.5 Q432 178 442.5 204 Q453 230 453 259 Q453 288 442.5 314 Q432 340 413.5 359 Q395 378 370 389 Q345 400 317 400 Q289 400 264 389 Q239 378 220.5 359 Q202 340 191 314 Q180 288 180 259 Z " />
<glyph glyph-name="otilde" unicode="&#xf5;" horiz-adv-x="633" d="M317 -12 Q259 -12 207 9.5 Q155 31 116.5 67.5 Q78 104 55.5 153.5 Q33 203 33 259 Q33 315 55.5 364 Q78 413 116.5 450 Q155 487 207 508 Q259 529 317 529 Q376 529 427.5 508 Q479 487 517 450 Q555 413 577.5 364 Q600 315 600 259 Q600 203 577.5 153.5 Q555 104 517 67.5 Q479 31 427.5 9.5 Q376 -12 317 -12 Z M136 582 Q144 649 171 682.5 Q198 716 249 716 Q270 716 289 708 Q308 700 324.5 691 Q341 682 355 674 Q369 666 381 666 Q412 666 422 717 L497 706 Q489 639 462.5 605.5 Q436 572 385 572 Q364 572 345 580 Q326 588 309.5 597 Q293 606 279 614 Q265 622 253 622 Q221 622 212 571 L136 582 Z M180 259 Q180 230 191 204 Q202 178 220.5 158.5 Q239 139 264 128 Q289 117 317 117 Q345 117 370 128 Q395 139 413.5 158.5 Q432 178 442.5 204 Q453 230 453 259 Q453 288 442.5 314 Q432 340 413.5 359 Q395 378 370 389 Q345 400 317 400 Q289 400 264 389 Q239 378 220.5 359 Q202 340 191 314 Q180 288 180 259 Z " />
<glyph glyph-name="odieresis" unicode="&#xf6;" horiz-adv-x="633" d="M317 -12 Q259 -12 207 9.5 Q155 31 116.5 67.5 Q78 104 55.5 153.5 Q33 203 33 259 Q33 315 55.5 364 Q78 413 116.5 450 Q155 487 207 508 Q259 529 317 529 Q376 529 427.5 508 Q479 487 517 450 Q555 413 577.5 364 Q600 315 600 259 Q600 203 577.5 153.5 Q555 104 517 67.5 Q479 31 427.5 9.5 Q376 -12 317 -12 Z M137 656 Q137 685 157.5 706.5 Q178 728 210 728 Q240 728 261.5 706.5 Q283 685 283 656 Q283 625 261.5 603.5 Q240 582 210 582 Q178 582 157.5 603.5 Q137 625 137 656 Z M180 259 Q180 230 191 204 Q202 178 220.5 158.5 Q239 139 264 128 Q289 117 317 117 Q345 117 370 128 Q395 139 413.5 158.5 Q432 178 442.5 204 Q453 230 453 259 Q453 288 442.5 314 Q432 340 413.5 359 Q395 378 370 389 Q345 400 317 400 Q289 400 264 389 Q239 378 220.5 359 Q202 340 191 314 Q180 288 180 259 Z M351 656 Q351 685 372 706.5 Q393 728 424 728 Q455 728 476 706.5 Q497 685 497 656 Q497 625 476 603.5 Q455 582 424 582 Q393 582 372 603.5 Q351 625 351 656 Z " />
<glyph glyph-name="divide" unicode="&#xf7;" horiz-adv-x="602" d="M58 396 L544 396 L544 272 L58 272 L58 396 Z M218 144 Q218 177 242.5 201.5 Q267 226 303 226 Q337 226 361 201.5 Q385 177 385 144 Q385 109 361 84 Q337 59 303 59 Q267 59 242.5 84 Q218 109 218 144 Z M218 527 Q218 559 242.5 584 Q267 609 303 609 Q337 609 361 584 Q385 559 385 527 Q385 492 361 467 Q337 442 303 442 Q267 442 242.5 467 Q218 492 218 527 Z " />
<glyph glyph-name="oslash" unicode="&#xf8;" horiz-adv-x="644" d="M111 77 Q76 113 56.5 159.5 Q37 206 37 259 Q37 315 59.5 364 Q82 413 120.5 450 Q159 487 211 508 Q263 529 321 529 Q362 529 399 519 Q436 509 468 490 L492 517 L600 517 L532 439 Q566 403 585 357 Q604 311 604 259 Q604 203 581.5 153.5 Q559 104 521 67.5 Q483 31 431.5 9.5 Q380 -12 321 -12 Q281 -12 244.5 -2 Q208 8 176 26 L153 0 L45 0 L111 77 Z M184 259 Q184 239 189.5 220 Q195 201 205 185 L379 386 Q353 400 321 400 Q293 400 268 389 Q243 378 224.5 359 Q206 340 195 314 Q184 288 184 259 Z M265 130 Q290 117 321 117 Q349 117 374 128 Q399 139 417.5 158.5 Q436 178 446.5 204 Q457 230 457 259 Q457 297 438 330 L265 130 Z " />
<glyph glyph-name="ugrave" unicode="&#xf9;" horiz-adv-x="626" d="M558 0 L404 0 L404 61 Q380 28 340 8 Q300 -12 250 -12 Q208 -12 173 2.5 Q138 17 112.5 43.5 Q87 70 73 107 Q59 144 59 188 L59 517 L206 517 L206 221 Q206 175 232.5 146 Q259 117 301 117 Q345 117 374.5 144.5 Q404 172 404 214 L404 517 L558 517 L558 0 Z M241 732 L356 575 L252 575 L104 707 L241 732 Z " />
<glyph glyph-name="uacute" unicode="&#xfa;" horiz-adv-x="626" d="M558 0 L404 0 L404 61 Q380 28 340 8 Q300 -12 250 -12 Q208 -12 173 2.5 Q138 17 112.5 43.5 Q87 70 73 107 Q59 144 59 188 L59 517 L206 517 L206 221 Q206 175 232.5 146 Q259 117 301 117 Q345 117 374.5 144.5 Q404 172 404 214 L404 517 L558 517 L558 0 Z M365 732 L502 707 L353 575 L250 575 L365 732 Z " />
<glyph glyph-name="ucircumflex" unicode="&#xfb;" horiz-adv-x="626" d="M558 0 L404 0 L404 61 Q380 28 340 8 Q300 -12 250 -12 Q208 -12 173 2.5 Q138 17 112.5 43.5 Q87 70 73 107 Q59 144 59 188 L59 517 L206 517 L206 221 Q206 175 232.5 146 Q259 117 301 117 Q345 117 374.5 144.5 Q404 172 404 214 L404 517 L558 517 L558 0 Z M238 723 L365 723 L472 575 L377 575 L301 648 L227 575 L133 575 L238 723 Z " />
<glyph glyph-name="udieresis" unicode="&#xfc;" horiz-adv-x="626" d="M558 0 L404 0 L404 61 Q380 28 340 8 Q300 -12 250 -12 Q208 -12 173 2.5 Q138 17 112.5 43.5 Q87 70 73 107 Q59 144 59 188 L59 517 L206 517 L206 221 Q206 175 232.5 146 Q259 117 301 117 Q345 117 374.5 144.5 Q404 172 404 214 L404 517 L558 517 L558 0 Z M122 656 Q122 685 142.5 706.5 Q163 728 195 728 Q225 728 246.5 706.5 Q268 685 268 656 Q268 625 246.5 603.5 Q225 582 195 582 Q163 582 142.5 603.5 Q122 625 122 656 Z M336 656 Q336 685 357 706.5 Q378 728 409 728 Q440 728 461 706.5 Q482 685 482 656 Q482 625 461 603.5 Q440 582 409 582 Q378 582 357 603.5 Q336 625 336 656 Z " />
<glyph glyph-name="yacute" unicode="&#xfd;" horiz-adv-x="595" d="M184 -180 Q150 -180 113 -171 Q76 -162 49 -146 L81 -42 Q101 -53 119.5 -59.5 Q138 -66 150 -66 Q170 -66 186 -60 Q202 -54 210 -40 L227 -5 L12 517 L171 517 L302 161 L426 517 L582 517 L374 -22 Q344 -100 295 -140 Q246 -180 184 -180 Z M366 732 L503 707 L354 575 L251 575 L366 732 Z " />
<glyph glyph-name="thorn" unicode="&#xfe;" horiz-adv-x="669" d="M69 699 L222 699 L222 445 Q253 485 297 507 Q341 529 395 529 Q447 529 490.5 509 Q534 489 565.5 453 Q597 417 615 367.5 Q633 318 633 259 Q633 199 615 149.5 Q597 100 565.5 64 Q534 28 490.5 8 Q447 -12 395 -12 Q341 -12 297 10 Q253 32 222 72 L222 -172 L69 -172 L69 699 Z M223 259 Q223 196 258 156.5 Q293 117 350 117 Q379 117 403.5 127.5 Q428 138 446 157 Q464 176 474 202 Q484 228 484 259 Q484 290 474 316 Q464 342 446 360.5 Q428 379 403.5 389.5 Q379 400 350 400 Q293 400 258 360.5 Q223 321 223 259 Z " />
<glyph glyph-name="ydieresis" unicode="&#xff;" horiz-adv-x="595" d="M184 -180 Q150 -180 113 -171 Q76 -162 49 -146 L81 -42 Q101 -53 119.5 -59.5 Q138 -66 150 -66 Q170 -66 186 -60 Q202 -54 210 -40 L227 -5 L12 517 L171 517 L302 161 L426 517 L582 517 L374 -22 Q344 -100 295 -140 Q246 -180 184 -180 Z M122 656 Q122 685 142.5 706.5 Q163 728 195 728 Q225 728 246.5 706.5 Q268 685 268 656 Q268 625 246.5 603.5 Q225 582 195 582 Q163 582 142.5 603.5 Q122 625 122 656 Z M336 656 Q336 685 357 706.5 Q378 728 409 728 Q440 728 461 706.5 Q482 685 482 656 Q482 625 461 603.5 Q440 582 409 582 Q378 582 357 603.5 Q336 625 336 656 Z " />
<glyph glyph-name="Amacron" unicode="&#x100;" horiz-adv-x="778" d="M754 0 L579 0 L533 113 L246 113 L200 0 L25 0 L302 687 L477 687 L754 0 Z M215 839 L564 839 L564 750 L215 750 L215 839 Z M485 233 L390 470 L294 233 L485 233 Z " />
<glyph glyph-name="amacron" unicode="&#x101;" horiz-adv-x="576" d="M371 50 Q343 20 303.5 4 Q264 -12 222 -12 Q131 -12 79 29.5 Q27 71 27 143 Q27 210 84.5 254 Q142 298 242 308 Q271 311 304.5 313 Q338 315 371 319 Q367 357 340 383.5 Q313 410 256 410 Q223 410 188.5 400 Q154 390 119 373 L71 472 Q125 499 179 514 Q233 529 290 529 Q340 529 382 513.5 Q424 498 454.5 469.5 Q485 441 502 400 Q519 359 519 308 L519 0 L371 0 L371 50 Z M115 669 L464 669 L464 580 L115 580 L115 669 Z M174 147 Q174 122 196.5 107.5 Q219 93 257 93 Q298 93 331 111 Q364 129 371 163 L371 225 Q342 222 315.5 220.5 Q289 219 264 217 Q222 212 198 193 Q174 174 174 147 Z " />
<glyph glyph-name="Abreve" unicode="&#x102;" horiz-adv-x="778" d="M754 0 L579 0 L533 113 L246 113 L200 0 L25 0 L302 687 L477 687 L754 0 Z M292 882 Q312 862 338 850.5 Q364 839 390 839 Q416 839 442 850.5 Q468 862 488 882 L553 817 Q519 783 477 766.5 Q435 750 390 750 Q345 750 303.5 766.5 Q262 783 227 817 L292 882 Z M485 233 L390 470 L294 233 L485 233 Z " />
<glyph glyph-name="abreve" unicode="&#x103;" horiz-adv-x="576" d="M371 50 Q343 20 303.5 4 Q264 -12 222 -12 Q131 -12 79 29.5 Q27 71 27 143 Q27 210 84.5 254 Q142 298 242 308 Q271 311 304.5 313 Q338 315 371 319 Q367 357 340 383.5 Q313 410 256 410 Q223 410 188.5 400 Q154 390 119 373 L71 472 Q125 499 179 514 Q233 529 290 529 Q340 529 382 513.5 Q424 498 454.5 469.5 Q485 441 502 400 Q519 359 519 308 L519 0 L371 0 L371 50 Z M192 712 Q212 692 238 680.5 Q264 669 290 669 Q316 669 342 680.5 Q368 692 388 712 L453 647 Q419 613 377 596.5 Q335 580 290 580 Q245 580 203.5 596.5 Q162 613 127 647 L192 712 Z M174 147 Q174 122 196.5 107.5 Q219 93 257 93 Q298 93 331 111 Q364 129 371 163 L371 225 Q342 222 315.5 220.5 Q289 219 264 217 Q222 212 198 193 Q174 174 174 147 Z " />
<glyph glyph-name="Aogonek" unicode="&#x104;" horiz-adv-x="778" d="M754 0 Q734 0 721.5 -12 Q709 -24 709 -43 Q709 -63 721.5 -72.5 Q734 -82 754 -82 Q777 -82 790 -69 L815 -140 Q798 -155 775.5 -164 Q753 -173 725 -173 Q676 -173 645 -143 Q614 -113 614 -61 Q614 -28 632 0 L579 0 L533 113 L246 113 L200 0 L25 0 L302 687 L477 687 L754 0 Z M485 233 L390 470 L294 233 L485 233 Z " />
<glyph glyph-name="aogonek" unicode="&#x105;" horiz-adv-x="576" d="M371 50 Q343 20 303.5 4 Q264 -12 222 -12 Q131 -12 79 29.5 Q27 71 27 143 Q27 210 84.5 254 Q142 298 242 308 Q271 311 304.5 313 Q338 315 371 319 Q367 357 340 383.5 Q313 410 256 410 Q223 410 188.5 400 Q154 390 119 373 L71 472 Q125 499 179 514 Q233 529 290 529 Q340 529 382 513.5 Q424 498 454.5 469.5 Q485 441 502 400 Q519 359 519 308 L519 0 L520 0 Q500 0 487.5 -12 Q475 -24 475 -43 Q475 -63 487.5 -72.5 Q500 -82 520 -82 Q543 -82 556 -69 L581 -140 Q564 -155 541.5 -164 Q519 -173 491 -173 Q442 -173 411 -143 Q380 -113 380 -61 Q380 -28 398 0 L371 0 L371 50 Z M174 147 Q174 122 196.5 107.5 Q219 93 257 93 Q298 93 331 111 Q364 129 371 163 L371 225 Q342 222 315.5 220.5 Q289 219 264 217 Q222 212 198 193 Q174 174 174 147 Z " />
<glyph glyph-name="Cacute" unicode="&#x106;" horiz-adv-x="712" d="M412 -12 Q337 -12 270.5 16.5 Q204 45 154 93.5 Q104 142 74.5 207 Q45 272 45 344 Q45 416 74.5 480.5 Q104 545 154 593.5 Q204 642 270.5 670.5 Q337 699 412 699 Q491 699 560 668 Q629 637 680 583 L567 482 Q538 517 498 537.5 Q458 558 412 558 Q370 558 332.5 541 Q295 524 266.5 494.5 Q238 465 221.5 426.5 Q205 388 205 344 Q205 300 221.5 261 Q238 222 266.5 192.5 Q295 163 332.5 146 Q370 129 412 129 Q459 129 499 149.5 Q539 170 568 205 L680 104 Q629 50 560 19 Q491 -12 412 -12 Z M476 902 L613 877 L464 745 L361 745 L476 902 Z " />
<glyph glyph-name="cacute" unicode="&#x107;" horiz-adv-x="544" d="M315 -12 Q258 -12 206.5 9.5 Q155 31 116 68 Q77 105 54.5 154.5 Q32 204 32 259 Q32 314 55 363 Q78 412 117 449 Q156 486 207.5 507.5 Q259 529 317 529 Q381 529 432.5 505 Q484 481 522 440 L420 353 Q401 374 373 387 Q345 400 316 400 Q289 400 264.5 389 Q240 378 221.5 358.5 Q203 339 192 314 Q181 289 181 260 Q181 231 192 205 Q203 179 221.5 159.5 Q240 140 264.5 128.5 Q289 117 316 117 Q346 117 374.5 130 Q403 143 423 165 L525 80 Q487 38 434 13 Q381 -12 315 -12 Z M359 732 L496 707 L347 575 L244 575 L359 732 Z " />
<glyph glyph-name="Ccaron" unicode="&#x10c;" horiz-adv-x="712" d="M412 -12 Q337 -12 270.5 16.5 Q204 45 154 93.5 Q104 142 74.5 207 Q45 272 45 344 Q45 416 74.5 480.5 Q104 545 154 593.5 Q204 642 270.5 670.5 Q337 699 412 699 Q491 699 560 668 Q629 637 680 583 L567 482 Q538 517 498 537.5 Q458 558 412 558 Q370 558 332.5 541 Q295 524 266.5 494.5 Q238 465 221.5 426.5 Q205 388 205 344 Q205 300 221.5 261 Q238 222 266.5 192.5 Q295 163 332.5 146 Q370 129 412 129 Q459 129 499 149.5 Q539 170 568 205 L680 104 Q629 50 560 19 Q491 -12 412 -12 Z M337 893 L412 820 L488 893 L582 893 L476 745 L349 745 L244 893 L337 893 Z " />
<glyph glyph-name="ccaron" unicode="&#x10d;" horiz-adv-x="544" d="M315 -12 Q258 -12 206.5 9.5 Q155 31 116 68 Q77 105 54.5 154.5 Q32 204 32 259 Q32 314 55 363 Q78 412 117 449 Q156 486 207.5 507.5 Q259 529 317 529 Q381 529 432.5 505 Q484 481 522 440 L420 353 Q401 374 373 387 Q345 400 316 400 Q289 400 264.5 389 Q240 378 221.5 358.5 Q203 339 192 314 Q181 289 181 260 Q181 231 192 205 Q203 179 221.5 159.5 Q240 140 264.5 128.5 Q289 117 316 117 Q346 117 374.5 130 Q403 143 423 165 L525 80 Q487 38 434 13 Q381 -12 315 -12 Z M221 723 L296 650 L372 723 L466 723 L360 575 L233 575 L128 723 L221 723 Z " />
<glyph glyph-name="Dcaron" unicode="&#x10e;" horiz-adv-x="775" d="M85 687 L333 687 Q420 687 493 661.5 Q566 636 618.5 590.5 Q671 545 700.5 482 Q730 419 730 344 Q730 269 700.5 205.5 Q671 142 618.5 96.5 Q566 51 493 25.5 Q420 0 333 0 L85 0 L85 687 Z M258 893 L333 820 L409 893 L503 893 L397 745 L270 745 L165 893 L258 893 Z M354 141 Q402 141 441.5 156 Q481 171 510 198 Q539 225 555 262 Q571 299 571 344 Q571 388 555 425 Q539 462 510 489 Q481 516 441.5 531 Q402 546 354 546 L240 546 L240 141 L354 141 Z " />
<glyph glyph-name="dcaron" unicode="&#x10f;" horiz-adv-x="793" d="M447 72 Q416 32 372 10 Q328 -12 274 -12 Q222 -12 178.5 8 Q135 28 103.5 64 Q72 100 54.5 149.5 Q37 199 37 259 Q37 318 54.5 367.5 Q72 417 103.5 453 Q135 489 178.5 509 Q222 529 274 529 Q328 529 372 507 Q416 485 447 445 L447 699 L601 699 L601 0 L447 0 L447 72 Z M186 259 Q186 196 223 156.5 Q260 117 319 117 Q376 117 411.5 156.5 Q447 196 447 259 Q447 321 411.5 360.5 Q376 400 319 400 Q290 400 265.5 389.5 Q241 379 223.5 360.5 Q206 342 196 316 Q186 290 186 259 Z M670 626 Q670 656 691 677.5 Q712 699 741 699 Q775 699 796 671.5 Q817 644 817 601 Q817 531 733 450 L692 481 Q730 516 739 554 Q710 554 690 575.5 Q670 597 670 626 Z " />
<glyph glyph-name="Dcroat" unicode="&#x110;" horiz-adv-x="819" d="M40 416 L129 416 L129 687 L377 687 Q464 687 537 661.5 Q610 636 662.5 590.5 Q715 545 744.5 482 Q774 419 774 344 Q774 269 744.5 205.5 Q715 142 662.5 96.5 Q610 51 537 25.5 Q464 0 377 0 L129 0 L129 276 L40 276 L40 416 Z M398 141 Q446 141 485.5 156 Q525 171 554 198 Q583 225 599 262 Q615 299 615 344 Q615 388 599 425 Q583 462 554 489 Q525 516 485.5 531 Q446 546 398 546 L284 546 L284 416 L422 416 L421 276 L284 276 L284 141 L398 141 Z " />
<glyph glyph-name="dcroat" unicode="&#x111;" horiz-adv-x="670" d="M297 648 L447 648 L447 699 L601 699 L601 648 L660 648 L660 572 L601 572 L601 0 L447 0 L447 72 Q416 32 372 10 Q328 -12 274 -12 Q222 -12 178.5 8 Q135 28 103.5 64 Q72 100 54.5 149.5 Q37 199 37 259 Q37 318 54.5 367.5 Q72 417 103.5 453 Q135 489 178.5 509 Q222 529 274 529 Q328 529 372 507 Q416 485 447 445 L447 572 L297 572 L297 648 Z M186 259 Q186 196 223 156.5 Q260 117 319 117 Q376 117 411.5 156.5 Q447 196 447 259 Q447 321 411.5 360.5 Q376 400 319 400 Q290 400 265.5 389.5 Q241 379 223.5 360.5 Q206 342 196 316 Q186 290 186 259 Z " />
<glyph glyph-name="Emacron" unicode="&#x112;" horiz-adv-x="674" d="M85 687 L618 687 L618 547 L241 547 L241 420 L583 420 L583 280 L241 280 L241 140 L618 140 L618 0 L85 0 L85 687 Z M177 839 L526 839 L526 750 L177 750 L177 839 Z " />
<glyph glyph-name="emacron" unicode="&#x113;" horiz-adv-x="594" d="M313 -12 Q255 -12 204 8 Q153 28 115.5 64 Q78 100 56.5 150 Q35 200 35 260 Q35 319 55.5 368.5 Q76 418 112.5 453.5 Q149 489 198.5 509 Q248 529 305 529 Q386 529 444 492 Q502 455 533 386 Q549 351 557.5 309.5 Q566 268 566 219 L180 219 Q190 168 223.5 137 Q257 106 307 106 Q342 106 377.5 119.5 Q413 133 438 156 L524 68 Q507 50 482.5 35.5 Q458 21 430 10 Q402 -1 372 -6.5 Q342 -12 313 -12 Z M130 669 L479 669 L479 580 L130 580 L130 669 Z M418 308 Q413 331 405 347 Q391 376 366.5 393.5 Q342 411 306 411 Q260 411 227 383.5 Q194 356 182 308 L418 308 Z " />
<glyph glyph-name="Edotaccent" unicode="&#x116;" horiz-adv-x="674" d="M85 687 L618 687 L618 547 L241 547 L241 420 L583 420 L583 280 L241 280 L241 140 L618 140 L618 0 L85 0 L85 687 Z M279 826 Q279 855 299.5 876.5 Q320 898 352 898 Q382 898 403.5 876.5 Q425 855 425 826 Q425 795 403.5 773.5 Q382 752 352 752 Q320 752 299.5 773.5 Q279 795 279 826 Z " />
<glyph glyph-name="edotaccent" unicode="&#x117;" horiz-adv-x="594" d="M313 -12 Q255 -12 204 8 Q153 28 115.5 64 Q78 100 56.5 150 Q35 200 35 260 Q35 319 55.5 368.5 Q76 418 112.5 453.5 Q149 489 198.5 509 Q248 529 305 529 Q386 529 444 492 Q502 455 533 386 Q549 351 557.5 309.5 Q566 268 566 219 L180 219 Q190 168 223.5 137 Q257 106 307 106 Q342 106 377.5 119.5 Q413 133 438 156 L524 68 Q507 50 482.5 35.5 Q458 21 430 10 Q402 -1 372 -6.5 Q342 -12 313 -12 Z M418 308 Q413 331 405 347 Q391 376 366.5 393.5 Q342 411 306 411 Q260 411 227 383.5 Q194 356 182 308 L418 308 Z M232 656 Q232 685 252.5 706.5 Q273 728 305 728 Q335 728 356.5 706.5 Q378 685 378 656 Q378 625 356.5 603.5 Q335 582 305 582 Q273 582 252.5 603.5 Q232 625 232 656 Z " />
<glyph glyph-name="Eogonek" unicode="&#x118;" horiz-adv-x="662" d="M85 687 L618 687 L618 547 L241 547 L241 420 L583 420 L583 280 L241 280 L241 140 L618 140 L618 0 L525 0 Q505 0 492.5 -12 Q480 -24 480 -43 Q480 -63 492.5 -72.5 Q505 -82 525 -82 Q548 -82 561 -69 L586 -140 Q569 -155 546.5 -164 Q524 -173 496 -173 Q447 -173 416 -143 Q385 -113 385 -61 Q385 -28 403 0 L85 0 L85 687 Z " />
<glyph glyph-name="eogonek" unicode="&#x119;" horiz-adv-x="583" d="M414 -148 Q365 -148 334 -118 Q303 -88 303 -36 Q303 -30 303.5 -24 Q304 -18 305 -12 Q248 -11 198.5 10 Q149 31 113 67 Q77 103 56 152.5 Q35 202 35 260 Q35 319 55.5 368.5 Q76 418 112.5 453.5 Q149 489 198.5 509 Q248 529 305 529 Q386 529 444 492 Q502 455 533 386 Q549 351 557.5 309.5 Q566 268 566 219 L180 219 Q190 168 223.5 137 Q257 106 307 106 Q342 106 377.5 119.5 Q413 133 438 156 L524 68 Q502 45 470 28.5 Q438 12 402 1 Q398 -7 398 -18 Q398 -38 410.5 -47.5 Q423 -57 443 -57 Q466 -57 479 -44 L504 -115 Q487 -130 464.5 -139 Q442 -148 414 -148 Z M418 308 Q413 331 405 347 Q391 376 366.5 393.5 Q342 411 306 411 Q260 411 227 383.5 Q194 356 182 308 L418 308 Z " />
<glyph glyph-name="Ecaron" unicode="&#x11a;" horiz-adv-x="674" d="M85 687 L618 687 L618 547 L241 547 L241 420 L583 420 L583 280 L241 280 L241 140 L618 140 L618 0 L85 0 L85 687 Z M277 893 L352 820 L428 893 L522 893 L416 745 L289 745 L184 893 L277 893 Z " />
<glyph glyph-name="ecaron" unicode="&#x11b;" horiz-adv-x="594" d="M313 -12 Q255 -12 204 8 Q153 28 115.5 64 Q78 100 56.5 150 Q35 200 35 260 Q35 319 55.5 368.5 Q76 418 112.5 453.5 Q149 489 198.5 509 Q248 529 305 529 Q386 529 444 492 Q502 455 533 386 Q549 351 557.5 309.5 Q566 268 566 219 L180 219 Q190 168 223.5 137 Q257 106 307 106 Q342 106 377.5 119.5 Q413 133 438 156 L524 68 Q507 50 482.5 35.5 Q458 21 430 10 Q402 -1 372 -6.5 Q342 -12 313 -12 Z M230 723 L305 650 L381 723 L475 723 L369 575 L242 575 L137 723 L230 723 Z M418 308 Q413 331 405 347 Q391 376 366.5 393.5 Q342 411 306 411 Q260 411 227 383.5 Q194 356 182 308 L418 308 Z " />
<glyph glyph-name="Gbreve" unicode="&#x11e;" horiz-adv-x="753" d="M415 -12 Q340 -12 273 16.5 Q206 45 155 93.5 Q104 142 74.5 207 Q45 272 45 344 Q45 416 74.5 480.5 Q104 545 155 593.5 Q206 642 273 670.5 Q340 699 415 699 Q493 699 567.5 668.5 Q642 638 694 583 L581 482 Q551 517 506.5 537.5 Q462 558 415 558 Q372 558 334 541 Q296 524 267.5 494.5 Q239 465 222 426.5 Q205 388 205 344 Q205 300 222 261 Q239 222 267.5 192.5 Q296 163 334 146 Q372 129 415 129 Q449 129 481.5 139.5 Q514 150 542 170 L542 269 L387 269 L387 389 L694 389 L694 104 Q642 50 567.5 19 Q493 -12 415 -12 Z M317 882 Q337 862 363 850.5 Q389 839 415 839 Q441 839 467 850.5 Q493 862 513 882 L578 817 Q544 783 502 766.5 Q460 750 415 750 Q370 750 328.5 766.5 Q287 783 252 817 L317 882 Z " />
<glyph glyph-name="gbreve" unicode="&#x11f;" horiz-adv-x="623" d="M311 -179 Q255 -179 209 -167.5 Q163 -156 130 -135.5 Q97 -115 78.5 -86 Q60 -57 60 -22 Q60 3 73 24.5 Q86 46 108.5 63 Q131 80 161 92 Q191 104 225 110 L314 88 Q293 83 269.5 73.5 Q246 64 225.5 51.5 Q205 39 192 24.5 Q179 10 179 -5 Q179 -37 214.5 -54.5 Q250 -72 314 -74 Q377 -75 412 -61.5 Q447 -48 447 -22 Q447 -4 425 9.5 Q403 23 359 29 Q343 31 328 33 Q313 35 297 37 Q281 39 262.5 41.5 Q244 44 219 48 Q143 61 103.5 93 Q64 125 64 175 Q64 201 81 226.5 Q98 252 124 266 L214 221 Q188 207 188 193 Q188 182 208 174.5 Q228 167 280 160 Q300 157 333.5 153 Q367 149 402 143 Q485 129 528 87 Q571 45 571 -20 Q571 -96 503.5 -137.5 Q436 -179 311 -179 Z M303 189 Q252 189 209.5 201.5 Q167 214 136.5 236.5 Q106 259 89 290.5 Q72 322 72 359 Q72 397 89 428 Q106 459 136.5 481.5 Q167 504 209.5 516.5 Q252 529 303 529 Q354 529 396 516.5 Q438 504 469 481.5 Q500 459 517 428 Q534 397 534 359 Q534 322 517 290.5 Q500 259 469 236.5 Q438 214 396 201.5 Q354 189 303 189 Z M303 285 Q344 285 369.5 305.5 Q395 326 395 359 Q395 392 369.5 412.5 Q344 433 303 433 Q262 433 236.5 412.5 Q211 392 211 359 Q211 326 236.5 305.5 Q262 285 303 285 Z M477 409 L377 520 Q398 516 417 515 Q436 514 453 514 Q465 514 482.5 514.5 Q500 515 518.5 515.5 Q537 516 554 516.5 Q571 517 583 517 L583 406 L477 409 Z M308 580 Q263 580 221.5 596.5 Q180 613 145 647 L210 712 Q230 692 256 680.5 Q282 669 308 669 Q334 669 360 680.5 Q386 692 406 712 L471 647 Q437 613 395 596.5 Q353 580 308 580 Z " />
<glyph glyph-name="uni0122" unicode="&#x122;" horiz-adv-x="753" d="M415 -12 Q340 -12 273 16.5 Q206 45 155 93.5 Q104 142 74.5 207 Q45 272 45 344 Q45 416 74.5 480.5 Q104 545 155 593.5 Q206 642 273 670.5 Q340 699 415 699 Q493 699 567.5 668.5 Q642 638 694 583 L581 482 Q551 517 506.5 537.5 Q462 558 415 558 Q372 558 334 541 Q296 524 267.5 494.5 Q239 465 222 426.5 Q205 388 205 344 Q205 300 222 261 Q239 222 267.5 192.5 Q296 163 334 146 Q372 129 415 129 Q449 129 481.5 139.5 Q514 150 542 170 L542 269 L387 269 L387 389 L694 389 L694 104 Q642 50 567.5 19 Q493 -12 415 -12 Z M344 -116 Q344 -86 365 -64.5 Q386 -43 415 -43 Q449 -43 470 -70.5 Q491 -98 491 -141 Q491 -211 407 -292 L366 -261 Q404 -226 413 -188 Q384 -188 364 -166.5 Q344 -145 344 -116 Z " />
<glyph glyph-name="uni0123" unicode="&#x123;" horiz-adv-x="621" d="M311 -179 Q255 -179 209 -167.5 Q163 -156 130 -135.5 Q97 -115 78.5 -86 Q60 -57 60 -22 Q60 3 73 24.5 Q86 46 108.5 63 Q131 80 161 92 Q191 104 225 110 L314 88 Q293 83 269.5 73.5 Q246 64 225.5 51.5 Q205 39 192 24.5 Q179 10 179 -5 Q179 -37 214.5 -54.5 Q250 -72 314 -74 Q377 -75 412 -61.5 Q447 -48 447 -22 Q447 -4 425 9.5 Q403 23 359 29 Q343 31 328 33 Q313 35 297 37 Q281 39 262.5 41.5 Q244 44 219 48 Q143 61 103.5 93 Q64 125 64 175 Q64 201 81 226.5 Q98 252 124 266 L214 221 Q188 207 188 193 Q188 182 208 174.5 Q228 167 280 160 Q300 157 333.5 153 Q367 149 402 143 Q485 129 528 87 Q571 45 571 -20 Q571 -96 503.5 -137.5 Q436 -179 311 -179 Z M303 189 Q252 189 209.5 201.5 Q167 214 136.5 236.5 Q106 259 89 290.5 Q72 322 72 359 Q72 397 89 428 Q106 459 136.5 481.5 Q167 504 209.5 516.5 Q252 529 303 529 Q354 529 396 516.5 Q438 504 469 481.5 Q500 459 517 428 Q534 397 534 359 Q534 322 517 290.5 Q500 259 469 236.5 Q438 214 396 201.5 Q354 189 303 189 Z M303 285 Q344 285 369.5 305.5 Q395 326 395 359 Q395 392 369.5 412.5 Q344 433 303 433 Q262 433 236.5 412.5 Q211 392 211 359 Q211 326 236.5 305.5 Q262 285 303 285 Z M477 409 L377 520 Q398 516 417 515 Q436 514 453 514 Q465 514 482.5 514.5 Q500 515 518.5 515.5 Q537 516 554 516.5 Q571 517 583 517 L583 406 L477 409 Z M347 801 Q309 766 300 728 Q329 728 349 706.5 Q369 685 369 656 Q369 626 348 604.5 Q327 583 298 583 Q264 583 243 610.5 Q222 638 222 681 Q222 751 306 832 L347 801 Z " />
<glyph glyph-name="Imacron" unicode="&#x12a;" horiz-adv-x="437" d="M43 141 L141 141 L141 546 L43 546 L43 687 L393 687 L393 546 L296 546 L296 141 L393 141 L393 0 L43 0 L43 141 Z M43 839 L392 839 L392 750 L43 750 L43 839 Z " />
<glyph glyph-name="imacron" unicode="&#x12b;" horiz-adv-x="290" d="M68 517 L222 517 L222 0 L68 0 L68 517 Z M-29 669 L320 669 L320 580 L-29 580 L-29 669 Z " />
<glyph glyph-name="Iogonek" unicode="&#x12e;" horiz-adv-x="437" d="M43 141 L141 141 L141 546 L43 546 L43 687 L393 687 L393 546 L296 546 L296 141 L393 141 L393 0 L296 0 Q276 0 263.5 -12 Q251 -24 251 -43 Q251 -63 263.5 -72.5 Q276 -82 296 -82 Q319 -82 332 -69 L357 -140 Q340 -155 317.5 -164 Q295 -173 267 -173 Q218 -173 187 -143 Q156 -113 156 -61 Q156 -28 174 0 L43 0 L43 141 Z " />
<glyph glyph-name="iogonek" unicode="&#x12f;" horiz-adv-x="290" d="M68 517 L222 517 L222 0 Q202 0 189.5 -12 Q177 -24 177 -43 Q177 -63 189.5 -72.5 Q202 -82 222 -82 Q245 -82 258 -69 L283 -140 Q266 -155 243.5 -164 Q221 -173 193 -173 Q144 -173 113 -143 Q82 -113 82 -61 Q82 -28 100 0 L68 0 L68 517 Z M72 656 Q72 685 92.5 706.5 Q113 728 145 728 Q175 728 196.5 706.5 Q218 685 218 656 Q218 625 196.5 603.5 Q175 582 145 582 Q113 582 92.5 603.5 Q72 625 72 656 Z " />
<glyph glyph-name="Idotaccent" unicode="&#x130;" horiz-adv-x="437" d="M43 141 L141 141 L141 546 L43 546 L43 687 L393 687 L393 546 L296 546 L296 141 L393 141 L393 0 L43 0 L43 141 Z M145 826 Q145 855 165.5 876.5 Q186 898 218 898 Q248 898 269.5 876.5 Q291 855 291 826 Q291 795 269.5 773.5 Q248 752 218 752 Q186 752 165.5 773.5 Q145 795 145 826 Z " />
<glyph glyph-name="dotlessi" unicode="&#x131;" horiz-adv-x="290" d="M68 517 L222 517 L222 0 L68 0 L68 517 Z " />
<glyph glyph-name="uni0136" unicode="&#x136;" horiz-adv-x="741" d="M85 687 L240 687 L240 380 L510 687 L697 687 L432 391 L717 0 L529 0 L324 280 L240 190 L240 0 L85 0 L85 687 Z M330 -116 Q330 -86 351 -64.5 Q372 -43 401 -43 Q435 -43 456 -70.5 Q477 -98 477 -141 Q477 -211 393 -292 L352 -261 Q390 -226 399 -188 Q370 -188 350 -166.5 Q330 -145 330 -116 Z " />
<glyph glyph-name="uni0137" unicode="&#x137;" horiz-adv-x="596" d="M68 699 L222 699 L222 300 L405 517 L581 517 L383 289 L579 0 L404 0 L281 190 L222 125 L222 0 L68 0 L68 699 Z M231 -116 Q231 -86 252 -64.5 Q273 -43 302 -43 Q336 -43 357 -70.5 Q378 -98 378 -141 Q378 -211 294 -292 L253 -261 Q291 -226 300 -188 Q271 -188 251 -166.5 Q231 -145 231 -116 Z " />
<glyph glyph-name="Lacute" unicode="&#x139;" horiz-adv-x="611" d="M85 687 L240 687 L240 140 L579 140 L579 0 L85 0 L85 687 Z M227 902 L364 877 L215 745 L112 745 L227 902 Z " />
<glyph glyph-name="lacute" unicode="&#x13a;" horiz-adv-x="290" d="M233 -12 Q197 -12 166.5 0.5 Q136 13 114 35 Q92 57 80 87.5 Q68 118 68 155 L68 699 L222 699 L222 171 Q222 145 235.5 129.5 Q249 114 270 114 L233 -12 Z M209 914 L346 889 L197 757 L94 757 L209 914 Z " />
<glyph glyph-name="Lcaron" unicode="&#x13d;" horiz-adv-x="611" d="M85 687 L240 687 L240 140 L579 140 L579 0 L85 0 L85 687 Z M304 625 Q304 655 325 676.5 Q346 698 375 698 Q409 698 430 670.5 Q451 643 451 600 Q451 530 367 449 L326 480 Q364 515 373 553 Q344 553 324 574.5 Q304 596 304 625 Z " />
<glyph glyph-name="lcaron" unicode="&#x13e;" horiz-adv-x="411" d="M233 -12 Q197 -12 166.5 0.5 Q136 13 114 35 Q92 57 80 87.5 Q68 118 68 155 L68 699 L222 699 L222 171 Q222 145 235.5 129.5 Q249 114 270 114 L233 -12 Z M287 626 Q287 656 308 677.5 Q329 699 358 699 Q392 699 413 671.5 Q434 644 434 601 Q434 531 350 450 L309 481 Q347 516 356 554 Q327 554 307 575.5 Q287 597 287 626 Z " />
<glyph glyph-name="Lslash" unicode="&#x141;" horiz-adv-x="657" d="M36 333 L131 380 L131 687 L286 687 L286 457 L380 504 L380 368 L286 321 L286 140 L625 140 L625 0 L131 0 L131 244 L36 197 L36 333 Z " />
<glyph glyph-name="lslash" unicode="&#x142;" horiz-adv-x="367" d="M29 333 L113 375 L113 699 L267 699 L267 452 L338 488 L338 351 L267 316 L267 171 Q267 145 280.5 129.5 Q294 114 315 114 L278 -12 Q242 -12 211.5 0.5 Q181 13 159 35 Q137 57 125 87.5 Q113 118 113 155 L113 239 L29 197 L29 333 Z " />
<glyph glyph-name="Nacute" unicode="&#x143;" horiz-adv-x="801" d="M85 687 L240 687 L561 255 L561 687 L716 687 L716 0 L561 0 L240 432 L240 0 L85 0 L85 687 Z M464 902 L601 877 L452 745 L349 745 L464 902 Z " />
<glyph glyph-name="nacute" unicode="&#x144;" horiz-adv-x="626" d="M68 517 L222 517 L222 456 Q246 489 286 509 Q326 529 376 529 Q418 529 453 514.5 Q488 500 513.5 473.5 Q539 447 553 410 Q567 373 567 329 L567 0 L420 0 L420 296 Q420 342 393.5 371 Q367 400 325 400 Q281 400 251.5 372.5 Q222 345 222 303 L222 0 L68 0 L68 517 Z M377 732 L514 707 L365 575 L262 575 L377 732 Z " />
<glyph glyph-name="uni0145" unicode="&#x145;" horiz-adv-x="801" d="M85 687 L240 687 L561 255 L561 687 L716 687 L716 0 L561 0 L240 432 L240 0 L85 0 L85 687 Z M329 -116 Q329 -86 350 -64.5 Q371 -43 400 -43 Q434 -43 455 -70.5 Q476 -98 476 -141 Q476 -211 392 -292 L351 -261 Q389 -226 398 -188 Q369 -188 349 -166.5 Q329 -145 329 -116 Z " />
<glyph glyph-name="uni0146" unicode="&#x146;" horiz-adv-x="626" d="M68 517 L222 517 L222 456 Q246 489 286 509 Q326 529 376 529 Q418 529 453 514.5 Q488 500 513.5 473.5 Q539 447 553 410 Q567 373 567 329 L567 0 L420 0 L420 296 Q420 342 393.5 371 Q367 400 325 400 Q281 400 251.5 372.5 Q222 345 222 303 L222 0 L68 0 L68 517 Z M242 -116 Q242 -86 263 -64.5 Q284 -43 313 -43 Q347 -43 368 -70.5 Q389 -98 389 -141 Q389 -211 305 -292 L264 -261 Q302 -226 311 -188 Q282 -188 262 -166.5 Q242 -145 242 -116 Z " />
<glyph glyph-name="Ncaron" unicode="&#x147;" horiz-adv-x="801" d="M85 687 L240 687 L561 255 L561 687 L716 687 L716 0 L561 0 L240 432 L240 0 L85 0 L85 687 Z M326 893 L401 820 L477 893 L571 893 L465 745 L338 745 L233 893 L326 893 Z " />
<glyph glyph-name="ncaron" unicode="&#x148;" horiz-adv-x="626" d="M68 517 L222 517 L222 456 Q246 489 286 509 Q326 529 376 529 Q418 529 453 514.5 Q488 500 513.5 473.5 Q539 447 553 410 Q567 373 567 329 L567 0 L420 0 L420 296 Q420 342 393.5 371 Q367 400 325 400 Q281 400 251.5 372.5 Q222 345 222 303 L222 0 L68 0 L68 517 Z M238 723 L313 650 L389 723 L483 723 L377 575 L250 575 L145 723 L238 723 Z " />
<glyph glyph-name="Omacron" unicode="&#x14c;" horiz-adv-x="824" d="M412 -12 Q337 -12 270.5 16.5 Q204 45 154 93.5 Q104 142 74.5 207 Q45 272 45 344 Q45 416 74.5 480.5 Q104 545 154 593.5 Q204 642 270.5 670.5 Q337 699 412 699 Q487 699 553.5 670.5 Q620 642 670 593.5 Q720 545 749 480.5 Q778 416 778 344 Q778 272 749 207 Q720 142 670 93.5 Q620 45 553.5 16.5 Q487 -12 412 -12 Z M205 344 Q205 300 221.5 261 Q238 222 266.5 192.5 Q295 163 332.5 146 Q370 129 412 129 Q454 129 491.5 146 Q529 163 557.5 192.5 Q586 222 602.5 261 Q619 300 619 344 Q619 388 602.5 426.5 Q586 465 557.5 494.5 Q529 524 491.5 541 Q454 558 412 558 Q370 558 332.5 541 Q295 524 266.5 494.5 Q238 465 221.5 426.5 Q205 388 205 344 Z M237 839 L586 839 L586 750 L237 750 L237 839 Z " />
<glyph glyph-name="omacron" unicode="&#x14d;" horiz-adv-x="633" d="M317 -12 Q259 -12 207 9.5 Q155 31 116.5 67.5 Q78 104 55.5 153.5 Q33 203 33 259 Q33 315 55.5 364 Q78 413 116.5 450 Q155 487 207 508 Q259 529 317 529 Q376 529 427.5 508 Q479 487 517 450 Q555 413 577.5 364 Q600 315 600 259 Q600 203 577.5 153.5 Q555 104 517 67.5 Q479 31 427.5 9.5 Q376 -12 317 -12 Z M142 669 L491 669 L491 580 L142 580 L142 669 Z M180 259 Q180 230 191 204 Q202 178 220.5 158.5 Q239 139 264 128 Q289 117 317 117 Q345 117 370 128 Q395 139 413.5 158.5 Q432 178 442.5 204 Q453 230 453 259 Q453 288 442.5 314 Q432 340 413.5 359 Q395 378 370 389 Q345 400 317 400 Q289 400 264 389 Q239 378 220.5 359 Q202 340 191 314 Q180 288 180 259 Z " />
<glyph glyph-name="Ohungarumlaut" unicode="&#x150;" horiz-adv-x="824" d="M412 -12 Q337 -12 270.5 16.5 Q204 45 154 93.5 Q104 142 74.5 207 Q45 272 45 344 Q45 416 74.5 480.5 Q104 545 154 593.5 Q204 642 270.5 670.5 Q337 699 412 699 Q487 699 553.5 670.5 Q620 642 670 593.5 Q720 545 749 480.5 Q778 416 778 344 Q778 272 749 207 Q720 142 670 93.5 Q620 45 553.5 16.5 Q487 -12 412 -12 Z M205 344 Q205 300 221.5 261 Q238 222 266.5 192.5 Q295 163 332.5 146 Q370 129 412 129 Q454 129 491.5 146 Q529 163 557.5 192.5 Q586 222 602.5 261 Q619 300 619 344 Q619 388 602.5 426.5 Q586 465 557.5 494.5 Q529 524 491.5 541 Q454 558 412 558 Q370 558 332.5 541 Q295 524 266.5 494.5 Q238 465 221.5 426.5 Q205 388 205 344 Z M356 902 L493 877 L345 744 L241 744 L356 902 Z M595 901 L732 877 L583 744 L480 744 L595 901 Z " />
<glyph glyph-name="ohungarumlaut" unicode="&#x151;" horiz-adv-x="633" d="M317 -12 Q259 -12 207 9.5 Q155 31 116.5 67.5 Q78 104 55.5 153.5 Q33 203 33 259 Q33 315 55.5 364 Q78 413 116.5 450 Q155 487 207 508 Q259 529 317 529 Q376 529 427.5 508 Q479 487 517 450 Q555 413 577.5 364 Q600 315 600 259 Q600 203 577.5 153.5 Q555 104 517 67.5 Q479 31 427.5 9.5 Q376 -12 317 -12 Z M261 732 L398 707 L250 574 L146 574 L261 732 Z M180 259 Q180 230 191 204 Q202 178 220.5 158.5 Q239 139 264 128 Q289 117 317 117 Q345 117 370 128 Q395 139 413.5 158.5 Q432 178 442.5 204 Q453 230 453 259 Q453 288 442.5 314 Q432 340 413.5 359 Q395 378 370 389 Q345 400 317 400 Q289 400 264 389 Q239 378 220.5 359 Q202 340 191 314 Q180 288 180 259 Z M500 731 L637 707 L488 574 L385 574 L500 731 Z " />
<glyph glyph-name="OE" unicode="&#x152;" horiz-adv-x="1058" d="M44 341 Q44 413 73.5 476.5 Q103 540 153 586.5 Q203 633 269.5 660 Q336 687 411 687 L1002 687 L1002 547 L625 547 L625 420 L967 420 L967 280 L625 280 L625 140 L1002 140 L1002 0 L411 0 Q336 0 269.5 26 Q203 52 153 98 Q103 144 73.5 206.5 Q44 269 44 341 Z M204 341 Q204 297 220.5 260.5 Q237 224 265.5 197.5 Q294 171 331.5 156 Q369 141 411 141 L469 141 L469 546 L411 546 Q369 546 331.5 530 Q294 514 265.5 486.5 Q237 459 220.5 421.5 Q204 384 204 341 Z " />
<glyph glyph-name="oe" unicode="&#x153;" horiz-adv-x="1005" d="M317 -12 Q259 -12 207 9.5 Q155 31 116.5 67.5 Q78 104 55.5 153.5 Q33 203 33 259 Q33 315 55.5 364 Q78 413 116.5 450 Q155 487 207 508 Q259 529 317 529 Q379 529 432.5 506 Q486 483 525 442 Q562 484 614 506.5 Q666 529 728 529 Q809 529 867 492 Q925 455 956 386 Q972 351 980.5 309.5 Q989 268 989 219 L603 219 Q613 168 646.5 137 Q680 106 730 106 Q765 106 800.5 119.5 Q836 133 861 156 L947 68 Q930 50 905.5 35.5 Q881 21 853 10 Q825 -1 795 -6.5 Q765 -12 736 -12 Q672 -12 618 11.5 Q564 35 526 77 Q487 35 433.5 11.5 Q380 -12 317 -12 Z M180 259 Q180 230 191 204 Q202 178 220.5 158.5 Q239 139 264 128 Q289 117 317 117 Q345 117 370 128 Q395 139 413.5 158.5 Q432 178 442.5 204 Q453 230 453 259 Q453 288 442.5 314 Q432 340 413.5 359 Q395 378 370 389 Q345 400 317 400 Q289 400 264 389 Q239 378 220.5 359 Q202 340 191 314 Q180 288 180 259 Z M841 308 Q836 331 828 347 Q814 376 789.5 393.5 Q765 411 729 411 Q683 411 650 383.5 Q617 356 605 308 L841 308 Z " />
<glyph glyph-name="Racute" unicode="&#x154;" horiz-adv-x="693" d="M322 220 L240 220 L240 0 L85 0 L85 687 L367 687 Q423 687 471 670 Q519 653 553.5 622 Q588 591 607.5 548 Q627 505 627 454 Q627 380 588.5 324.5 Q550 269 484 242 L654 0 L477 0 L322 220 Z M352 362 Q403 362 435 387 Q467 412 467 454 Q467 496 435 520.5 Q403 545 352 545 L240 545 L240 362 L352 362 Z M403 902 L540 877 L391 745 L288 745 L403 902 Z " />
<glyph glyph-name="racute" unicode="&#x155;" horiz-adv-x="433" d="M68 517 L222 517 L222 420 Q248 471 293 500 Q338 529 397 529 L397 400 Q316 400 269 357.5 Q222 315 222 242 L222 0 L68 0 L68 517 Z M285 732 L422 707 L273 575 L170 575 L285 732 Z " />
<glyph glyph-name="uni0156" unicode="&#x156;" horiz-adv-x="693" d="M322 220 L240 220 L240 0 L85 0 L85 687 L367 687 Q423 687 471 670 Q519 653 553.5 622 Q588 591 607.5 548 Q627 505 627 454 Q627 380 588.5 324.5 Q550 269 484 242 L654 0 L477 0 L322 220 Z M352 362 Q403 362 435 387 Q467 412 467 454 Q467 496 435 520.5 Q403 545 352 545 L240 545 L240 362 L352 362 Z M273 -116 Q273 -86 294 -64.5 Q315 -43 344 -43 Q378 -43 399 -70.5 Q420 -98 420 -141 Q420 -211 336 -292 L295 -261 Q333 -226 342 -188 Q313 -188 293 -166.5 Q273 -145 273 -116 Z " />
<glyph glyph-name="uni0157" unicode="&#x157;" horiz-adv-x="433" d="M68 517 L222 517 L222 420 Q248 471 293 500 Q338 529 397 529 L397 400 Q316 400 269 357.5 Q222 315 222 242 L222 0 L68 0 L68 517 Z M150 -116 Q150 -86 171 -64.5 Q192 -43 221 -43 Q255 -43 276 -70.5 Q297 -98 297 -141 Q297 -211 213 -292 L172 -261 Q210 -226 219 -188 Q190 -188 170 -166.5 Q150 -145 150 -116 Z " />
<glyph glyph-name="Rcaron" unicode="&#x158;" horiz-adv-x="693" d="M322 220 L240 220 L240 0 L85 0 L85 687 L367 687 Q423 687 471 670 Q519 653 553.5 622 Q588 591 607.5 548 Q627 505 627 454 Q627 380 588.5 324.5 Q550 269 484 242 L654 0 L477 0 L322 220 Z M264 893 L339 820 L415 893 L509 893 L403 745 L276 745 L171 893 L264 893 Z M352 362 Q403 362 435 387 Q467 412 467 454 Q467 496 435 520.5 Q403 545 352 545 L240 545 L240 362 L352 362 Z " />
<glyph glyph-name="rcaron" unicode="&#x159;" horiz-adv-x="433" d="M68 517 L222 517 L222 420 Q248 471 293 500 Q338 529 397 529 L397 400 Q316 400 269 357.5 Q222 315 222 242 L222 0 L68 0 L68 517 Z M146 723 L221 650 L297 723 L391 723 L285 575 L158 575 L53 723 L146 723 Z " />
<glyph glyph-name="Sacute" unicode="&#x15a;" horiz-adv-x="656" d="M344 -12 Q253 -12 174.5 17 Q96 46 35 102 L123 208 Q173 166 228.5 142.5 Q284 119 349 119 Q403 119 430 140 Q457 161 457 191 Q457 209 449.5 221 Q442 233 425 242 Q408 251 381.5 258.5 Q355 266 316 275 Q261 287 215 302.5 Q169 318 135.5 341 Q102 364 83.5 398 Q65 432 65 483 Q65 531 83.5 571 Q102 611 136 639.5 Q170 668 217.5 683.5 Q265 699 322 699 Q407 699 473.5 674 Q540 649 594 604 L514 493 Q467 530 417 549 Q367 568 317 568 Q272 568 247 548 Q222 528 222 499 Q222 481 229.5 469 Q237 457 254 447 Q271 437 298.5 429.5 Q326 422 365 413 Q421 401 467 385 Q513 369 545.5 345.5 Q578 322 595.5 289 Q613 256 613 208 Q613 158 594.5 117.5 Q576 77 541.5 48 Q507 19 457 3.5 Q407 -12 344 -12 Z M391 902 L528 877 L379 745 L276 745 L391 902 Z " />
<glyph glyph-name="sacute" unicode="&#x15b;" horiz-adv-x="505" d="M260 -12 Q197 -12 135 8 Q73 28 25 66 L86 162 Q126 133 174 116.5 Q222 100 264 100 Q334 100 334 144 Q334 167 307.5 178.5 Q281 190 239 201 Q200 210 165.5 221.5 Q131 233 105 250.5 Q79 268 64 294 Q49 320 49 360 Q49 397 63.5 428 Q78 459 104.5 481.5 Q131 504 169 516.5 Q207 529 253 529 Q310 529 362.5 511 Q415 493 459 464 L403 366 Q368 389 328.5 404 Q289 419 253 419 Q225 419 206.5 407 Q188 395 188 375 Q188 355 210 346 Q232 337 282 323 Q316 315 350 304 Q384 293 411.5 274.5 Q439 256 456 228 Q473 200 473 157 Q473 118 458 87 Q443 56 415 34 Q387 12 347.5 0 Q308 -12 260 -12 Z M317 732 L454 707 L305 575 L202 575 L317 732 Z " />
<glyph glyph-name="Scedilla" unicode="&#x15e;" horiz-adv-x="656" d="M312 -197 Q284 -197 259 -189 Q234 -181 217 -168 L244 -109 Q258 -120 273 -126 Q288 -132 304 -132 Q321 -132 333 -124 Q345 -116 345 -102 Q345 -91 336.5 -83.5 Q328 -76 313 -76 Q305 -76 297.5 -78.5 Q290 -81 284 -85 L261 -64 L285 -9 Q137 8 35 102 L123 208 Q173 166 228.5 142.5 Q284 119 349 119 Q403 119 430 140 Q457 161 457 191 Q457 209 449.5 221 Q442 233 425 242 Q408 251 381.5 258.5 Q355 266 316 275 Q261 287 215 302.5 Q169 318 135.5 341 Q102 364 83.5 398 Q65 432 65 483 Q65 531 83.5 571 Q102 611 136 639.5 Q170 668 217.5 683.5 Q265 699 322 699 Q407 699 473.5 674 Q540 649 594 604 L514 493 Q467 530 417 549 Q367 568 317 568 Q272 568 247 548 Q222 528 222 499 Q222 481 229.5 469 Q237 457 254 447 Q271 437 298.5 429.5 Q326 422 365 413 Q421 401 467 385 Q513 369 545.5 345.5 Q578 322 595.5 289 Q613 256 613 208 Q613 111 546 51.5 Q479 -8 360 -12 L347 -43 Q379 -43 400 -62 Q421 -81 421 -111 Q421 -152 390.5 -174.5 Q360 -197 312 -197 Z " />
<glyph glyph-name="scedilla" unicode="&#x15f;" horiz-adv-x="505" d="M238 -197 Q210 -197 185 -189 Q160 -181 143 -168 L170 -109 Q184 -120 199 -126 Q214 -132 230 -132 Q247 -132 259 -124 Q271 -116 271 -102 Q271 -91 262.5 -83.5 Q254 -76 239 -76 Q231 -76 223.5 -78.5 Q216 -81 210 -85 L187 -64 L211 -9 Q160 -2 111.5 17 Q63 36 25 66 L86 162 Q126 133 174 116.5 Q222 100 264 100 Q334 100 334 144 Q334 167 307.5 178.5 Q281 190 239 201 Q200 210 165.5 221.5 Q131 233 105 250.5 Q79 268 64 294 Q49 320 49 360 Q49 397 63.5 428 Q78 459 104.5 481.5 Q131 504 169 516.5 Q207 529 253 529 Q310 529 362.5 511 Q415 493 459 464 L403 366 Q368 389 328.5 404 Q289 419 253 419 Q225 419 206.5 407 Q188 395 188 375 Q188 355 210 346 Q232 337 282 323 Q316 315 350 304 Q384 293 411.5 274.5 Q439 256 456 228 Q473 200 473 157 Q473 85 422.5 40 Q372 -5 286 -11 L273 -43 Q305 -43 326 -62 Q347 -81 347 -111 Q347 -152 316.5 -174.5 Q286 -197 238 -197 Z " />
<glyph glyph-name="Scaron" unicode="&#x160;" horiz-adv-x="656" d="M344 -12 Q253 -12 174.5 17 Q96 46 35 102 L123 208 Q173 166 228.5 142.5 Q284 119 349 119 Q403 119 430 140 Q457 161 457 191 Q457 209 449.5 221 Q442 233 425 242 Q408 251 381.5 258.5 Q355 266 316 275 Q261 287 215 302.5 Q169 318 135.5 341 Q102 364 83.5 398 Q65 432 65 483 Q65 531 83.5 571 Q102 611 136 639.5 Q170 668 217.5 683.5 Q265 699 322 699 Q407 699 473.5 674 Q540 649 594 604 L514 493 Q467 530 417 549 Q367 568 317 568 Q272 568 247 548 Q222 528 222 499 Q222 481 229.5 469 Q237 457 254 447 Q271 437 298.5 429.5 Q326 422 365 413 Q421 401 467 385 Q513 369 545.5 345.5 Q578 322 595.5 289 Q613 256 613 208 Q613 158 594.5 117.5 Q576 77 541.5 48 Q507 19 457 3.5 Q407 -12 344 -12 Z M252 893 L327 820 L403 893 L497 893 L391 745 L264 745 L159 893 L252 893 Z " />
<glyph glyph-name="scaron" unicode="&#x161;" horiz-adv-x="505" d="M260 -12 Q197 -12 135 8 Q73 28 25 66 L86 162 Q126 133 174 116.5 Q222 100 264 100 Q334 100 334 144 Q334 167 307.5 178.5 Q281 190 239 201 Q200 210 165.5 221.5 Q131 233 105 250.5 Q79 268 64 294 Q49 320 49 360 Q49 397 63.5 428 Q78 459 104.5 481.5 Q131 504 169 516.5 Q207 529 253 529 Q310 529 362.5 511 Q415 493 459 464 L403 366 Q368 389 328.5 404 Q289 419 253 419 Q225 419 206.5 407 Q188 395 188 375 Q188 355 210 346 Q232 337 282 323 Q316 315 350 304 Q384 293 411.5 274.5 Q439 256 456 228 Q473 200 473 157 Q473 118 458 87 Q443 56 415 34 Q387 12 347.5 0 Q308 -12 260 -12 Z M178 723 L253 650 L329 723 L423 723 L317 575 L190 575 L85 723 L178 723 Z " />
<glyph glyph-name="uni0162" unicode="&#x162;" horiz-adv-x="645" d="M245 547 L32 547 L32 687 L612 687 L612 547 L400 547 L400 0 L359 0 L342 -43 Q374 -43 395 -62 Q416 -81 416 -111 Q416 -152 385.5 -174.5 Q355 -197 307 -197 Q279 -197 254 -189 Q229 -181 212 -168 L239 -109 Q253 -120 268 -126 Q283 -132 299 -132 Q316 -132 328 -124 Q340 -116 340 -102 Q340 -91 331.5 -83.5 Q323 -76 308 -76 Q300 -76 292.5 -78.5 Q285 -81 279 -85 L256 -64 L283 0 L245 0 L245 547 Z " />
<glyph glyph-name="uni0163" unicode="&#x163;" horiz-adv-x="398" d="M23 517 L93 517 L93 659 L241 659 L241 517 L351 517 L351 393 L241 393 L241 174 Q241 148 255 132.5 Q269 117 289 117 Q304 117 317 121.5 Q330 126 338 134 L373 34 Q356 20 334 8.5 Q312 -3 288 -8 L274 -43 Q306 -43 327 -62 Q348 -81 348 -111 Q348 -152 317.5 -174.5 Q287 -197 239 -197 Q211 -197 186 -189 Q161 -181 144 -168 L171 -109 Q185 -120 200 -126 Q215 -132 231 -132 Q248 -132 260 -124 Q272 -116 272 -102 Q272 -91 263.5 -83.5 Q255 -76 240 -76 Q232 -76 224.5 -78.5 Q217 -81 211 -85 L188 -64 L212 -8 Q158 4 125.5 46 Q93 88 93 149 L93 393 L23 393 L23 517 Z " />
<glyph glyph-name="Tcaron" unicode="&#x164;" horiz-adv-x="645" d="M245 547 L32 547 L32 687 L612 687 L612 547 L400 547 L400 0 L245 0 L245 547 Z M247 893 L322 820 L398 893 L492 893 L386 745 L259 745 L154 893 L247 893 Z " />
<glyph glyph-name="tcaron" unicode="&#x165;" horiz-adv-x="546" d="M252 -12 Q217 -12 188 0 Q159 12 138 33 Q117 54 105 83.5 Q93 113 93 149 L93 393 L23 393 L23 517 L93 517 L93 659 L241 659 L241 517 L351 517 L351 393 L241 393 L241 174 Q241 148 255 132.5 Q269 117 289 117 Q304 117 317 121.5 Q330 126 338 134 L373 34 Q350 14 317 1 Q284 -12 252 -12 Z M422 626 Q422 656 443 677.5 Q464 699 493 699 Q527 699 548 671.5 Q569 644 569 601 Q569 531 485 450 L444 481 Q482 516 491 554 Q462 554 442 575.5 Q422 597 422 626 Z " />
<glyph glyph-name="Umacron" unicode="&#x16a;" horiz-adv-x="767" d="M383 -12 Q314 -12 256.5 11 Q199 34 157.5 75 Q116 116 93 173 Q70 230 70 298 L70 687 L225 687 L225 305 Q225 266 237 234 Q249 202 270 178.5 Q291 155 320 142 Q349 129 383 129 Q418 129 447 142 Q476 155 497 178.5 Q518 202 530 234 Q542 266 542 305 L542 687 L697 687 L697 298 Q697 230 674 173 Q651 116 609 75 Q567 34 509.5 11 Q452 -12 383 -12 Z M208 839 L557 839 L557 750 L208 750 L208 839 Z " />
<glyph glyph-name="umacron" unicode="&#x16b;" horiz-adv-x="626" d="M558 0 L404 0 L404 61 Q380 28 340 8 Q300 -12 250 -12 Q208 -12 173 2.5 Q138 17 112.5 43.5 Q87 70 73 107 Q59 144 59 188 L59 517 L206 517 L206 221 Q206 175 232.5 146 Q259 117 301 117 Q345 117 374.5 144.5 Q404 172 404 214 L404 517 L558 517 L558 0 Z M127 669 L476 669 L476 580 L127 580 L127 669 Z " />
<glyph glyph-name="Uring" unicode="&#x16e;" horiz-adv-x="767" d="M383 -12 Q314 -12 256.5 11 Q199 34 157.5 75 Q116 116 93 173 Q70 230 70 298 L70 687 L225 687 L225 305 Q225 266 237 234 Q249 202 270 178.5 Q291 155 320 142 Q349 129 383 129 Q418 129 447 142 Q476 155 497 178.5 Q518 202 530 234 Q542 266 542 305 L542 687 L697 687 L697 298 Q697 230 674 173 Q651 116 609 75 Q567 34 509.5 11 Q452 -12 383 -12 Z M269 865 Q269 889 278 909.5 Q287 930 303 946 Q319 962 339.5 971 Q360 980 384 980 Q408 980 428.5 971 Q449 962 465 946 Q481 930 490 909.5 Q499 889 499 865 Q499 841 490 820 Q481 799 465 783.5 Q449 768 428.5 759 Q408 750 384 750 Q360 750 339.5 759 Q319 768 303 783.5 Q287 799 278 820 Q269 841 269 865 Z M331 865 Q331 843 346.5 827.5 Q362 812 384 812 Q405 812 420.5 827.5 Q436 843 436 865 Q436 886 420.5 901.5 Q405 917 384 917 Q362 917 346.5 901.5 Q331 886 331 865 Z " />
<glyph glyph-name="uring" unicode="&#x16f;" horiz-adv-x="626" d="M558 0 L404 0 L404 61 Q380 28 340 8 Q300 -12 250 -12 Q208 -12 173 2.5 Q138 17 112.5 43.5 Q87 70 73 107 Q59 144 59 188 L59 517 L206 517 L206 221 Q206 175 232.5 146 Q259 117 301 117 Q345 117 374.5 144.5 Q404 172 404 214 L404 517 L558 517 L558 0 Z M187 695 Q187 719 196 739.5 Q205 760 221 776 Q237 792 257.5 801 Q278 810 302 810 Q326 810 346.5 801 Q367 792 383 776 Q399 760 408 739.5 Q417 719 417 695 Q417 671 408 650 Q399 629 383 613.5 Q367 598 346.5 589 Q326 580 302 580 Q278 580 257.5 589 Q237 598 221 613.5 Q205 629 196 650 Q187 671 187 695 Z M249 695 Q249 673 264.5 657.5 Q280 642 302 642 Q323 642 338.5 657.5 Q354 673 354 695 Q354 716 338.5 731.5 Q323 747 302 747 Q280 747 264.5 731.5 Q249 716 249 695 Z " />
<glyph glyph-name="Uhungarumlaut" unicode="&#x170;" horiz-adv-x="767" d="M383 -12 Q314 -12 256.5 11 Q199 34 157.5 75 Q116 116 93 173 Q70 230 70 298 L70 687 L225 687 L225 305 Q225 266 237 234 Q249 202 270 178.5 Q291 155 320 142 Q349 129 383 129 Q418 129 447 142 Q476 155 497 178.5 Q518 202 530 234 Q542 266 542 305 L542 687 L697 687 L697 298 Q697 230 674 173 Q651 116 609 75 Q567 34 509.5 11 Q452 -12 383 -12 Z M327 902 L464 877 L316 744 L212 744 L327 902 Z M566 901 L703 877 L554 744 L451 744 L566 901 Z " />
<glyph glyph-name="uhungarumlaut" unicode="&#x171;" horiz-adv-x="626" d="M558 0 L404 0 L404 61 Q380 28 340 8 Q300 -12 250 -12 Q208 -12 173 2.5 Q138 17 112.5 43.5 Q87 70 73 107 Q59 144 59 188 L59 517 L206 517 L206 221 Q206 175 232.5 146 Q259 117 301 117 Q345 117 374.5 144.5 Q404 172 404 214 L404 517 L558 517 L558 0 Z M245 732 L382 707 L234 574 L130 574 L245 732 Z M484 731 L621 707 L472 574 L369 574 L484 731 Z " />
<glyph glyph-name="Uogonek" unicode="&#x172;" horiz-adv-x="767" d="M355 -185 Q306 -185 275 -155 Q244 -125 244 -73 Q244 -26 276 4 Q229 19 191 46.5 Q153 74 126 112 Q99 150 84.5 197 Q70 244 70 298 L70 687 L225 687 L225 305 Q225 266 237 234 Q249 202 270 178.5 Q291 155 320 142 Q349 129 383 129 Q418 129 447 142 Q476 155 497 178.5 Q518 202 530 234 Q542 266 542 305 L542 687 L697 687 L697 298 Q697 230 674 173 Q651 116 609.5 75 Q568 34 510.5 11 Q453 -12 384 -12 Q364 -12 351.5 -24 Q339 -36 339 -55 Q339 -75 351.5 -84.5 Q364 -94 384 -94 Q407 -94 420 -81 L445 -152 Q428 -167 405.5 -176 Q383 -185 355 -185 Z " />
<glyph glyph-name="uogonek" unicode="&#x173;" horiz-adv-x="626" d="M558 0 L549 0 Q529 0 516.5 -12 Q504 -24 504 -43 Q504 -63 516.5 -72.5 Q529 -82 549 -82 Q572 -82 585 -69 L610 -140 Q593 -155 570.5 -164 Q548 -173 520 -173 Q471 -173 440 -143 Q409 -113 409 -61 Q409 -28 427 0 L404 0 L404 61 Q380 28 340 8 Q300 -12 250 -12 Q208 -12 173 2.5 Q138 17 112.5 43.5 Q87 70 73 107 Q59 144 59 188 L59 517 L206 517 L206 221 Q206 175 232.5 146 Q259 117 301 117 Q345 117 374.5 144.5 Q404 172 404 214 L404 517 L558 517 L558 0 Z " />
<glyph glyph-name="Wcircumflex" unicode="&#x174;" horiz-adv-x="1083" d="M26 687 L201 687 L401 192 L465 351 L329 687 L483 687 L541 542 L600 687 L755 687 L619 350 L683 191 L883 687 L1057 687 L780 0 L606 0 L542 159 L478 0 L303 0 L26 687 Z M480 893 L607 893 L714 745 L619 745 L543 818 L469 745 L375 745 L480 893 Z " />
<glyph glyph-name="wcircumflex" unicode="&#x175;" horiz-adv-x="842" d="M15 517 L165 517 L260 206 L357 517 L484 517 L583 206 L676 517 L826 517 L651 0 L513 0 L421 315 L329 0 L192 0 L15 517 Z M358 723 L485 723 L592 575 L497 575 L421 648 L347 575 L253 575 L358 723 Z " />
<glyph glyph-name="Ycircumflex" unicode="&#x176;" horiz-adv-x="738" d="M291 244 L23 687 L203 687 L370 390 L542 687 L715 687 L448 244 L448 0 L291 0 L291 244 Z M306 893 L433 893 L540 745 L445 745 L369 818 L295 745 L201 745 L306 893 Z " />
<glyph glyph-name="ycircumflex" unicode="&#x177;" horiz-adv-x="595" d="M184 -180 Q150 -180 113 -171 Q76 -162 49 -146 L81 -42 Q101 -53 119.5 -59.5 Q138 -66 150 -66 Q170 -66 186 -60 Q202 -54 210 -40 L227 -5 L12 517 L171 517 L302 161 L426 517 L582 517 L374 -22 Q344 -100 295 -140 Q246 -180 184 -180 Z M239 723 L366 723 L473 575 L378 575 L302 648 L228 575 L134 575 L239 723 Z " />
<glyph glyph-name="Ydieresis" unicode="&#x178;" horiz-adv-x="738" d="M291 244 L23 687 L203 687 L370 390 L542 687 L715 687 L448 244 L448 0 L291 0 L291 244 Z M190 826 Q190 855 210.5 876.5 Q231 898 263 898 Q293 898 314.5 876.5 Q336 855 336 826 Q336 795 314.5 773.5 Q293 752 263 752 Q231 752 210.5 773.5 Q190 795 190 826 Z M404 826 Q404 855 425 876.5 Q446 898 477 898 Q508 898 529 876.5 Q550 855 550 826 Q550 795 529 773.5 Q508 752 477 752 Q446 752 425 773.5 Q404 795 404 826 Z " />
<glyph glyph-name="Zacute" unicode="&#x179;" horiz-adv-x="666" d="M46 117 L401 547 L54 547 L54 687 L614 687 L614 570 L260 140 L619 140 L619 0 L47 0 L46 117 Z M400 902 L537 877 L388 745 L285 745 L400 902 Z " />
<glyph glyph-name="zacute" unicode="&#x17a;" horiz-adv-x="531" d="M36 108 L291 387 L43 387 L43 517 L491 517 L490 409 L236 130 L493 130 L493 0 L36 0 L36 108 Z M334 732 L471 707 L322 575 L219 575 L334 732 Z " />
<glyph glyph-name="Zdotaccent" unicode="&#x17b;" horiz-adv-x="666" d="M46 117 L401 547 L54 547 L54 687 L614 687 L614 570 L260 140 L619 140 L619 0 L47 0 L46 117 Z M263 826 Q263 855 283.5 876.5 Q304 898 336 898 Q366 898 387.5 876.5 Q409 855 409 826 Q409 795 387.5 773.5 Q366 752 336 752 Q304 752 283.5 773.5 Q263 795 263 826 Z " />
<glyph glyph-name="zdotaccent" unicode="&#x17c;" horiz-adv-x="531" d="M36 108 L291 387 L43 387 L43 517 L491 517 L490 409 L236 130 L493 130 L493 0 L36 0 L36 108 Z M197 656 Q197 685 217.5 706.5 Q238 728 270 728 Q300 728 321.5 706.5 Q343 685 343 656 Q343 625 321.5 603.5 Q300 582 270 582 Q238 582 217.5 603.5 Q197 625 197 656 Z " />
<glyph glyph-name="Zcaron" unicode="&#x17d;" horiz-adv-x="666" d="M46 117 L401 547 L54 547 L54 687 L614 687 L614 570 L260 140 L619 140 L619 0 L47 0 L46 117 Z M261 893 L336 820 L412 893 L506 893 L400 745 L273 745 L168 893 L261 893 Z " />
<glyph glyph-name="zcaron" unicode="&#x17e;" horiz-adv-x="531" d="M36 108 L291 387 L43 387 L43 517 L491 517 L490 409 L236 130 L493 130 L493 0 L36 0 L36 108 Z M195 723 L270 650 L346 723 L440 723 L334 575 L207 575 L102 723 L195 723 Z " />
<glyph glyph-name="uni0237" unicode="&#x237;" horiz-adv-x="276" d="M50 -178 Q22 -178 -7.5 -172 Q-37 -166 -56 -157 L-40 -43 Q-30 -48 -15.5 -50 Q-1 -52 13 -52 Q34 -52 47.5 -36.5 Q61 -21 61 5 L61 517 L214 517 L214 -11 Q214 -48 202 -78.5 Q190 -109 168 -131 Q146 -153 116 -165.5 Q86 -178 50 -178 Z " />
<glyph glyph-name="circumflex" unicode="&#x2c6;" horiz-adv-x="390" d="M131 723 L258 723 L365 575 L270 575 L194 648 L120 575 L26 575 L131 723 Z " />
<glyph glyph-name="caron" unicode="&#x2c7;" horiz-adv-x="391" d="M27 723 L120 723 L195 650 L271 723 L365 723 L259 575 L132 575 L27 723 Z " />
<glyph glyph-name="breve" unicode="&#x2d8;" horiz-adv-x="396" d="M197 580 Q152 580 110.5 596.5 Q69 613 34 647 L99 712 Q119 692 145 680.5 Q171 669 197 669 Q223 669 249 680.5 Q275 692 295 712 L360 647 Q326 613 284 596.5 Q242 580 197 580 Z " />
<glyph glyph-name="dotaccent" unicode="&#x2d9;" horiz-adv-x="252" d="M126 582 Q94 582 73.5 603.5 Q53 625 53 656 Q53 685 73.5 706.5 Q94 728 126 728 Q156 728 177.5 706.5 Q199 685 199 656 Q199 625 177.5 603.5 Q156 582 126 582 Z " />
<glyph glyph-name="ring" unicode="&#x2da;" horiz-adv-x="322" d="M161 580 Q137 580 116.5 589 Q96 598 80 613.5 Q64 629 55 650 Q46 671 46 695 Q46 719 55 739.5 Q64 760 80 776 Q96 792 116.5 801 Q137 810 161 810 Q185 810 205.5 801 Q226 792 242 776 Q258 760 267 739.5 Q276 719 276 695 Q276 671 267 650 Q258 629 242 613.5 Q226 598 205.5 589 Q185 580 161 580 Z M108 695 Q108 673 123.5 657.5 Q139 642 161 642 Q182 642 197.5 657.5 Q213 673 213 695 Q213 716 197.5 731.5 Q182 747 161 747 Q139 747 123.5 731.5 Q108 716 108 695 Z " />
<glyph glyph-name="ogonek" unicode="&#x2db;" horiz-adv-x="283" d="M161 -173 Q112 -173 81 -143 Q50 -113 50 -61 Q50 -30 64 -6.5 Q78 17 102 32 L190 0 Q170 0 157.5 -12 Q145 -24 145 -43 Q145 -63 157.5 -72.5 Q170 -82 190 -82 Q213 -82 226 -69 L251 -140 Q234 -155 211.5 -164 Q189 -173 161 -173 Z " />
<glyph glyph-name="tilde" unicode="&#x2dc;" horiz-adv-x="455" d="M296 572 Q275 572 256 580 Q237 588 220.5 597 Q204 606 190 614 Q176 622 164 622 Q132 622 123 571 L47 582 Q55 649 82 682.5 Q109 716 160 716 Q181 716 200 708 Q219 700 235.5 691 Q252 682 266 674 Q280 666 292 666 Q323 666 333 717 L408 706 Q400 639 373.5 605.5 Q347 572 296 572 Z " />
<glyph glyph-name="hungarumlaut" unicode="&#x2dd;" horiz-adv-x="539" d="M137 732 L274 707 L126 574 L22 574 L137 732 Z M376 731 L513 707 L364 574 L261 574 L376 731 Z " />
<glyph glyph-name="uni0307" unicode="&#x307;" d="M135 585 Q100 585 75.5 609.5 Q51 634 51 668 Q51 701 75.5 725.5 Q100 750 135 750 Q169 750 192.5 725.5 Q216 701 216 668 Q216 634 192.5 609.5 Q169 585 135 585 Z " />
<glyph glyph-name="uni0326" unicode="&#x326;" d="M65 -261 Q103 -226 112 -188 Q83 -188 63 -166.5 Q43 -145 43 -116 Q43 -86 64 -64.5 Q85 -43 114 -43 Q148 -43 169 -70.5 Q190 -98 190 -141 Q190 -211 106 -292 L65 -261 Z " />
<glyph glyph-name="Wgrave" unicode="&#x1e80;" horiz-adv-x="1083" d="M26 687 L201 687 L401 192 L465 351 L329 687 L483 687 L541 542 L600 687 L755 687 L619 350 L683 191 L883 687 L1057 687 L780 0 L606 0 L542 159 L478 0 L303 0 L26 687 Z M483 902 L598 745 L494 745 L346 877 L483 902 Z " />
<glyph glyph-name="wgrave" unicode="&#x1e81;" horiz-adv-x="842" d="M15 517 L165 517 L260 206 L357 517 L484 517 L583 206 L676 517 L826 517 L651 0 L513 0 L421 315 L329 0 L192 0 L15 517 Z M361 732 L476 575 L372 575 L224 707 L361 732 Z " />
<glyph glyph-name="Wacute" unicode="&#x1e82;" horiz-adv-x="1083" d="M26 687 L201 687 L401 192 L465 351 L329 687 L483 687 L541 542 L600 687 L755 687 L619 350 L683 191 L883 687 L1057 687 L780 0 L606 0 L542 159 L478 0 L303 0 L26 687 Z M607 902 L744 877 L595 745 L492 745 L607 902 Z " />
<glyph glyph-name="wacute" unicode="&#x1e83;" horiz-adv-x="842" d="M15 517 L165 517 L260 206 L357 517 L484 517 L583 206 L676 517 L826 517 L651 0 L513 0 L421 315 L329 0 L192 0 L15 517 Z M485 732 L622 707 L473 575 L370 575 L485 732 Z " />
<glyph glyph-name="Wdieresis" unicode="&#x1e84;" horiz-adv-x="1083" d="M26 687 L201 687 L401 192 L465 351 L329 687 L483 687 L541 542 L600 687 L755 687 L619 350 L683 191 L883 687 L1057 687 L780 0 L606 0 L542 159 L478 0 L303 0 L26 687 Z M363 826 Q363 855 383.5 876.5 Q404 898 436 898 Q466 898 487.5 876.5 Q509 855 509 826 Q509 795 487.5 773.5 Q466 752 436 752 Q404 752 383.5 773.5 Q363 795 363 826 Z M577 826 Q577 855 598 876.5 Q619 898 650 898 Q681 898 702 876.5 Q723 855 723 826 Q723 795 702 773.5 Q681 752 650 752 Q619 752 598 773.5 Q577 795 577 826 Z " />
<glyph glyph-name="wdieresis" unicode="&#x1e85;" horiz-adv-x="842" d="M15 517 L165 517 L260 206 L357 517 L484 517 L583 206 L676 517 L826 517 L651 0 L513 0 L421 315 L329 0 L192 0 L15 517 Z M241 656 Q241 685 261.5 706.5 Q282 728 314 728 Q344 728 365.5 706.5 Q387 685 387 656 Q387 625 365.5 603.5 Q344 582 314 582 Q282 582 261.5 603.5 Q241 625 241 656 Z M455 656 Q455 685 476 706.5 Q497 728 528 728 Q559 728 580 706.5 Q601 685 601 656 Q601 625 580 603.5 Q559 582 528 582 Q497 582 476 603.5 Q455 625 455 656 Z " />
<glyph glyph-name="uni1EB8" unicode="&#x1eb8;" horiz-adv-x="675" d="M85 687 L618 687 L618 547 L241 547 L241 420 L583 420 L583 280 L241 280 L241 140 L618 140 L618 0 L85 0 L85 687 Z M269 -142 Q269 -113 289.5 -91.5 Q310 -70 342 -70 Q372 -70 393.5 -91.5 Q415 -113 415 -142 Q415 -173 393.5 -194.5 Q372 -216 342 -216 Q310 -216 289.5 -194.5 Q269 -173 269 -142 Z " />
<glyph glyph-name="uni1EB9" unicode="&#x1eb9;" horiz-adv-x="583" d="M313 -12 Q255 -12 204 8 Q153 28 115.5 64 Q78 100 56.5 150 Q35 200 35 260 Q35 319 55.5 368.5 Q76 418 112.5 453.5 Q149 489 198.5 509 Q248 529 305 529 Q386 529 444 492 Q502 455 533 386 Q549 351 557.5 309.5 Q566 268 566 219 L180 219 Q190 168 223.5 137 Q257 106 307 106 Q342 106 377.5 119.5 Q413 133 438 156 L524 68 Q507 50 482.5 35.5 Q458 21 430 10 Q402 -1 372 -6.5 Q342 -12 313 -12 Z M418 308 Q413 331 405 347 Q391 376 366.5 393.5 Q342 411 306 411 Q260 411 227 383.5 Q194 356 182 308 L418 308 Z M215 -142 Q215 -113 235.5 -91.5 Q256 -70 288 -70 Q318 -70 339.5 -91.5 Q361 -113 361 -142 Q361 -173 339.5 -194.5 Q318 -216 288 -216 Q256 -216 235.5 -194.5 Q215 -173 215 -142 Z " />
<glyph glyph-name="uni1EBC" unicode="&#x1ebc;" horiz-adv-x="674" d="M85 687 L618 687 L618 547 L241 547 L241 420 L583 420 L583 280 L241 280 L241 140 L618 140 L618 0 L85 0 L85 687 Z M171 752 Q179 819 206 852.5 Q233 886 284 886 Q305 886 324 878 Q343 870 359.5 861 Q376 852 390 844 Q404 836 416 836 Q447 836 457 887 L532 876 Q524 809 497.5 775.5 Q471 742 420 742 Q399 742 380 750 Q361 758 344.5 767 Q328 776 314 784 Q300 792 288 792 Q256 792 247 741 L171 752 Z " />
<glyph glyph-name="uni1EBD" unicode="&#x1ebd;" horiz-adv-x="594" d="M313 -12 Q255 -12 204 8 Q153 28 115.5 64 Q78 100 56.5 150 Q35 200 35 260 Q35 319 55.5 368.5 Q76 418 112.5 453.5 Q149 489 198.5 509 Q248 529 305 529 Q386 529 444 492 Q502 455 533 386 Q549 351 557.5 309.5 Q566 268 566 219 L180 219 Q190 168 223.5 137 Q257 106 307 106 Q342 106 377.5 119.5 Q413 133 438 156 L524 68 Q507 50 482.5 35.5 Q458 21 430 10 Q402 -1 372 -6.5 Q342 -12 313 -12 Z M124 582 Q132 649 159 682.5 Q186 716 237 716 Q258 716 277 708 Q296 700 312.5 691 Q329 682 343 674 Q357 666 369 666 Q400 666 410 717 L485 706 Q477 639 450.5 605.5 Q424 572 373 572 Q352 572 333 580 Q314 588 297.5 597 Q281 606 267 614 Q253 622 241 622 Q209 622 200 571 L124 582 Z M418 308 Q413 331 405 347 Q391 376 366.5 393.5 Q342 411 306 411 Q260 411 227 383.5 Q194 356 182 308 L418 308 Z " />
<glyph glyph-name="Ygrave" unicode="&#x1ef2;" horiz-adv-x="738" d="M291 244 L23 687 L203 687 L370 390 L542 687 L715 687 L448 244 L448 0 L291 0 L291 244 Z M309 902 L424 745 L320 745 L172 877 L309 902 Z " />
<glyph glyph-name="ygrave" unicode="&#x1ef3;" horiz-adv-x="595" d="M184 -180 Q150 -180 113 -171 Q76 -162 49 -146 L81 -42 Q101 -53 119.5 -59.5 Q138 -66 150 -66 Q170 -66 186 -60 Q202 -54 210 -40 L227 -5 L12 517 L171 517 L302 161 L426 517 L582 517 L374 -22 Q344 -100 295 -140 Q246 -180 184 -180 Z M242 732 L357 575 L253 575 L105 707 L242 732 Z " />
<glyph glyph-name="uni2002" unicode="&#x2002;" horiz-adv-x="500" d="" />
<glyph glyph-name="uni2003" unicode="&#x2003;" horiz-adv-x="1000" d="" />
<glyph glyph-name="uni2004" unicode="&#x2004;" horiz-adv-x="333" d="" />
<glyph glyph-name="uni2005" unicode="&#x2005;" horiz-adv-x="250" d="" />
<glyph glyph-name="uni2006" unicode="&#x2006;" horiz-adv-x="166" d="" />
<glyph glyph-name="endash" unicode="&#x2013;" horiz-adv-x="618" d="M68 340 L550 340 L550 212 L68 212 L68 340 Z " />
<glyph glyph-name="emdash" unicode="&#x2014;" horiz-adv-x="923" d="M68 340 L855 340 L855 212 L68 212 L68 340 Z " />
<glyph glyph-name="quoteleft" unicode="&#x2018;" horiz-adv-x="303" d="M220 652 Q197 631 181 606.5 Q165 582 158 558 Q177 558 193.5 550.5 Q210 543 222.5 530 Q235 517 242.5 500 Q250 483 250 464 Q250 445 242.5 427.5 Q235 410 222 396.5 Q209 383 192 375.5 Q175 368 156 368 Q111 368 84 404 Q57 440 57 497 Q57 591 166 694 L220 652 Z " />
<glyph glyph-name="quoteright" unicode="&#x2019;" horiz-adv-x="303" d="M83 411 Q106 432 122 456.5 Q138 481 145 505 Q126 505 109.5 512.5 Q93 520 80.5 533 Q68 546 60.5 563 Q53 580 53 599 Q53 619 60.5 636 Q68 653 81 666.5 Q94 680 111 687.5 Q128 695 147 695 Q192 695 219 659 Q246 623 246 566 Q246 472 137 369 L83 411 Z " />
<glyph glyph-name="quotedblleft" unicode="&#x201c;" horiz-adv-x="569" d="M220 652 Q197 631 181 606.5 Q165 582 158 558 Q177 558 193.5 550.5 Q210 543 222.5 530 Q235 517 242.5 500 Q250 483 250 464 Q250 445 242.5 427.5 Q235 410 222 396.5 Q209 383 192 375.5 Q175 368 156 368 Q111 368 84 404 Q57 440 57 497 Q57 591 166 694 L220 652 Z M323 497 Q323 591 432 694 L486 652 Q463 631 447 606.5 Q431 582 424 558 Q443 558 459.5 550.5 Q476 543 488.5 530 Q501 517 508.5 500 Q516 483 516 464 Q516 445 508.5 427.5 Q501 410 488 396.5 Q475 383 458 375.5 Q441 368 422 368 Q377 368 350 404 Q323 440 323 497 Z " />
<glyph glyph-name="quotedblright" unicode="&#x201d;" horiz-adv-x="569" d="M83 411 Q106 432 122 456.5 Q138 481 145 505 Q126 505 109.5 512.5 Q93 520 80.5 533 Q68 546 60.5 563 Q53 580 53 599 Q53 619 60.5 636 Q68 653 81 666.5 Q94 680 111 687.5 Q128 695 147 695 Q192 695 219 659 Q246 623 246 566 Q246 472 137 369 L83 411 Z M320 599 Q320 619 327.5 636 Q335 653 348 666.5 Q361 680 378 687.5 Q395 695 414 695 Q459 695 486 659 Q513 623 513 566 Q513 472 404 369 L350 411 Q373 432 389 456.5 Q405 481 412 505 Q393 505 376.5 512.5 Q360 520 347.5 533 Q335 546 327.5 563 Q320 580 320 599 Z " />
<glyph glyph-name="quotedblbase" unicode="&#x201e;" horiz-adv-x="569" d="M83 -106 Q106 -85 122 -60.5 Q138 -36 145 -12 Q126 -12 109.5 -4.5 Q93 3 80.5 16 Q68 29 60.5 46 Q53 63 53 82 Q53 102 60.5 119 Q68 136 81 149.5 Q94 163 111 170.5 Q128 178 147 178 Q192 178 219 142 Q246 106 246 49 Q246 -45 137 -148 L83 -106 Z M320 82 Q320 102 327.5 119 Q335 136 348 149.5 Q361 163 378 170.5 Q395 178 414 178 Q459 178 486 142 Q513 106 513 49 Q513 -45 404 -148 L350 -106 Q373 -85 389 -60.5 Q405 -36 412 -12 Q393 -12 376.5 -4.5 Q360 3 347.5 16 Q335 29 327.5 46 Q320 63 320 82 Z " />
<glyph glyph-name="bullet" unicode="&#x2022;" horiz-adv-x="420" d="M210 158 Q181 158 155.5 169 Q130 180 111 199 Q92 218 81 243.5 Q70 269 70 298 Q70 327 81 352 Q92 377 111 396 Q130 415 155.5 426 Q181 437 210 437 Q239 437 264.5 426 Q290 415 308.5 396 Q327 377 338 352 Q349 327 349 298 Q349 269 338 243.5 Q327 218 308.5 199 Q290 180 264.5 169 Q239 158 210 158 Z " />
<glyph glyph-name="ellipsis" unicode="&#x2026;" horiz-adv-x="876" d="M173 -12 Q131 -12 103.5 16.5 Q76 45 76 85 Q76 103 83.5 120 Q91 137 104 150 Q117 163 134.5 170.5 Q152 178 173 178 Q192 178 209 170.5 Q226 163 238.5 150 Q251 137 258.5 120 Q266 103 266 85 Q266 65 258.5 47.5 Q251 30 238.5 16.5 Q226 3 209 -4.5 Q192 -12 173 -12 Z M343 85 Q343 103 350.5 120 Q358 137 371 150 Q384 163 401.5 170.5 Q419 178 440 178 Q459 178 476 170.5 Q493 163 505.5 150 Q518 137 525.5 120 Q533 103 533 85 Q533 65 525.5 47.5 Q518 30 505.5 16.5 Q493 3 476 -4.5 Q459 -12 440 -12 Q398 -12 370.5 16.5 Q343 45 343 85 Z M609 85 Q609 103 616.5 120 Q624 137 637 150 Q650 163 667.5 170.5 Q685 178 706 178 Q725 178 742 170.5 Q759 163 771.5 150 Q784 137 791.5 120 Q799 103 799 85 Q799 65 791.5 47.5 Q784 30 771.5 16.5 Q759 3 742 -4.5 Q725 -12 706 -12 Q664 -12 636.5 16.5 Q609 45 609 85 Z " />
<glyph glyph-name="uni202F" unicode="&#x202f;" horiz-adv-x="272" d="" />
<glyph glyph-name="perthousand" unicode="&#x2030;" horiz-adv-x="1270" d="M623 687 L743 687 L264 0 L144 0 L623 687 Z M54 517 Q54 554 66.5 586 Q79 618 101.5 642 Q124 666 155.5 680 Q187 694 226 694 Q265 694 297 680 Q329 666 351.5 642 Q374 618 386.5 586 Q399 554 399 518 Q399 481 386.5 448.5 Q374 416 351 392.5 Q328 369 296.5 355.5 Q265 342 226 342 Q187 342 155.5 355.5 Q124 369 101.5 392.5 Q79 416 66.5 448 Q54 480 54 517 Z M156 517 Q156 478 176.5 454.5 Q197 431 226 431 Q257 431 277 454 Q297 477 297 517 Q297 556 277 580 Q257 604 226 604 Q195 604 175.5 580.5 Q156 557 156 517 Z M486 165 Q486 202 498.5 234.5 Q511 267 534 291 Q557 315 589 328.5 Q621 342 660 342 Q699 342 731 328 Q763 314 785.5 290 Q808 266 820 234 Q832 202 832 166 Q832 129 819.5 96.5 Q807 64 784 40 Q761 16 729 2.5 Q697 -11 659 -11 Q620 -11 588.5 2.5 Q557 16 534 40 Q511 64 498.5 96 Q486 128 486 165 Z M589 166 Q589 127 609 103 Q629 79 660 79 Q691 79 710.5 102.5 Q730 126 730 165 Q730 205 709.5 228.5 Q689 252 659 252 Q628 252 608.5 229 Q589 206 589 166 Z M871 165 Q871 202 883.5 234.5 Q896 267 919 291 Q942 315 973.5 328.5 Q1005 342 1044 342 Q1083 342 1115 328 Q1147 314 1169.5 290 Q1192 266 1204 234 Q1216 202 1216 166 Q1216 129 1203.5 96.5 Q1191 64 1168 40 Q1145 16 1113.5 2.5 Q1082 -11 1044 -11 Q1005 -11 973 2.5 Q941 16 918.5 40 Q896 64 883.5 96 Q871 128 871 165 Z M973 166 Q973 127 993 103 Q1013 79 1044 79 Q1075 79 1095 102.5 Q1115 126 1115 165 Q1115 205 1094.5 228.5 Q1074 252 1044 252 Q1012 252 992.5 229 Q973 206 973 166 Z " />
<glyph glyph-name="guilsinglleft" unicode="&#x2039;" horiz-adv-x="351" d="M29 254 L194 457 L314 432 L172 255 L314 76 L194 49 L29 254 Z " />
<glyph glyph-name="guilsinglright" unicode="&#x203a;" horiz-adv-x="351" d="M37 76 L178 255 L37 432 L156 457 L321 254 L156 49 L37 76 Z " />
<glyph glyph-name="Euro" unicode="&#x20ac;" horiz-adv-x="816" d="M66 317 L127 317 Q126 324 126 330.5 Q126 337 126 344 Q126 354 126.5 363 Q127 372 128 382 L66 382 L66 456 L145 456 Q164 509 198 553.5 Q232 598 278 630 Q324 662 378.5 680.5 Q433 699 493 699 Q572 699 641 668 Q710 637 761 583 L648 482 Q619 517 579 537.5 Q539 558 493 558 Q438 558 392 530 Q346 502 318 456 L542 456 L542 382 L289 382 Q286 364 286 344 Q286 337 286.5 330.5 Q287 324 288 317 L542 317 L542 243 L311 243 Q338 192 386.5 160.5 Q435 129 493 129 Q540 129 580 149.5 Q620 170 649 205 L761 104 Q710 50 641 19 Q572 -12 493 -12 Q432 -12 376 7.5 Q320 27 273.5 61 Q227 95 193 141.5 Q159 188 142 243 L66 243 L66 317 Z " />
<glyph glyph-name="trademark" unicode="&#x2122;" horiz-adv-x="798" d="M146 498 L64 498 L64 580 L318 580 L318 498 L236 498 L236 280 L146 280 L146 498 Z M356 580 L446 580 L526 448 L606 580 L695 580 L695 280 L606 280 L606 429 L526 297 L446 429 L446 280 L356 280 L356 580 Z " />
<glyph glyph-name="minus" unicode="&#x2212;" horiz-adv-x="690" d="M102 396 L588 396 L588 272 L102 272 L102 396 Z " />
<glyph glyph-name="uniF000" unicode="&#xf000;" horiz-adv-x="956" d="M60 234 Q46 242 51 258 L208 736 Q209 741 213.5 744.5 Q218 748 223 750 L228 751 Q232 753 236.5 750 Q241 747 243 743 L475 472 Q476 470 478 470 Q480 470 481 472 L713 743 Q715 747 719.5 750 Q724 753 728 751 L733 750 Q738 748 742.5 744.5 Q747 741 748 736 L905 258 Q910 242 896 234 L490 -67 Q478 -76 466 -67 L60 234 Z " />
<glyph glyph-name="uniF001" unicode="&#xf001;" horiz-adv-x="2828" d="M987 -113 Q948 -113 935.5 -104.5 Q923 -96 923 -91 Q923 -87 926 -84.5 Q929 -82 935.5 -80 Q942 -78 952.5 -73.5 Q963 -69 979 -60 Q994 -53 1011.5 -43.5 Q1029 -34 1050.5 -17.5 Q1072 -1 1099 24 Q1126 49 1160 86 Q1193 123 1218.5 155.5 Q1244 188 1262 212.5 Q1280 237 1290.5 252.5 Q1301 268 1303 271 L1115 534 L1189 534 Q1221 534 1240 533 Q1259 532 1272.5 526 Q1286 520 1298 507 Q1310 494 1327 470 L1384 387 Q1389 390 1400.5 404 Q1412 418 1430 439 Q1448 460 1471 485 Q1494 510 1521 534 Q1560 567 1598.5 589.5 Q1637 612 1671.5 625.5 Q1706 639 1735 645 Q1764 651 1784 651 Q1824 651 1836 642 Q1848 633 1848 628 Q1848 619 1834 617.5 Q1820 616 1792 602 Q1778 595 1760.5 584.5 Q1743 574 1721 557 Q1699 540 1672 514.5 Q1645 489 1612 451 Q1580 417 1554.5 386 Q1529 355 1510.5 331 Q1492 307 1481 291.5 Q1470 276 1467 271 L1667 -8 L1554 -8 Q1534 -8 1519 -2 Q1504 4 1493 13.5 Q1482 23 1473 34.5 Q1464 46 1456 57 L1384 154 Q1383 152 1372.5 137.5 Q1362 123 1344.5 101.5 Q1327 80 1303.5 54.5 Q1280 29 1251 3 Q1211 -31 1172.5 -53 Q1134 -75 1099.5 -88.5 Q1065 -102 1036 -107.5 Q1007 -113 987 -113 Z M50 534 L121 534 L121 590 Q121 620 134.5 649.5 Q148 679 172 702.5 Q196 726 229.5 741 Q263 756 303 756 Q335 756 363.5 747 Q392 738 413 727 Q437 714 458 698 L427 628 Q417 632 405 636 Q394 639 381.5 641.5 Q369 644 354 644 Q323 644 297.5 628.5 Q272 613 272 582 L272 534 L389 534 L389 410 L272 410 L272 27 Q272 15 267.5 9.5 Q263 4 246 -8 Q229 -16 202.5 -27.5 Q176 -39 155 -42 Q136 -47 128.5 -45 Q121 -43 121 -23 L121 410 L50 410 L50 534 Z M465 264 Q465 331 491 384 Q517 437 559 473.5 Q601 510 654 529.5 Q707 549 761 549 Q814 549 866 529 Q918 509 960 472 Q1002 435 1028 382.5 Q1054 330 1054 264 Q1054 207 1032.5 156 Q1011 105 972.5 66 Q934 27 880 4 Q826 -19 761 -19 Q699 -19 645 2.5 Q591 24 551 62.5 Q511 101 488 152.5 Q465 204 465 264 Z M610 264 Q610 231 622.5 203 Q635 175 655.5 154 Q676 133 703.5 121 Q731 109 761 109 Q783 109 808.5 119 Q834 129 856 148.5 Q878 168 892.5 197 Q907 226 907 264 Q907 300 894.5 328.5 Q882 357 862 376.5 Q842 396 815.5 406.5 Q789 417 761 417 Q722 417 694 403.5 Q666 390 647 368 Q628 346 619 318.5 Q610 291 610 264 Z M1730 154 Q1730 198 1749 231.5 Q1768 265 1800 288 Q1832 311 1873 323 Q1914 335 1958 335 Q1992 335 2027 327 Q2062 319 2097 306 L2097 317 Q2097 367 2061.5 395.5 Q2026 424 1968 424 Q1938 424 1902 415.5 Q1866 407 1829 387 L1788 466 Q1819 500 1868.5 523 Q1918 546 2005 549 Q2064 549 2108 530 Q2152 511 2182 479 Q2212 447 2227 405 Q2242 363 2242 317 L2242 -8 L2097 -8 L2097 49 Q2065 11 2022.5 -4 Q1980 -19 1935 -19 Q1894 -19 1856.5 -7.5 Q1819 4 1791 26.5 Q1763 49 1746.5 81 Q1730 113 1730 154 Z M1878 157 Q1878 121 1905.5 103.5 Q1933 86 1968 86 Q2014 86 2049 104.5 Q2084 123 2097 166 L2097 215 Q2068 223 2040 228 Q2012 233 1980 233 Q1962 233 1944 228.5 Q1926 224 1911.5 214.5 Q1897 205 1887.5 190.5 Q1878 176 1878 157 Z M2382 534 L2536 534 L2536 443 Q2548 466 2566 485 Q2584 504 2606 518.5 Q2628 533 2653 541 Q2678 549 2703 549 Q2722 549 2741.5 545.5 Q2761 542 2778 534 L2737 410 Q2722 415 2707.5 418.5 Q2693 422 2679 422 Q2647 422 2620.5 409.5 Q2594 397 2575.5 376 Q2557 355 2546.5 326.5 Q2536 298 2536 266 L2536 -8 L2382 -8 L2382 534 Z " />
<glyph glyph-name="uniF002" unicode="&#xf002;" horiz-adv-x="3878" d="M60 234 Q46 242 51 258 L208 736 Q209 741 213.5 744.5 Q218 748 223 750 L228 751 Q232 753 236.5 750 Q241 747 243 743 L475 472 Q476 470 478 470 Q480 470 481 472 L713 743 Q715 747 719.5 750 Q724 753 728 751 L733 750 Q738 748 742.5 744.5 Q747 741 748 736 L905 258 Q910 242 896 234 L490 -67 Q478 -76 466 -67 L60 234 Z M1100 534 L1171 534 L1171 590 Q1171 620 1184.5 649.5 Q1198 679 1222 702.5 Q1246 726 1279.5 741 Q1313 756 1353 756 Q1385 756 1413.5 747 Q1442 738 1463 727 Q1487 714 1508 698 L1477 628 Q1467 632 1455 636 Q1444 639 1431.5 641.5 Q1419 644 1404 644 Q1373 644 1347.5 628.5 Q1322 613 1322 582 L1322 534 L1439 534 L1439 410 L1322 410 L1322 27 Q1322 15 1317.5 9.5 Q1313 4 1296 -8 Q1279 -16 1252.5 -27.5 Q1226 -39 1205 -42 Q1186 -47 1178.5 -45 Q1171 -43 1171 -23 L1171 410 L1100 410 L1100 534 Z M1515 264 Q1515 331 1541 384 Q1567 437 1609 473.5 Q1651 510 1704 529.5 Q1757 549 1811 549 Q1864 549 1916 529 Q1968 509 2010 472 Q2052 435 2078 382.5 Q2104 330 2104 264 Q2104 207 2082.5 156 Q2061 105 2022.5 66 Q1984 27 1930 4 Q1876 -19 1811 -19 Q1749 -19 1695 2.5 Q1641 24 1601 62.5 Q1561 101 1538 152.5 Q1515 204 1515 264 Z M1660 264 Q1660 231 1672.5 203 Q1685 175 1705.5 154 Q1726 133 1753.5 121 Q1781 109 1811 109 Q1833 109 1858.5 119 Q1884 129 1906 148.5 Q1928 168 1942.5 197 Q1957 226 1957 264 Q1957 300 1944.5 328.5 Q1932 357 1912 376.5 Q1892 396 1865.5 406.5 Q1839 417 1811 417 Q1772 417 1744 403.5 Q1716 390 1697 368 Q1678 346 1669 318.5 Q1660 291 1660 264 Z M1973 -91 Q1973 -87 1976 -84.5 Q1979 -82 1985.5 -80 Q1992 -78 2002.5 -73.5 Q2013 -69 2029 -60 Q2044 -53 2061.5 -43.5 Q2079 -34 2100.5 -17.5 Q2122 -1 2149 24 Q2176 49 2210 86 Q2243 123 2268.5 155.5 Q2294 188 2312 212.5 Q2330 237 2340.5 252.5 Q2351 268 2353 271 L2165 534 L2239 534 Q2271 534 2290 533 Q2309 532 2322.5 526 Q2336 520 2348 507 Q2360 494 2377 470 L2434 387 Q2439 390 2450.5 404 Q2462 418 2480 439 Q2498 460 2521 485 Q2544 510 2571 534 Q2610 567 2648.5 589.5 Q2687 612 2721.5 625.5 Q2756 639 2785 645 Q2814 651 2834 651 Q2874 651 2886 642 Q2898 633 2898 628 Q2898 619 2884 617.5 Q2870 616 2842 602 Q2828 595 2810.5 584.5 Q2793 574 2771 557 Q2749 540 2722 514.5 Q2695 489 2662 451 Q2630 417 2604.5 386 Q2579 355 2560.5 331 Q2542 307 2531 291.5 Q2520 276 2517 271 L2717 -8 L2604 -8 Q2584 -8 2569 -2 Q2554 4 2543 13.5 Q2532 23 2523 34.5 Q2514 46 2506 57 L2434 154 Q2433 152 2422.5 137.5 Q2412 123 2394.5 101.5 Q2377 80 2353.5 54.5 Q2330 29 2301 3 Q2261 -31 2222.5 -53 Q2184 -75 2149.5 -88.5 Q2115 -102 2086 -107.5 Q2057 -113 2037 -113 Q1998 -113 1985.5 -104.5 Q1973 -96 1973 -91 Z M2780 154 Q2780 198 2799 231.5 Q2818 265 2850 288 Q2882 311 2923 323 Q2964 335 3008 335 Q3042 335 3077 327 Q3112 319 3147 306 L3147 317 Q3147 367 3111.5 395.5 Q3076 424 3018 424 Q2988 424 2952 415.5 Q2916 407 2879 387 L2838 466 Q2869 500 2918.5 523 Q2968 546 3055 549 Q3114 549 3158 530 Q3202 511 3232 479 Q3262 447 3277 405 Q3292 363 3292 317 L3292 -8 L3147 -8 L3147 49 Q3115 11 3072.5 -4 Q3030 -19 2985 -19 Q2944 -19 2906.5 -7.5 Q2869 4 2841 26.5 Q2813 49 2796.5 81 Q2780 113 2780 154 Z M2928 157 Q2928 121 2955.5 103.5 Q2983 86 3018 86 Q3064 86 3099 104.5 Q3134 123 3147 166 L3147 215 Q3118 223 3090 228 Q3062 233 3030 233 Q3012 233 2994 228.5 Q2976 224 2961.5 214.5 Q2947 205 2937.5 190.5 Q2928 176 2928 157 Z M3432 534 L3586 534 L3586 443 Q3598 466 3616 485 Q3634 504 3656 518.5 Q3678 533 3703 541 Q3728 549 3753 549 Q3772 549 3791.5 545.5 Q3811 542 3828 534 L3787 410 Q3772 415 3757.5 418.5 Q3743 422 3729 422 Q3697 422 3670.5 409.5 Q3644 397 3625.5 376 Q3607 355 3596.5 326.5 Q3586 298 3586 266 L3586 -8 L3432 -8 L3432 534 Z " />
<glyph glyph-name="uniF003" unicode="&#xf003;" horiz-adv-x="944" d="M215 447 Q206 452 210 461 L303 744 Q303 749 312 753 L315 753 Q317 754 319.5 752.5 Q322 751 323 749 L461 588 Q463 584 465 588 L602 749 Q604 751 606.5 752.5 Q609 754 611 753 L614 753 Q622 749 623 744 L716 461 Q720 452 711 447 L470 268 Q463 263 456 268 L215 447 Z M50 168 L72 168 L72 186 Q72 204 87.5 220.5 Q103 237 129 237 Q139 237 147.5 234 Q156 231 163 228 Q170 224 177 219 L167 197 Q164 198 161 200 Q152 202 145 202 Q135 202 127 197.5 Q119 193 119 183 L119 168 L155 168 L155 130 L119 130 L119 11 Q119 7 117.5 5.5 Q116 4 111 1 Q106 -2 98 -5.5 Q90 -9 83 -10 Q77 -12 74.5 -11 Q72 -10 72 -4 L72 130 L50 130 L50 168 Z M179 85 Q179 106 187 122 Q195 138 208 149.5 Q221 161 237.5 167 Q254 173 271 173 Q287 173 303 167 Q319 161 332 149.5 Q345 138 353 121.5 Q361 105 361 85 Q361 50 336 23.5 Q311 -3 271 -3 Q232 -3 205.5 22 Q179 47 179 85 Z M224 85 Q224 65 238 51 Q252 37 271 37 Q285 37 300.5 49 Q316 61 316 85 Q316 107 302 119.5 Q288 132 271 132 Q247 132 235.5 117 Q224 102 224 85 Z M321 -25 Q321 -22 324.5 -21.5 Q328 -21 338 -16 Q347 -11 360 -2 Q373 7 394 30 Q414 53 425.5 69 Q437 85 438 87 L380 168 L403 168 Q423 168 429 166 Q435 164 446 148 L463 123 Q466 125 477.5 139 Q489 153 506 168 Q530 189 552 196.5 Q574 204 587 204 Q600 204 603.5 201.5 Q607 199 607 197 Q607 195 602.5 194.5 Q598 194 590 189 Q581 184 567.5 175 Q554 166 534 143 Q514 121 502.5 105.5 Q491 90 489 87 L551 1 L516 1 Q504 1 497.5 7.5 Q491 14 486 21 L463 51 Q462 49 451 34.5 Q440 20 422 4 Q397 -17 375 -24.5 Q353 -32 340 -32 Q328 -32 324.5 -29.5 Q321 -27 321 -25 Z M570 51 Q570 78 592 92.5 Q614 107 641 107 Q652 107 662.5 104.5 Q673 102 684 98 L684 101 Q684 117 673 125.5 Q662 134 644 134 Q635 134 623.5 131.5 Q612 129 601 123 L588 147 Q598 158 613.5 165 Q629 172 656 173 Q692 173 710.5 151.5 Q729 130 729 101 L729 1 L684 1 L684 18 Q674 7 661 2 Q648 -3 634 -3 Q608 -3 589 11 Q570 25 570 51 Z M616 52 Q616 41 624.5 35.5 Q633 30 644 30 Q658 30 669 35.5 Q680 41 684 54 L684 70 Q675 72 666.5 73.5 Q658 75 648 75 Q637 75 626.5 69 Q616 63 616 52 Z M772 168 L820 168 L820 140 Q827 154 841.5 163.5 Q856 173 872 173 Q877 173 883.5 172 Q890 171 895 168 L882 130 Q877 132 873 133 Q869 134 864 134 Q844 134 832 119.5 Q820 105 820 85 L820 1 L772 1 L772 168 Z " />
</font>
</svg>
