<?xml version="1.0" encoding="UTF-8"?>
<svg xmlns="http://www.w3.org/2000/svg" xmlns:xlink="http://www.w3.org/1999/xlink" version="1.2" >
<font id="Avenue Bold Italic">
<font-face  font-family="Avenue" units-per-em="1000" ascent="795" descent="-205" font-style="italic" font-weight="700" font-stretch="normal" slope="-12" cap-height="687" x-height="517" underline-position="-133" underline-thickness="20" />
<missing-glyph  horiz-adv-x="500" d="M410 -210 L93 -210 L93 790 L410 790 L410 -210 Z M333 -141 L333 -108 L231 -108 L301 -61 L333 -61 L333 -28 L167 -28 L167 -61 L237 -61 L167 -108 L167 -141 L333 -141 Z M333 -5 L333 108 L167 108 L167 -5 L333 -5 Z M333 168 L333 281 L233 281 L233 225 L267 225 L267 248 L300 248 L300 201 L200 201 L200 281 L167 281 L167 168 L333 168 Z M333 303 L333 403 L300 403 L300 337 L167 337 L167 303 L333 303 Z M267 360 L267 430 L333 430 L333 463 L167 463 L167 430 L233 430 L233 393 L167 393 L167 360 L267 360 Z M333 490 L333 524 L267 524 L267 594 L167 594 L167 490 L333 490 Z M333 620 L333 653 L267 653 L267 690 L333 690 L333 723 L168 723 L168 690 L233 690 L233 653 L167 653 L167 620 L333 620 Z M200 75 L300 75 L300 28 L200 28 L200 75 Z M200 560 L233 560 L233 524 L200 524 L200 560 Z " />
<glyph glyph-name="null" d="" />
<glyph glyph-name="nonmarkingreturn" unicode="&#xd;" horiz-adv-x="250" d="" />
<glyph glyph-name="&amp;#x20;" unicode="&#x20;" horiz-adv-x="278" d="" />
<glyph glyph-name="&amp;#xa0;" unicode="&#xa0;" horiz-adv-x="278" d="" />
<glyph glyph-name="exclam" unicode="&#x21;" horiz-adv-x="337" d="M169 687 L343 687 L217 247 L113 247 L169 687 Z M40 74 Q40 97 49 116 Q58 135 72.5 148.5 Q87 162 106 170 Q125 178 146 178 Q183 178 206 153.5 Q229 129 229 94 Q229 72 220.5 53 Q212 34 197.5 19.5 Q183 5 164.5 -3.5 Q146 -12 126 -12 Q87 -12 63.5 13 Q40 38 40 74 Z " />
<glyph glyph-name="quotedbl" unicode="&#x22;" horiz-adv-x="535" d="M140 390 Q135 428 132 468 Q129 508 130 544 Q130 576 136.5 603.5 Q143 631 155.5 651 Q168 671 187.5 683 Q207 695 233 695 Q262 695 280 676.5 Q298 658 298 630 Q298 614 287.5 583.5 Q277 553 261.5 518 Q246 483 229 448.5 Q212 414 200 390 L140 390 Z M378 544 Q378 576 384.5 603.5 Q391 631 403.5 651 Q416 671 435.5 683 Q455 695 481 695 Q510 695 528 676.5 Q546 658 546 630 Q546 614 535.5 583.5 Q525 553 509.5 518 Q494 483 477 448.5 Q460 414 448 390 L388 390 Q383 428 380 468 Q377 508 378 544 Z " />
<glyph glyph-name="numbersign" unicode="&#x23;" horiz-adv-x="706" d="M116 158 L24 158 L74 267 L166 267 L235 418 L141 418 L190 528 L286 528 L359 687 L473 687 L400 528 L509 528 L582 687 L697 687 L624 528 L718 528 L668 418 L573 418 L504 267 L598 267 L548 158 L454 158 L381 0 L266 0 L339 158 L230 158 L157 0 L43 0 L116 158 Z M389 267 L458 418 L349 418 L280 267 L389 267 Z " />
<glyph glyph-name="dollar" unicode="&#x24;" horiz-adv-x="703" d="M286 -10 Q211 -3 146 27.5 Q81 58 38 106 L141 204 Q176 168 222 146.5 Q268 125 313 120 L347 281 Q300 293 262 306.5 Q224 320 197.5 339.5 Q171 359 156.5 386.5 Q142 414 142 454 Q142 506 163 550 Q184 594 222.5 626.5 Q261 659 314.5 678.5 Q368 698 434 699 L446 759 L516 759 L503 694 Q559 686 609 662.5 Q659 639 697 601 L600 496 Q573 523 540 539 Q507 555 475 562 L443 405 Q494 392 531 377 Q568 362 591.5 342 Q615 322 626.5 296 Q638 270 638 234 Q638 182 616.5 138.5 Q595 95 557.5 63 Q520 31 468.5 12 Q417 -7 356 -11 L343 -74 L273 -74 L286 -10 Z M301 476 Q301 457 318 445 Q335 433 376 422 L406 567 Q355 561 328 534.5 Q301 508 301 476 Z M384 123 Q431 132 455.5 157.5 Q480 183 480 213 Q480 230 465.5 241 Q451 252 413 263 L384 123 Z " />
<glyph glyph-name="percent" unicode="&#x25;" horiz-adv-x="893" d="M714 687 L838 687 L216 0 L92 0 L714 687 Z M109 486 Q109 528 124.5 566 Q140 604 167 632.5 Q194 661 231 677.5 Q268 694 310 694 Q381 694 420 652 Q459 610 459 548 Q459 506 443.5 468.5 Q428 431 400.5 403 Q373 375 336 358.5 Q299 342 257 342 Q187 342 148 382.5 Q109 423 109 486 Z M209 483 Q209 458 221.5 444.5 Q234 431 256 431 Q278 431 297 442 Q316 453 329.5 470 Q343 487 351 508.5 Q359 530 359 551 Q359 576 346.5 590 Q334 604 312 604 Q290 604 271 593 Q252 582 238 564.5 Q224 547 216.5 525.5 Q209 504 209 483 Z M468 135 Q468 176 483.5 213.5 Q499 251 526.5 279.5 Q554 308 591 325 Q628 342 670 342 Q741 342 779.5 300 Q818 258 818 196 Q818 155 802.5 117.5 Q787 80 759.5 51.5 Q732 23 695.5 6 Q659 -11 617 -11 Q547 -11 507.5 30.5 Q468 72 468 135 Z M568 131 Q568 106 580.5 92.5 Q593 79 616 79 Q639 79 657.5 90 Q676 101 690 118.5 Q704 136 711.5 157.5 Q719 179 719 200 Q719 225 706 238.5 Q693 252 671 252 Q649 252 630 241.5 Q611 231 597.5 213.5 Q584 196 576 174.5 Q568 153 568 131 Z " />
<glyph glyph-name="ampersand" unicode="&#x26;" horiz-adv-x="735" d="M244 -12 Q199 -12 161.5 -0.5 Q124 11 97 32 Q70 53 55.5 83.5 Q41 114 41 153 Q41 200 55 235.5 Q69 271 94.5 299.5 Q120 328 156 350 Q192 372 237 390 Q223 416 216 438 Q209 460 209 483 Q209 530 228 569 Q247 608 278.5 636 Q310 664 351 680 Q392 696 436 696 Q475 696 507 685 Q539 674 561.5 653.5 Q584 633 596 605.5 Q608 578 608 545 Q608 505 593.5 475.5 Q579 446 553 422.5 Q527 399 490.5 380 Q454 361 410 341 Q425 318 443.5 292.5 Q462 267 485 237 Q512 267 536.5 300.5 Q561 334 582 369 L685 304 Q652 258 619.5 218 Q587 178 554 144 L636 35 L507 -13 L456 59 Q406 24 353.5 6 Q301 -12 244 -12 Z M193 167 Q193 137 214 120.5 Q235 104 267 104 Q296 104 327 116.5 Q358 129 390 151 Q361 194 337.5 229 Q314 264 294 293 Q249 271 221 240 Q193 209 193 167 Z M338 490 Q338 463 354 431 Q409 450 444 475 Q479 500 479 546 Q479 565 467.5 576 Q456 587 436 587 Q417 587 399.5 579 Q382 571 368.5 558 Q355 545 346.5 527.5 Q338 510 338 490 Z " />
<glyph glyph-name="quotesingle" unicode="&#x27;" horiz-adv-x="290" d="M143 390 Q138 428 135 468 Q132 508 133 544 Q133 576 139.5 603.5 Q146 631 158.5 651 Q171 671 190.5 683 Q210 695 236 695 Q265 695 283 676.5 Q301 658 301 630 Q301 614 290.5 583.5 Q280 553 264.5 518 Q249 483 232 448.5 Q215 414 203 390 L143 390 Z " />
<glyph glyph-name="parenleft" unicode="&#x28;" horiz-adv-x="380" d="M187 -167 Q115 -107 76.5 -23 Q38 61 38 164 Q38 245 61 322.5 Q84 400 126 469.5 Q168 539 227 598.5 Q286 658 358 703 L427 614 Q313 517 249.5 402 Q186 287 186 150 Q186 83 207.5 25 Q229 -33 275 -91 L187 -167 Z " />
<glyph glyph-name="parenright" unicode="&#x29;" horiz-adv-x="381" d="M-43 -83 Q72 14 135 128.5 Q198 243 198 381 Q198 448 176 506 Q154 564 109 622 L197 697 Q269 637 307.5 553.5 Q346 470 346 368 Q346 286 323 208.5 Q300 131 258 61 Q216 -9 157 -68.5 Q98 -128 26 -173 L-43 -83 Z " />
<glyph glyph-name="asterisk" unicode="&#x2a;" horiz-adv-x="459" d="M247 342 Q230 342 221 353 Q212 364 215 378 Q220 404 235.5 434.5 Q251 465 259 492 Q234 475 208.5 452.5 Q183 430 157 416 Q143 408 129 413 Q115 418 110 433 Q105 447 111.5 462 Q118 477 132 485 Q158 498 190 505 Q222 512 248 522 Q225 533 196.5 540 Q168 547 148 561 Q137 568 136.5 583 Q136 598 147 613 Q158 627 174.5 632 Q191 637 202 629 Q222 615 238.5 592.5 Q255 570 272 553 Q274 579 271.5 609.5 Q269 640 274 667 Q277 681 290.5 692 Q304 703 321 703 Q338 703 347.5 692 Q357 681 354 667 Q348 640 332.5 609.5 Q317 579 307 553 Q332 570 358.5 592.5 Q385 615 410 628 Q424 636 438.5 631 Q453 626 458 612 Q463 598 456.5 582.5 Q450 567 436 560 Q410 546 377.5 539.5 Q345 533 318 522 Q341 512 370.5 505 Q400 498 420 484 Q431 477 431.5 461.5 Q432 446 421 432 Q410 418 393.5 413 Q377 408 366 416 Q346 429 329 452 Q312 475 295 492 Q293 465 296.5 434.5 Q300 404 294 378 Q291 364 277.5 353 Q264 342 247 342 Z " />
<glyph glyph-name="plus" unicode="&#x2b;" horiz-adv-x="611" d="M91 396 L268 396 L306 577 L438 577 L400 396 L577 396 L551 272 L375 272 L337 91 L205 91 L243 272 L65 272 L91 396 Z " />
<glyph glyph-name="comma" unicode="&#x2c;" horiz-adv-x="335" d="M19 -102 Q48 -81 70.5 -56 Q93 -31 108 -6 Q76 -6 54.5 15.5 Q33 37 33 72 Q33 94 42 113 Q51 132 65 146.5 Q79 161 98 169.5 Q117 178 136 178 Q176 178 198 150 Q220 122 220 77 Q220 44 208.5 13 Q197 -18 176.5 -46.5 Q156 -75 129.5 -101.5 Q103 -128 73 -152 L19 -102 Z " />
<glyph glyph-name="hyphen" unicode="&#x2d;" horiz-adv-x="418" d="M88 341 L364 341 L337 211 L61 211 L88 341 Z " />
<glyph glyph-name="period" unicode="&#x2e;" horiz-adv-x="348" d="M129 -12 Q90 -12 66.5 13 Q43 38 43 74 Q43 97 52 116 Q61 135 75.5 148.5 Q90 162 109 170 Q128 178 149 178 Q186 178 209 153.5 Q232 129 232 94 Q232 72 223.5 53 Q215 34 200.5 19.5 Q186 5 167.5 -3.5 Q149 -12 129 -12 Z " />
<glyph glyph-name="slash" unicode="&#x2f;" horiz-adv-x="530" d="M455 743 L620 743 L107 -74 L-58 -74 L455 743 Z " />
<glyph glyph-name="zero" unicode="0" horiz-adv-x="722" d="M314 -12 Q255 -12 208 7.5 Q161 27 128 62.5 Q95 98 77 148 Q59 198 59 259 Q59 344 88 423.5 Q117 503 168 564 Q219 625 289.5 662 Q360 699 442 699 Q501 699 548.5 679.5 Q596 660 629 624.5 Q662 589 680 539 Q698 489 698 428 Q698 343 669 264 Q640 185 589 123.5 Q538 62 467.5 25 Q397 -12 314 -12 Z M217 266 Q217 203 245 166 Q273 129 324 129 Q371 129 410.5 156 Q450 183 478.5 225.5 Q507 268 523.5 320 Q540 372 540 422 Q540 485 512 521.5 Q484 558 433 558 Q387 558 347 531 Q307 504 278.5 462 Q250 420 233.5 368 Q217 316 217 266 Z " />
<glyph glyph-name="one" unicode="1" horiz-adv-x="444" d="M257 510 L127 437 L86 546 L323 687 L448 687 L305 0 L150 0 L257 510 Z " />
<glyph glyph-name="two" unicode="2" horiz-adv-x="625" d="M18 126 L310 324 Q338 343 364 363.5 Q390 384 410 406 Q430 428 442 451.5 Q454 475 454 500 Q454 529 432.5 543.5 Q411 558 379 558 Q325 558 279.5 532.5 Q234 507 188 465 L103 569 Q233 699 392 699 Q443 699 484 685.5 Q525 672 554 647.5 Q583 623 598.5 588.5 Q614 554 614 513 Q614 465 599 424.5 Q584 384 556.5 348.5 Q529 313 490.5 283 Q452 253 405 227 L261 140 L547 140 L518 0 L-6 0 L18 126 Z " />
<glyph glyph-name="three" unicode="3" horiz-adv-x="626" d="M242 -12 Q165 -12 99.5 20 Q34 52 -1 106 L105 202 Q155 124 262 124 Q290 124 314.5 131.5 Q339 139 358.5 151 Q378 163 391 178.5 Q404 194 407 210 Q415 252 388 275 Q361 298 302 298 Q278 298 236 290 L213 388 L418 550 L132 550 L161 687 L649 687 L620 550 L410 388 Q498 390 540.5 341.5 Q583 293 565 208 Q555 160 526.5 119.5 Q498 79 455.5 49.5 Q413 20 358.5 4 Q304 -12 242 -12 Z " />
<glyph glyph-name="four" unicode="4" horiz-adv-x="662" d="M358 137 L24 137 L32 256 L437 686 L627 686 L540 267 L630 267 L603 137 L513 137 L484 0 L329 0 L358 137 Z M385 267 L440 523 L200 267 L385 267 Z " />
<glyph glyph-name="five" unicode="5" horiz-adv-x="631" d="M262 -13 Q171 -13 110 17.5 Q49 48 8 96 L114 198 Q146 162 186 142 Q226 122 271 122 Q302 122 330 132.5 Q358 143 379.5 160.5 Q401 178 414 201.5 Q427 225 427 251 Q427 282 402.5 299.5 Q378 317 333 317 Q291 317 254.5 303.5 Q218 290 186 269 L88 314 L175 687 L636 687 L607 547 L290 547 L252 408 Q312 445 386 445 Q428 445 463.5 433.5 Q499 422 525.5 399.5 Q552 377 567 344 Q582 311 582 269 Q582 206 557 154 Q532 102 488.5 65 Q445 28 387 7.5 Q329 -13 262 -13 Z " />
<glyph glyph-name="six" unicode="6" horiz-adv-x="657" d="M302 -12 Q239 -12 193 5.5 Q147 23 116.5 55 Q86 87 71.5 132 Q57 177 57 232 Q57 324 86.5 408 Q116 492 168.5 557 Q221 622 294 660.5 Q367 699 454 699 Q523 699 572 677.5 Q621 656 658 622 L569 511 Q543 537 514 550 Q485 563 447 563 Q413 563 383 550 Q353 537 327.5 514 Q302 491 282 460 Q262 429 247 394 Q282 419 325 432.5 Q368 446 410 446 Q454 446 490.5 433.5 Q527 421 553.5 398 Q580 375 595 342 Q610 309 610 267 Q610 207 585 156 Q560 105 518 67.5 Q476 30 420 9 Q364 -12 302 -12 Z M211 217 Q211 169 231.5 144.5 Q252 120 300 120 Q330 120 357 131 Q384 142 404.5 160 Q425 178 437.5 202 Q450 226 450 251 Q450 285 424 302.5 Q398 320 358 320 Q313 320 274 296 Q235 272 211 234 L211 217 Z " />
<glyph glyph-name="seven" unicode="7" horiz-adv-x="585" d="M428 547 L93 547 L122 687 L638 687 L616 570 L222 0 L43 0 L428 547 Z " />
<glyph glyph-name="eight" unicode="8" horiz-adv-x="655" d="M280 -12 Q227 -12 181.5 -0.5 Q136 11 102.5 33 Q69 55 50 87 Q31 119 31 159 Q31 196 44 227 Q57 258 80.5 283.5 Q104 309 135.5 328 Q167 347 203 360 Q167 377 142.5 408 Q118 439 118 487 Q118 539 143.5 578.5 Q169 618 210 645 Q251 672 303 685.5 Q355 699 408 699 Q457 699 499.5 688 Q542 677 573.5 656 Q605 635 623.5 604.5 Q642 574 642 535 Q642 467 600.5 422 Q559 377 492 350 Q537 330 564.5 294.5 Q592 259 592 209 Q592 155 565.5 113.5 Q539 72 495.5 44.5 Q452 17 395.5 2.5 Q339 -12 280 -12 Z M190 176 Q190 149 216.5 133.5 Q243 118 288 118 Q316 118 343.5 126 Q371 134 392.5 148.5 Q414 163 427.5 182.5 Q441 202 441 225 Q441 239 432.5 250.5 Q424 262 410 269.5 Q396 277 378.5 281.5 Q361 286 343 287 Q317 286 289.5 277.5 Q262 269 240 254 Q218 239 204 219 Q190 199 190 176 Z M265 467 Q265 440 290.5 425.5 Q316 411 348 409 Q372 410 397 419 Q422 428 442 442 Q462 456 474.5 475 Q487 494 487 515 Q487 539 464 554 Q441 569 402 569 Q376 569 351 561 Q326 553 307 539 Q288 525 276.5 506.5 Q265 488 265 467 Z " />
<glyph glyph-name="nine" unicode="9" horiz-adv-x="657" d="M391 699 Q454 699 500 681.5 Q546 664 576.5 632 Q607 600 621.5 555 Q636 510 636 455 Q636 364 606.5 279.5 Q577 195 524.5 130 Q472 65 399 26.5 Q326 -12 239 -12 Q170 -12 121 9.5 Q72 31 35 65 L124 176 Q150 150 179 137 Q208 124 246 124 Q280 124 310 137 Q340 150 365.5 173 Q391 196 411 227 Q431 258 446 293 Q411 268 368 254.5 Q325 241 283 241 Q240 241 203 253.5 Q166 266 139.5 289 Q113 312 98 345 Q83 378 83 420 Q83 480 108 531 Q133 582 175 619.5 Q217 657 273 678 Q329 699 391 699 Z M243 436 Q243 402 269 384.5 Q295 367 335 367 Q380 367 419 391 Q458 415 482 453 L482 470 Q482 518 461.5 542.5 Q441 567 393 567 Q363 567 336 556 Q309 545 288.5 527 Q268 509 255.5 485.5 Q243 462 243 436 Z " />
<glyph glyph-name="colon" unicode="&#x3a;" horiz-adv-x="337" d="M198 343 Q158 343 134.5 368 Q111 393 111 430 Q111 452 120 471 Q129 490 144 503.5 Q159 517 178 525 Q197 533 217 533 Q254 533 277 508 Q300 483 300 448 Q300 427 291.5 407.5 Q283 388 268.5 374 Q254 360 236 351.5 Q218 343 198 343 Z M37 74 Q37 97 46 116 Q55 135 70 148.5 Q85 162 104 170 Q123 178 143 178 Q180 178 203 153.5 Q226 129 226 94 Q226 72 217.5 53 Q209 34 194.5 19.5 Q180 5 161.5 -3.5 Q143 -12 123 -12 Q85 -12 61 13 Q37 38 37 74 Z " />
<glyph glyph-name="semicolon" unicode="&#x3b;" horiz-adv-x="330" d="M18 -102 Q47 -81 69.5 -56 Q92 -31 107 -6 Q75 -6 53.5 15.5 Q32 37 32 72 Q32 94 41 113 Q50 132 64 146.5 Q78 161 97 169.5 Q116 178 135 178 Q175 178 197 150 Q219 122 219 77 Q219 44 207.5 13 Q196 -18 175.5 -46.5 Q155 -75 128.5 -101.5 Q102 -128 72 -152 L18 -102 Z M120 489 Q120 512 129 531 Q138 550 152.5 563.5 Q167 577 186 585 Q205 593 226 593 Q263 593 286 568.5 Q309 544 309 509 Q309 487 300.5 468 Q292 449 277.5 434.5 Q263 420 244.5 411.5 Q226 403 206 403 Q167 403 143.5 428 Q120 453 120 489 Z " />
<glyph glyph-name="less" unicode="&#x3c;" horiz-adv-x="605" d="M66 283 L90 404 L600 606 L576 482 L199 343 L517 206 L492 81 L66 283 Z " />
<glyph glyph-name="equal" unicode="&#x3d;" horiz-adv-x="695" d="M158 514 L644 514 L618 390 L132 390 L158 514 Z M110 285 L596 285 L570 161 L84 161 L110 285 Z " />
<glyph glyph-name="greater" unicode="&#x3e;" horiz-adv-x="605" d="M65 206 L442 343 L124 482 L148 606 L574 404 L550 283 L40 81 L65 206 Z " />
<glyph glyph-name="question" unicode="&#x3f;" horiz-adv-x="553" d="M219 403 Q250 404 282 412 Q314 420 339.5 433.5 Q365 447 381.5 465 Q398 483 398 504 Q398 530 378 545 Q358 560 323 560 Q285 560 248 542 Q211 524 184 498 L108 596 Q161 644 224.5 671.5 Q288 699 358 699 Q404 699 441 686.5 Q478 674 503.5 652 Q529 630 542.5 599.5 Q556 569 556 532 Q556 489 539 452 Q522 415 492.5 385.5 Q463 356 425 335 Q387 314 345 305 L331 240 L186 240 L219 403 Z M140 74 Q140 97 149 116 Q158 135 172.5 148.5 Q187 162 206 170 Q225 178 246 178 Q283 178 306 153.5 Q329 129 329 94 Q329 72 320.5 53 Q312 34 297.5 19.5 Q283 5 264.5 -3.5 Q246 -12 226 -12 Q187 -12 163.5 13 Q140 38 140 74 Z " />
<glyph glyph-name="at" unicode="&#x40;" horiz-adv-x="922" d="M371 -116 Q304 -116 247 -93.5 Q190 -71 148.5 -31 Q107 9 83.5 63.5 Q60 118 60 182 Q60 288 99 378.5 Q138 469 207 535 Q276 601 370 638.5 Q464 676 574 676 Q640 676 697 654.5 Q754 633 795 595.5 Q836 558 859.5 506.5 Q883 455 883 395 Q883 335 862 277.5 Q841 220 805 174.5 Q769 129 720.5 101 Q672 73 617 73 Q565 73 539.5 95 Q514 117 509 152 Q474 117 432.5 96 Q391 75 347 75 Q282 75 246.5 111 Q211 147 211 209 Q211 263 235.5 316.5 Q260 370 299.5 412 Q339 454 389.5 480 Q440 506 491 506 Q539 506 567.5 485.5 Q596 465 608 436 L631 493 L755 483 Q705 359 675 287.5 Q645 216 645 190 Q645 150 688 150 Q722 150 750 173.5 Q778 197 798 232.5 Q818 268 829 310.5 Q840 353 840 391 Q840 443 819 488 Q798 533 761 566 Q724 599 673.5 617.5 Q623 636 563 636 Q464 636 380 602 Q296 568 234 508 Q172 448 137 366 Q102 284 102 188 Q102 131 123.5 82.5 Q145 34 182.5 -1.5 Q220 -37 271 -57 Q322 -77 382 -77 Q494 -77 608 -16 L623 -47 Q559 -81 495.5 -98.5 Q432 -116 371 -116 Z M347 244 Q347 214 364.5 197 Q382 180 413 180 Q442 180 469 195 Q496 210 516 234 Q536 258 548 286.5 Q560 315 560 342 Q560 369 544.5 385 Q529 401 498 401 Q469 401 441.5 387 Q414 373 393 350.5 Q372 328 359.5 300 Q347 272 347 244 Z " />
<glyph glyph-name="A" unicode="A" horiz-adv-x="786" d="M705 0 L534 0 L512 113 L221 113 L152 0 L-26 0 L394 687 L571 687 L705 0 Z M488 233 L441 474 L294 233 L488 233 Z " />
<glyph glyph-name="B" unicode="B" horiz-adv-x="721" d="M177 687 L524 687 Q565 687 598.5 676 Q632 665 656 645 Q680 625 693 598 Q706 571 706 538 Q706 480 671 432.5 Q636 385 576 357 Q618 336 643 297.5 Q668 259 668 213 Q668 165 646.5 125.5 Q625 86 589 58 Q553 30 505.5 15 Q458 0 405 0 L34 0 L177 687 Z M394 132 Q420 132 442 140 Q464 148 480.5 162 Q497 176 506.5 195 Q516 214 516 236 Q516 262 495.5 276 Q475 290 437 290 L250 290 L217 132 L394 132 Z M429 412 Q477 412 509.5 439 Q542 466 542 506 Q542 555 469 555 L305 555 L275 412 L429 412 Z " />
<glyph glyph-name="C" unicode="C" horiz-adv-x="680" d="M344 -12 Q282 -12 226.5 11.5 Q171 35 129.5 76 Q88 117 63.5 172.5 Q39 228 39 292 Q39 373 74.5 446.5 Q110 520 170 576.5 Q230 633 308 666 Q386 699 471 699 Q550 699 618 665 Q686 631 726 579 L599 487 Q579 518 542 538 Q505 558 460 558 Q408 558 360.5 536 Q313 514 276.5 477.5 Q240 441 218.5 393.5 Q197 346 197 295 Q197 258 210.5 227.5 Q224 197 246 175 Q268 153 297.5 141 Q327 129 358 129 Q379 129 402.5 135 Q426 141 449 151.5 Q472 162 494 177 Q516 192 534 210 L631 100 Q603 75 568 54.5 Q533 34 495 19 Q457 4 418.5 -4 Q380 -12 344 -12 Z " />
<glyph glyph-name="D" unicode="D" horiz-adv-x="756" d="M177 687 L421 687 Q495 687 556.5 666 Q618 645 662.5 607.5 Q707 570 732 518.5 Q757 467 757 405 Q757 323 719.5 249 Q682 175 618 120 Q554 65 469 32.5 Q384 0 288 0 L34 0 L177 687 Z M328 141 Q383 141 432.5 161.5 Q482 182 519 217.5 Q556 253 577.5 299.5 Q599 346 599 398 Q599 431 586 458 Q573 485 549.5 504.5 Q526 524 494 535 Q462 546 423 546 L304 546 L219 141 L328 141 Z " />
<glyph glyph-name="E" unicode="E" horiz-adv-x="681" d="M177 687 L710 687 L681 547 L304 547 L279 420 L620 420 L591 280 L248 280 L221 140 L597 140 L567 0 L34 0 L177 687 Z " />
<glyph glyph-name="F" unicode="F" horiz-adv-x="664" d="M177 687 L710 687 L681 547 L303 547 L275 407 L617 407 L588 267 L245 267 L190 0 L34 0 L177 687 Z " />
<glyph glyph-name="G" unicode="G" horiz-adv-x="730" d="M348 -12 Q282 -12 225.5 11.5 Q169 35 127.5 75.5 Q86 116 62.5 170.5 Q39 225 39 287 Q39 371 76.5 445.5 Q114 520 175.5 576.5 Q237 633 316.5 666 Q396 699 480 699 Q559 699 626.5 666 Q694 633 735 579 L608 487 Q586 522 547.5 540 Q509 558 467 558 Q414 558 365 535.5 Q316 513 278.5 475.5 Q241 438 218.5 390 Q196 342 196 291 Q196 257 208.5 227.5 Q221 198 243 176 Q265 154 295.5 141.5 Q326 129 361 129 Q397 129 434.5 142 Q472 155 505 178 L522 264 L368 264 L394 384 L700 384 L641 100 Q578 46 500 17 Q422 -12 348 -12 Z " />
<glyph glyph-name="H" unicode="H" horiz-adv-x="790" d="M177 687 L333 687 L279 420 L581 420 L635 687 L790 687 L647 0 L493 0 L550 280 L247 280 L190 0 L34 0 L177 687 Z " />
<glyph glyph-name="I" unicode="I" horiz-adv-x="500" d="M50 141 L147 141 L232 546 L135 546 L164 687 L514 687 L485 546 L388 546 L303 141 L400 141 L371 0 L21 0 L50 141 Z " />
<glyph glyph-name="J" unicode="J" horiz-adv-x="567" d="M203 -12 Q169 -12 136 -3 Q103 6 74.5 22 Q46 38 24 60 Q2 82 -11 107 L107 196 Q116 164 142 146.5 Q168 129 199 129 Q222 129 244 138 Q266 147 283.5 162.5 Q301 178 314 199 Q327 220 332 244 L398 567 L242 567 L267 687 L579 687 L554 567 L481 218 Q470 166 444.5 123.5 Q419 81 382 51 Q345 21 299.5 4.5 Q254 -12 203 -12 Z " />
<glyph glyph-name="K" unicode="K" horiz-adv-x="729" d="M177 687 L333 687 L271 398 L592 687 L792 687 L460 388 L661 0 L481 0 L335 280 L232 190 L190 0 L34 0 L177 687 Z " />
<glyph glyph-name="L" unicode="L" horiz-adv-x="597" d="M177 687 L333 687 L221 140 L557 140 L528 0 L34 0 L177 687 Z " />
<glyph glyph-name="M" unicode="M" horiz-adv-x="999" d="M222 687 L372 687 L501 309 L788 687 L947 687 L884 0 L733 0 L775 463 L453 40 L309 464 L158 0 L-1 0 L222 687 Z " />
<glyph glyph-name="N" unicode="N" horiz-adv-x="808" d="M177 687 L331 687 L562 255 L653 687 L809 687 L666 0 L513 0 L282 432 L190 0 L34 0 L177 687 Z " />
<glyph glyph-name="O" unicode="O" horiz-adv-x="795" d="M349 -12 Q283 -12 226.5 10 Q170 32 129 72 Q88 112 65 166.5 Q42 221 42 285 Q42 371 76.5 446 Q111 521 170.5 577.5 Q230 634 310 666.5 Q390 699 480 699 Q547 699 603.5 677 Q660 655 701.5 615.5 Q743 576 766 521.5 Q789 467 789 403 Q789 318 754.5 242 Q720 166 660 110 Q600 54 520 21 Q440 -12 349 -12 Z M201 291 Q201 256 213 226 Q225 196 246.5 174.5 Q268 153 297.5 141 Q327 129 362 129 Q417 129 465.5 150 Q514 171 550.5 207.5 Q587 244 608 293 Q629 342 629 397 Q629 432 617 461.5 Q605 491 583.5 512.5 Q562 534 532.5 546 Q503 558 468 558 Q413 558 364.5 537 Q316 516 279.5 479.5 Q243 443 222 394.5 Q201 346 201 291 Z " />
<glyph glyph-name="P" unicode="P" horiz-adv-x="631" d="M177 687 L458 687 Q507 687 547.5 672.5 Q588 658 616.5 632.5 Q645 607 661 571 Q677 535 677 491 Q677 433 653 383.5 Q629 334 587 297.5 Q545 261 489 240.5 Q433 220 369 220 L236 220 L190 0 L34 0 L177 687 Z M380 362 Q407 362 432 372 Q457 382 476.5 398.5 Q496 415 507.5 436.5 Q519 458 519 480 Q519 509 494 527 Q469 545 426 545 L304 545 L265 362 L380 362 Z " />
<glyph glyph-name="Q" unicode="Q" horiz-adv-x="814" d="M342 -14 Q271 -14 211 16 Q151 46 109.5 95.5 Q68 145 50.5 210 Q33 275 48 344 Q65 424 105.5 489.5 Q146 555 204.5 601.5 Q263 648 336 674 Q409 700 489 700 Q560 700 620 670 Q680 640 721.5 590.5 Q763 541 780.5 477 Q798 413 784 344 Q769 275 734.5 215 Q700 155 650 109 L713 0 L544 0 L338 357 L507 357 L572 244 Q591 265 604.5 290 Q618 315 624 344 Q633 390 625.5 429 Q618 468 596 497 Q574 526 539.5 542.5 Q505 559 460 559 Q418 559 376.5 541.5 Q335 524 300.5 495 Q266 466 241 427 Q216 388 207 344 Q197 297 204.5 256 Q212 215 233.5 185 Q255 155 289.5 137.5 Q324 120 367 120 Q380 120 393 122.5 Q406 125 418 130 L482 13 Q413 -14 342 -14 Z " />
<glyph glyph-name="R" unicode="R" horiz-adv-x="693" d="M322 220 L236 220 L190 0 L34 0 L177 687 L458 687 Q507 687 547.5 672.5 Q588 658 616.5 632.5 Q645 607 661 571 Q677 535 677 491 Q677 447 662.5 407.5 Q648 368 622.5 335.5 Q597 303 561.5 278.5 Q526 254 483 239 L628 0 L455 0 L322 220 Z M380 362 Q407 362 432 372 Q457 382 476.5 398.5 Q496 415 507.5 436.5 Q519 458 519 480 Q519 509 494 527 Q469 545 426 545 L304 545 L265 362 L380 362 Z " />
<glyph glyph-name="S" unicode="S" horiz-adv-x="633" d="M280 -12 Q194 -12 117 20 Q40 52 -9 106 L94 204 Q135 162 188 140.5 Q241 119 292 119 Q360 119 396.5 147.5 Q433 176 433 213 Q433 224 427.5 232.5 Q422 241 408.5 248 Q395 255 372.5 261.5 Q350 268 316 277 Q266 289 225 303 Q184 317 155 336.5 Q126 356 110.5 384 Q95 412 95 454 Q95 507 116.5 551.5 Q138 596 178 629 Q218 662 273.5 680.5 Q329 699 396 699 Q468 699 535 674 Q602 649 650 601 L553 496 Q515 534 467 551 Q419 568 381 568 Q321 568 287.5 539.5 Q254 511 254 476 Q254 453 280 440 Q306 427 372 411 Q429 398 470.5 382.5 Q512 367 539 346.5 Q566 326 578.5 299 Q591 272 591 234 Q591 179 567.5 133.5 Q544 88 502 56 Q460 24 403 6 Q346 -12 280 -12 Z " />
<glyph glyph-name="T" unicode="T" horiz-adv-x="597" d="M281 547 L68 547 L97 687 L677 687 L648 547 L436 547 L322 0 L167 0 L281 547 Z " />
<glyph glyph-name="U" unicode="U" horiz-adv-x="760" d="M331 -12 Q260 -12 206 12 Q152 36 118 78 Q84 120 72 178 Q60 236 74 305 L154 687 L309 687 L228 299 Q212 221 244.5 175 Q277 129 343 129 Q379 129 412.5 143 Q446 157 473.5 181.5 Q501 206 520.5 239 Q540 272 548 311 L626 687 L781 687 L699 292 Q685 224 651 168 Q617 112 568.5 72 Q520 32 459.5 10 Q399 -12 331 -12 Z " />
<glyph glyph-name="V" unicode="V" horiz-adv-x="747" d="M97 687 L268 687 L361 213 L650 687 L828 687 L408 0 L231 0 L97 687 Z " />
<glyph glyph-name="W" unicode="W" horiz-adv-x="1065" d="M97 687 L268 687 L368 180 L478 362 L415 687 L559 687 L588 541 L677 687 L828 687 L624 354 L659 180 L968 687 L1146 687 L726 0 L549 0 L515 175 L408 0 L231 0 L97 687 Z " />
<glyph glyph-name="X" unicode="X" horiz-adv-x="720" d="M467 0 L286 349 L400 470 L469 338 L151 0 L-41 0 L286 349 L111 687 L288 687 L400 470 L604 687 L796 687 L469 338 L644 0 L467 0 Z " />
<glyph glyph-name="Y" unicode="Y" horiz-adv-x="705" d="M272 244 L95 687 L242 687 L366 378 L610 687 L788 687 L428 244 L375 0 L218 0 L272 244 Z " />
<glyph glyph-name="Z" unicode="Z" horiz-adv-x="641" d="M2 117 L447 547 L101 547 L130 687 L691 687 L668 570 L225 140 L582 140 L553 0 L-19 0 L2 117 Z " />
<glyph glyph-name="bracketleft" unicode="&#x5b;" horiz-adv-x="398" d="M178 704 L453 704 L433 604 L277 604 L142 -45 L297 -45 L277 -145 L1 -145 L178 704 Z " />
<glyph glyph-name="backslash" unicode="&#x5c;" horiz-adv-x="523" d="M112 743 L270 743 L444 -74 L285 -74 L112 743 Z " />
<glyph glyph-name="bracketright" unicode="&#x5d;" horiz-adv-x="398" d="M-26 -45 L129 -45 L265 604 L109 604 L130 704 L405 704 L229 -145 L-47 -145 L-26 -45 Z " />
<glyph glyph-name="asciicircum" unicode="&#x5e;" horiz-adv-x="513" d="M293 687 L399 687 L490 413 L386 413 L331 593 L198 413 L87 413 L293 687 Z " />
<glyph glyph-name="underscore" unicode="&#x5f;" horiz-adv-x="737" d="M4 -66 L600 -66 L581 -153 L-15 -153 L4 -66 Z " />
<glyph glyph-name="grave" unicode="&#x60;" horiz-adv-x="301" d="M120 707 L259 732 L341 575 L242 575 L120 707 Z " />
<glyph glyph-name="a" unicode="a" horiz-adv-x="583" d="M330 42 Q298 15 258 1.5 Q218 -12 180 -12 Q142 -12 110 -2 Q78 8 55.5 27 Q33 46 20.5 72 Q8 98 8 130 Q8 175 28.5 211 Q49 247 83 272.5 Q117 298 161 311.5 Q205 325 251 325 Q286 325 319 317 Q352 309 382 295 Q387 316 388.5 326 Q390 336 390 341 Q390 371 368.5 388.5 Q347 406 299 406 Q260 406 223.5 394.5 Q187 383 155 368 L116 474 Q238 529 341 529 Q432 529 485.5 482 Q539 435 539 355 Q539 342 537 326.5 Q535 311 528 276 Q521 241 507 176.5 Q493 112 470 0 L321 0 L330 42 Z M155 135 Q155 115 172 104 Q189 93 217 93 Q240 93 261.5 98.5 Q283 104 302 114.5 Q321 125 334.5 139 Q348 153 354 169 L355 166 Q358 179 360.5 190 Q363 201 365 212 Q344 220 320.5 223 Q297 226 272 226 Q250 226 228.5 218.5 Q207 211 191 198 Q175 185 165 169 Q155 153 155 135 Z " />
<glyph glyph-name="b" unicode="b" horiz-adv-x="675" d="M162 699 L316 699 L265 452 Q301 488 346.5 508.5 Q392 529 444 529 Q488 529 524 513.5 Q560 498 586 470 Q612 442 626.5 403.5 Q641 365 641 320 Q641 254 618.5 194 Q596 134 556.5 88.5 Q517 43 463.5 15.5 Q410 -12 348 -12 Q294 -12 252.5 13 Q211 38 188 82 L171 0 L17 0 L162 699 Z M219 212 Q219 170 246.5 143.5 Q274 117 318 117 Q353 117 384.5 132.5 Q416 148 440 173.5 Q464 199 478 233 Q492 267 492 303 Q492 345 465 372.5 Q438 400 394 400 Q358 400 326 384.5 Q294 369 270.5 342.5 Q247 316 233 282 Q219 248 219 212 Z " />
<glyph glyph-name="c" unicode="c" horiz-adv-x="528" d="M256 -12 Q205 -12 162 6 Q119 24 87 55 Q55 86 37 127.5 Q19 169 19 217 Q19 281 47.5 338 Q76 395 123 437.5 Q170 480 230 504.5 Q290 529 354 529 Q419 529 468 502.5 Q517 476 546 435 L433 358 Q419 378 393.5 389 Q368 400 343 400 Q308 400 276 384.5 Q244 369 219.5 344 Q195 319 180.5 287 Q166 255 166 221 Q166 177 195 147 Q224 117 268 117 Q300 117 333 132 Q366 147 389 170 L480 76 Q383 -12 256 -12 Z " />
<glyph glyph-name="d" unicode="d" horiz-adv-x="676" d="M410 65 Q374 29 328.5 8.5 Q283 -12 231 -12 Q188 -12 151.5 4 Q115 20 89.5 48 Q64 76 49.5 114.5 Q35 153 35 198 Q35 263 57.5 323 Q80 383 119 428.5 Q158 474 211.5 501.5 Q265 529 327 529 Q381 529 422.5 504 Q464 479 487 435 L542 699 L696 699 L551 0 L397 0 L410 65 Z M183 214 Q183 172 210.5 144.5 Q238 117 283 117 Q312 117 339 128 Q366 139 387.5 157.5 Q409 176 425.5 201 Q442 226 450 254 L456 282 Q456 288 456.5 293.5 Q457 299 457 305 Q457 347 429 373.5 Q401 400 358 400 Q322 400 290.5 385 Q259 370 235 344.5 Q211 319 197 285 Q183 251 183 214 Z " />
<glyph glyph-name="e" unicode="e" horiz-adv-x="545" d="M253 -12 Q201 -12 158.5 4 Q116 20 86 49 Q56 78 39.5 118.5 Q23 159 23 208 Q23 274 48.5 332 Q74 390 117.5 434 Q161 478 219 503.5 Q277 529 342 529 Q384 529 420 519 Q456 509 482.5 490 Q509 471 524 445 Q539 419 539 387 Q539 306 472.5 261 Q406 216 286 219 L156 219 L156 212 Q156 163 182 134.5 Q208 106 255 106 Q294 106 333 121.5 Q372 137 401 160 L476 64 Q455 46 428 32 Q401 18 371 8 Q341 -2 310.5 -7 Q280 -12 253 -12 Z M305 308 Q355 308 382.5 323.5 Q410 339 411 367 Q411 387 390 399 Q369 411 337 411 Q286 411 245 381.5 Q204 352 181 308 L305 308 Z " />
<glyph glyph-name="f" unicode="f" horiz-adv-x="372" d="M159 566 Q167 601 183.5 629.5 Q200 658 224 678 Q248 698 277 709 Q306 720 337 720 Q375 720 406.5 705 Q438 690 458 670 L412 585 Q404 593 394 595.5 Q384 598 376 598 Q344 598 324.5 577.5 Q305 557 300 534 L296 517 L407 517 L381 393 L271 393 L189 0 L41 0 L123 393 L53 393 L79 517 L149 517 L159 566 Z " />
<glyph glyph-name="g" unicode="g" horiz-adv-x="623" d="M224 -179 Q168 -179 124 -167 Q80 -155 50.5 -133 Q21 -111 8.5 -80 Q-4 -49 4 -12 Q8 9 23 28.5 Q38 48 61.5 64 Q85 80 116 92 Q147 104 182 110 L246 88 Q200 78 168 52.5 Q136 27 129 -5 Q123 -35 156 -54 Q189 -73 249 -73 Q305 -73 342 -55.5 Q379 -38 385 -10 Q391 21 306 35 Q274 40 261.5 42 Q249 44 240 45.5 Q231 47 217.5 49.5 Q204 52 171 58 Q106 69 72 101 Q38 133 47 175 Q52 201 74.5 226.5 Q97 252 126 266 L201 220 Q190 214 182 206.5 Q174 199 172 193 Q170 179 189 171 Q208 163 259 155 Q274 153 285 151 Q296 149 309.5 147 Q323 145 340.5 142 Q358 139 385 134 Q463 121 498 84.5 Q533 48 521 -9 Q504 -90 427 -134.5 Q350 -179 224 -179 Z M288 189 Q237 189 197.5 201.5 Q158 214 132 236.5 Q106 259 95.5 290.5 Q85 322 93 359 Q101 397 124.5 428 Q148 459 183.5 481.5 Q219 504 263.5 516.5 Q308 529 359 529 Q410 529 449.5 516.5 Q489 504 515 481.5 Q541 459 551.5 428 Q562 397 554 359 Q547 322 523.5 290.5 Q500 259 464.5 236.5 Q429 214 384 201.5 Q339 189 288 189 Z M315 281 Q355 284 382.5 308.5 Q410 333 415 368 Q420 403 397 422.5 Q374 442 333 437 Q292 434 264 409.5 Q236 385 232 350 Q228 315 251 295.5 Q274 276 315 281 Z M509 409 L431 520 Q452 516 471 515 Q490 514 507 514 Q519 514 536 514.5 Q553 515 572 515.5 Q591 516 608 516.5 Q625 517 637 517 L614 406 L509 409 Z " />
<glyph glyph-name="h" unicode="h" horiz-adv-x="628" d="M162 699 L316 699 L267 464 Q296 495 337 512 Q378 529 423 529 Q461 529 491 517.5 Q521 506 542 485 Q563 464 574.5 435 Q586 406 586 371 Q586 357 584 340.5 Q582 324 574.5 286.5 Q567 249 552.5 182 Q538 115 514 0 L366 0 Q389 111 402.5 173.5 Q416 236 422.5 268.5 Q429 301 430.5 312.5 Q432 324 432 332 Q432 364 414.5 382 Q397 400 365 400 Q343 400 322.5 392.5 Q302 385 284.5 372.5 Q267 360 254 343.5 Q241 327 235 309 L171 0 L17 0 L162 699 Z " />
<glyph glyph-name="i" unicode="i" horiz-adv-x="296" d="M125 517 L279 517 L171 0 L17 0 L125 517 Z M151 661 Q151 679 158.5 695.5 Q166 712 178.5 724.5 Q191 737 207.5 744 Q224 751 241 751 Q274 751 294.5 729 Q315 707 315 675 Q315 657 307.5 641 Q300 625 288 613 Q276 601 260 593.5 Q244 586 227 586 Q193 586 172 608 Q151 630 151 661 Z " />
<glyph glyph-name="j" unicode="j" horiz-adv-x="286" d="M-25 -178 Q-57 -178 -85.5 -171 Q-114 -164 -132 -154 L-102 -46 Q-93 -50 -79.5 -51 Q-66 -52 -56 -52 Q-31 -52 -10.5 -33 Q10 -14 15 11 L120 517 L274 517 L163 -18 Q148 -91 96 -134.5 Q44 -178 -25 -178 Z M146 661 Q146 679 153.5 695.5 Q161 712 173.5 724.5 Q186 737 202.5 744 Q219 751 236 751 Q269 751 289.5 729 Q310 707 310 675 Q310 657 302.5 641 Q295 625 283 613 Q271 601 255 593.5 Q239 586 222 586 Q188 586 167 608 Q146 630 146 661 Z " />
<glyph glyph-name="k" unicode="k" horiz-adv-x="592" d="M159 699 L313 699 L232 307 L454 517 L633 517 L386 289 L520 0 L349 0 L267 190 L194 126 L168 0 L14 0 L159 699 Z " />
<glyph glyph-name="l" unicode="l" horiz-adv-x="315" d="M181 -12 Q145 -12 117.5 0.5 Q90 13 72.5 35 Q55 57 49 87.5 Q43 118 51 155 L164 699 L318 699 L208 171 Q203 145 213.5 129.5 Q224 114 244 114 L181 -12 Z " />
<glyph glyph-name="m" unicode="m" horiz-adv-x="948" d="M125 517 L279 517 L267 459 Q292 493 329 511.5 Q366 530 411 530 Q474 530 517 495.5 Q560 461 571 404 Q590 463 636.5 496.5 Q683 530 743 530 Q779 530 809 518 Q839 506 860.5 484.5 Q882 463 894 433.5 Q906 404 906 369 Q906 358 904 343.5 Q902 329 894.5 292.5 Q887 256 873 188 Q859 120 834 0 L686 0 Q706 98 719.5 161 Q733 224 740.5 260.5 Q748 297 750.5 313.5 Q753 330 753 335 Q752 362 739 381.5 Q726 401 690 401 Q668 401 647 393 Q626 385 609.5 372 Q593 359 581.5 341.5 Q570 324 566 304 L566 309 Q563 292 557.5 267 Q552 242 544.5 205 Q537 168 526.5 117.5 Q516 67 502 0 L354 0 Q374 98 387.5 161 Q401 224 408.5 260.5 Q416 297 418.5 313.5 Q421 330 421 335 Q420 362 407 381.5 Q394 401 358 401 Q316 401 282 375.5 Q248 350 237 315 L171 0 L17 0 L125 517 Z " />
<glyph glyph-name="n" unicode="n" horiz-adv-x="629" d="M125 517 L279 517 L268 465 Q297 495 337.5 512 Q378 529 423 529 Q461 529 491 517.5 Q521 506 542 485 Q563 464 574.5 435 Q586 406 586 371 Q586 357 584 340.5 Q582 324 574.5 286.5 Q567 249 552.5 182 Q538 115 514 0 L366 0 Q389 111 402.5 173.5 Q416 236 422.5 268.5 Q429 301 430.5 312.5 Q432 324 432 332 Q432 364 414.5 382 Q397 400 365 400 Q322 400 286 374 Q250 348 236 313 L171 0 L17 0 L125 517 Z " />
<glyph glyph-name="o" unicode="o" horiz-adv-x="643" d="M273 -12 Q221 -12 177 5 Q133 22 101 53 Q69 84 51 126 Q33 168 33 217 Q33 281 59.5 338 Q86 395 132 437.5 Q178 480 239 504.5 Q300 529 369 529 Q421 529 465 512 Q509 495 541 464 Q573 433 591 391.5 Q609 350 609 300 Q609 236 582.5 179.5 Q556 123 510 80.5 Q464 38 403 13 Q342 -12 273 -12 Z M181 221 Q181 176 210 146.5 Q239 117 283 117 Q320 117 352.5 131 Q385 145 409.5 169.5 Q434 194 448 226.5 Q462 259 462 296 Q462 341 432.5 370.5 Q403 400 359 400 Q322 400 289.5 386 Q257 372 233 347.5 Q209 323 195 290.5 Q181 258 181 221 Z " />
<glyph glyph-name="p" unicode="p" horiz-adv-x="676" d="M125 517 L278 517 L264 452 Q301 487 346.5 508 Q392 529 444 529 Q488 529 524 513.5 Q560 498 586 470 Q612 442 626.5 403.5 Q641 365 641 320 Q641 254 618.5 194 Q596 134 556.5 88.5 Q517 43 463.5 15.5 Q410 -12 348 -12 Q294 -12 252.5 13 Q211 38 188 82 L135 -172 L-18 -172 L125 517 Z M219 212 Q219 170 246.5 143.5 Q274 117 318 117 Q353 117 384.5 132.5 Q416 148 440 173.5 Q464 199 478 233 Q492 267 492 303 Q492 345 465 372.5 Q438 400 394 400 Q358 400 326 384.5 Q294 369 270.5 342.5 Q247 316 233 282 Q219 248 219 212 Z " />
<glyph glyph-name="q" unicode="q" horiz-adv-x="675" d="M410 65 Q374 29 328.5 8.5 Q283 -12 231 -12 Q188 -12 151.5 4 Q115 20 89.5 48 Q64 76 49.5 114.5 Q35 153 35 198 Q35 263 57.5 323 Q80 383 119 428.5 Q158 474 211.5 501.5 Q265 529 327 529 Q381 529 422.5 504 Q464 479 487 435 L504 517 L657 517 L514 -172 L361 -172 L410 65 Z M183 214 Q183 172 210.5 144.5 Q238 117 283 117 Q312 117 338.5 127.5 Q365 138 386.5 156 Q408 174 424 198.5 Q440 223 449 251 L456 285 Q457 290 457 295 Q457 300 457 305 Q457 347 429 373.5 Q401 400 358 400 Q322 400 290.5 385 Q259 370 235 344.5 Q211 319 197 285 Q183 251 183 214 Z " />
<glyph glyph-name="r" unicode="r" horiz-adv-x="425" d="M125 517 L279 517 L260 428 Q295 476 344 502.5 Q393 529 451 529 L434 400 Q395 400 361 388.5 Q327 377 299 357 Q271 337 251 308.5 Q231 280 222 245 L171 0 L17 0 L125 517 Z " />
<glyph glyph-name="s" unicode="s" horiz-adv-x="500" d="M210 -12 Q144 -12 85 10 Q26 32 -16 70 L58 159 Q90 131 134.5 115.5 Q179 100 217 100 Q258 100 284 117.5 Q310 135 310 160 Q310 171 296 180.5 Q282 190 234 203 Q197 212 165.5 222.5 Q134 233 112 248 Q90 263 77.5 285 Q65 307 65 339 Q65 381 83 416 Q101 451 132 476 Q163 501 205.5 515 Q248 529 296 529 Q354 529 404.5 509.5 Q455 490 495 461 L427 370 Q398 391 362 405 Q326 419 295 419 Q257 419 231 401 Q205 383 205 360 Q205 349 220.5 340.5 Q236 332 282 318 Q318 309 348.5 298.5 Q379 288 401.5 272 Q424 256 437 233.5 Q450 211 450 177 Q450 135 431 100 Q412 65 379.5 40 Q347 15 303.5 1.5 Q260 -12 210 -12 Z " />
<glyph glyph-name="t" unicode="t" horiz-adv-x="386" d="M194 -12 Q133 -12 96.5 24.5 Q60 61 60 119 Q60 128 61.5 140.5 Q63 153 68.5 180.5 Q74 208 84.5 258 Q95 308 113 393 L42 393 L68 517 L139 517 L169 659 L316 659 L286 517 L397 517 L371 393 L260 393 Q235 272 223.5 215 Q212 158 212 150 Q212 117 242 117 Q259 117 275.5 124 Q292 131 300 139 L320 30 Q294 10 261 -1 Q228 -12 194 -12 Z " />
<glyph glyph-name="u" unicode="u" horiz-adv-x="629" d="M504 0 L350 0 L361 52 Q332 22 291.5 5 Q251 -12 206 -12 Q169 -12 138.5 0 Q108 12 87 33 Q66 54 54.5 83 Q43 112 43 146 Q43 160 45.5 176.5 Q48 193 55.5 230.5 Q63 268 77 335 Q91 402 115 517 L263 517 Q240 406 226.5 343.5 Q213 281 206.5 248.5 Q200 216 198.5 204.5 Q197 193 197 185 Q197 153 214.5 135 Q232 117 264 117 Q307 117 343 143 Q379 169 393 204 L458 517 L612 517 L504 0 Z " />
<glyph glyph-name="v" unicode="v" horiz-adv-x="613" d="M67 517 L223 517 L287 177 L491 517 L654 517 L326 0 L183 0 L67 517 Z " />
<glyph glyph-name="w" unicode="w" horiz-adv-x="842" d="M69 517 L216 517 L245 206 L409 517 L536 517 L568 206 L727 517 L880 517 L597 0 L459 0 L434 315 L275 0 L138 0 L69 517 Z " />
<glyph glyph-name="x" unicode="x" horiz-adv-x="568" d="M264 150 L125 0 L-42 0 L205 267 L78 517 L240 517 L309 379 L437 517 L603 517 L368 263 L501 0 L340 0 L264 150 Z " />
<glyph glyph-name="y" unicode="y" horiz-adv-x="590" d="M96 -180 Q61 -180 25.5 -169.5 Q-10 -159 -35 -143 L9 -45 Q26 -56 42 -61 Q58 -66 72 -66 Q92 -66 112 -57 Q132 -48 141 -34 L168 -5 L64 517 L219 517 L275 161 L474 517 L634 517 L312 -28 Q265 -106 210.5 -143 Q156 -180 96 -180 Z " />
<glyph glyph-name="z" unicode="z" horiz-adv-x="534" d="M5 108 L318 387 L72 387 L99 517 L547 517 L525 409 L213 130 L468 130 L441 0 L-15 0 L5 108 Z " />
<glyph glyph-name="braceleft" unicode="&#x7b;" horiz-adv-x="414" d="M280 -166 Q171 -158 122 -123 Q73 -88 73 -24 Q73 -5 78.5 22 Q84 49 90 77 Q96 105 101.5 130.5 Q107 156 107 171 Q107 199 89.5 209.5 Q72 220 30 220 L39 312 Q91 312 120 335.5 Q149 359 159 404 L182 521 Q191 564 209.5 595 Q228 626 259.5 647 Q291 668 337 680.5 Q383 693 448 698 L452 603 Q411 598 383.5 590 Q356 582 338.5 570 Q321 558 311.5 540.5 Q302 523 296 497 L272 372 Q262 327 239 301.5 Q216 276 171 262 Q197 252 212.5 231 Q228 210 228 178 Q228 161 222.5 134.5 Q217 108 210.5 80.5 Q204 53 198.5 27.5 Q193 2 193 -13 Q193 -43 217 -54 Q241 -65 302 -74 L280 -166 Z " />
<glyph glyph-name="bar" unicode="&#x7c;" horiz-adv-x="317" d="M207 743 L313 743 L143 -74 L37 -74 L207 743 Z " />
<glyph glyph-name="braceright" unicode="&#x7d;" horiz-adv-x="414" d="M-36 -72 Q5 -67 32 -59.5 Q59 -52 77 -39.5 Q95 -27 105 -9 Q115 9 120 35 L145 159 Q155 204 177.5 229.5 Q200 255 246 270 Q220 279 204.5 300.5 Q189 322 189 354 Q189 369 194.5 396 Q200 423 206.5 452 Q213 481 218.5 507 Q224 533 224 545 Q224 574 200.5 585 Q177 596 115 605 L136 697 Q245 689 294.5 654 Q344 619 344 555 Q344 537 338.5 509.5 Q333 482 326.5 453.5 Q320 425 314.5 399.5 Q309 374 309 360 Q309 333 327 322.5 Q345 312 387 312 L378 220 Q278 220 258 128 L235 10 Q226 -33 208 -64 Q190 -95 158.5 -116 Q127 -137 80.5 -149 Q34 -161 -32 -166 L-36 -72 Z " />
<glyph glyph-name="asciitilde" unicode="&#x7e;" horiz-adv-x="533" d="M352 293 Q329 293 310.5 301 Q292 309 277.5 318 Q263 327 251.5 335 Q240 343 230 343 Q210 343 194.5 328 Q179 313 168 286 L96 309 Q117 375 147.5 406 Q178 437 225 437 Q248 437 266 429 Q284 421 298.5 412 Q313 403 325 395 Q337 387 347 387 Q367 387 382.5 402.5 Q398 418 408 444 L481 421 Q460 354 429 323.5 Q398 293 352 293 Z " />
<glyph glyph-name="exclamdown" unicode="&#xa1;" horiz-adv-x="337" d="M168 -170 L-6 -170 L120 270 L224 270 L168 -170 Z M108 423 Q108 445 116.5 464 Q125 483 139.5 497.5 Q154 512 172.5 520.5 Q191 529 211 529 Q250 529 273.5 504 Q297 479 297 443 Q297 421 288 401.5 Q279 382 264.5 368.5 Q250 355 231 347 Q212 339 191 339 Q154 339 131 363.5 Q108 388 108 423 Z " />
<glyph glyph-name="cent" unicode="&#xa2;" horiz-adv-x="623" d="M266 -8 Q224 -1 188.5 19 Q153 39 127.5 69 Q102 99 87.5 137 Q73 175 73 217 Q73 277 98.5 331 Q124 385 166 426.5 Q208 468 263 494.5 Q318 521 377 527 L390 589 L459 589 L446 526 Q497 518 536 494 Q575 470 600 435 L487 358 Q476 374 457.5 384 Q439 394 419 398 L362 123 Q408 135 443 170 L534 76 Q447 -4 334 -11 L321 -74 L252 -74 L266 -8 Z M220 221 Q220 185 240.5 158 Q261 131 293 121 L349 392 Q322 383 298.5 366 Q275 349 257.5 326 Q240 303 230 276 Q220 249 220 221 Z " />
<glyph glyph-name="sterling" unicode="&#xa3;" horiz-adv-x="711" d="M26 63 L126 120 L154 254 L85 254 L102 334 L171 334 L200 469 Q211 521 236.5 563.5 Q262 606 298.5 636 Q335 666 380.5 682.5 Q426 699 476 699 Q513 699 547 690 Q581 681 609.5 665 Q638 649 659 627 Q680 605 692 580 L575 491 Q567 523 542 540.5 Q517 558 485 558 Q461 558 438.5 549 Q416 540 398 524.5 Q380 509 367.5 488 Q355 467 350 443 L328 334 L486 334 L469 254 L311 254 L284 120 L621 120 L596 0 L15 0 L26 63 Z " />
<glyph glyph-name="yen" unicode="&#xa5;" horiz-adv-x="847" d="M261 179 L408 179 L421 241 L274 241 L291 321 L391 321 L245 687 L392 687 L516 378 L760 687 L938 687 L641 321 L787 321 L770 241 L577 241 L564 179 L757 179 L741 98 L546 98 L525 0 L368 0 L390 98 L245 98 L261 179 Z " />
<glyph glyph-name="dieresis" unicode="&#xa8;" horiz-adv-x="472" d="M207 582 Q175 582 157 602 Q139 622 139 650 Q139 684 162.5 706 Q186 728 217 728 Q246 728 265 708 Q284 688 284 660 Q284 627 260 604.5 Q236 582 207 582 Z M353 651 Q353 684 377 706 Q401 728 431 728 Q461 728 479.5 708 Q498 688 498 660 Q498 627 474 604.5 Q450 582 421 582 Q390 582 371.5 602 Q353 622 353 651 Z " />
<glyph glyph-name="copyright" unicode="&#xa9;" horiz-adv-x="922" d="M384 -116 Q299 -116 233 -86 Q167 -56 124.5 -3 Q82 50 67 122.5 Q52 195 69 280 Q86 365 131 437 Q176 509 240 562 Q304 615 383.5 645 Q463 675 548 675 Q633 675 699 645 Q765 615 807 562 Q849 509 864.5 437 Q880 365 862 280 Q845 195 800 122.5 Q755 50 691 -3 Q627 -56 548 -86 Q469 -116 384 -116 Z M110 280 Q95 204 108.5 139 Q122 74 160 26.5 Q198 -21 257 -48 Q316 -75 392 -75 Q469 -75 539.5 -48 Q610 -21 667 26.5 Q724 74 764.5 139 Q805 204 820 280 Q836 356 822.5 420.5 Q809 485 771 532.5 Q733 580 674 607 Q615 634 539 634 Q463 634 392 607 Q321 580 263.5 532.5 Q206 485 165.5 420.5 Q125 356 110 280 Z M188 238 Q188 302 216.5 359 Q245 416 291.5 458.5 Q338 501 398.5 525.5 Q459 550 523 550 Q587 550 636 523.5 Q685 497 715 456 L602 379 Q588 399 562.5 410 Q537 421 512 421 Q477 421 445 405.5 Q413 390 388.5 365 Q364 340 349.5 308 Q335 276 335 242 Q335 198 364 168 Q393 138 437 138 Q469 138 501.5 153 Q534 168 558 191 L648 97 Q552 9 425 9 Q374 9 331 27 Q288 45 256 76 Q224 107 206 148.5 Q188 190 188 238 Z " />
<glyph glyph-name="guillemotleft" unicode="&#xab;" horiz-adv-x="588" d="M24 254 L229 457 L347 432 L167 255 L270 76 L148 49 L24 254 Z M467 457 L585 432 L405 255 L508 76 L386 49 L262 254 L467 457 Z " />
<glyph glyph-name="registered" unicode="&#xae;" horiz-adv-x="632" d="M301 184 Q256 184 219 199 Q182 214 155.5 240.5 Q129 267 114.5 303 Q100 339 100 381 Q100 438 125.5 491.5 Q151 545 193.5 585.5 Q236 626 290.5 650.5 Q345 675 403 675 Q447 675 484 660 Q521 645 547.5 619 Q574 593 588.5 557 Q603 521 603 479 Q603 422 577.5 369 Q552 316 509.5 274.5 Q467 233 412.5 208.5 Q358 184 301 184 Z M141 388 Q141 353 153.5 323 Q166 293 188 271 Q210 249 241.5 236.5 Q273 224 310 224 Q359 224 404.5 245 Q450 266 485.5 300.5 Q521 335 542 379.5 Q563 424 563 472 Q563 507 551 536.5 Q539 566 516.5 588 Q494 610 463.5 622.5 Q433 635 395 635 Q347 635 301 614.5 Q255 594 219.5 560 Q184 526 162.5 481 Q141 436 141 388 Z M252 580 L395 580 Q440 580 467 557 Q494 534 494 497 Q494 456 469.5 425.5 Q445 395 407 381 L457 280 L357 280 L312 371 L298 371 L279 280 L190 280 L252 580 Z M366 453 Q380 453 390.5 460.5 Q401 468 401 480 Q401 488 394 493 Q387 498 375 498 L324 498 L315 453 L366 453 Z " />
<glyph glyph-name="macron" unicode="&#xaf;" horiz-adv-x="492" d="M156 669 L506 669 L487 580 L138 580 L156 669 Z " />
<glyph glyph-name="acute" unicode="&#xb4;" horiz-adv-x="311" d="M240 732 L375 707 L199 575 L92 575 L240 732 Z " />
<glyph glyph-name="paragraph" unicode="&#xb6;" horiz-adv-x="747" d="M306 280 Q209 280 155 326 Q101 372 101 448 Q101 501 122 544.5 Q143 588 179 619.5 Q215 651 264 668 Q313 685 368 685 L731 685 L578 -50 L466 -50 L597 580 L476 580 L345 -50 L233 -50 L306 280 Z " />
<glyph glyph-name="periodcentered" unicode="&#xb7;" horiz-adv-x="333" d="M163 192 Q128 192 107 214 Q86 236 86 268 Q86 307 113 334.5 Q140 362 178 362 Q212 362 233.5 339.5 Q255 317 255 285 Q255 266 247.5 249.5 Q240 233 227.5 220 Q215 207 198.5 199.5 Q182 192 163 192 Z " />
<glyph glyph-name="cedilla" unicode="&#xb8;" horiz-adv-x="284" d="M45 -197 Q13 -197 -11.5 -187 Q-36 -177 -51 -165 L-20 -113 Q-9 -124 5 -128 Q19 -132 30 -132 Q57 -132 73.5 -122.5 Q90 -113 90 -96 Q90 -76 71 -76 Q52 -76 34 -89 L12 -64 L57 11 L137 11 L103 -44 Q129 -47 145 -64 Q161 -81 161 -106 Q161 -151 127 -174 Q93 -197 45 -197 Z " />
<glyph glyph-name="guillemotright" unicode="&#xbb;" horiz-adv-x="592" d="M2 76 L183 255 L79 432 L198 457 L323 254 L117 49 L2 76 Z M418 255 L314 432 L433 457 L558 254 L352 49 L237 76 L418 255 Z " />
<glyph glyph-name="questiondown" unicode="&#xbf;" horiz-adv-x="553" d="M334 114 Q303 113 271 105 Q239 97 213.5 83.5 Q188 70 171.5 52 Q155 34 155 13 Q155 -13 175 -28 Q195 -43 230 -43 Q268 -43 305 -25 Q342 -7 369 19 L445 -79 Q392 -127 328.5 -154.5 Q265 -182 195 -182 Q149 -182 112 -169.5 Q75 -157 49.5 -135 Q24 -113 10.5 -82.5 Q-3 -52 -3 -15 Q-3 28 14 65 Q31 102 60.5 131.5 Q90 161 128 182 Q166 203 208 212 L222 277 L367 277 L334 114 Z M223 423 Q223 445 231.5 464 Q240 483 254.5 497.5 Q269 512 287.5 520.5 Q306 529 326 529 Q365 529 388.5 504 Q412 479 412 443 Q412 421 403 401.5 Q394 382 379.5 368.5 Q365 355 346 347 Q327 339 306 339 Q269 339 246 363.5 Q223 388 223 423 Z " />
<glyph glyph-name="Agrave" unicode="&#xc0;" horiz-adv-x="806" d="M705 0 L534 0 L512 113 L221 113 L152 0 L-26 0 L394 687 L571 687 L705 0 Z M488 233 L441 474 L294 233 L488 233 Z M456 902 L538 745 L439 745 L317 877 L456 902 Z " />
<glyph glyph-name="Aacute" unicode="&#xc1;" horiz-adv-x="786" d="M705 0 L534 0 L512 113 L221 113 L152 0 L-26 0 L394 687 L571 687 L705 0 Z M488 233 L441 474 L294 233 L488 233 Z M587 902 L722 877 L546 745 L439 745 L587 902 Z " />
<glyph glyph-name="Acircumflex" unicode="&#xc2;" horiz-adv-x="786" d="M705 0 L534 0 L512 113 L221 113 L152 0 L-26 0 L394 687 L571 687 L705 0 Z M488 233 L441 474 L294 233 L488 233 Z M457 893 L583 893 L659 745 L568 745 L510 818 L418 745 L320 745 L457 893 Z " />
<glyph glyph-name="Atilde" unicode="&#xc3;" horiz-adv-x="806" d="M705 0 L534 0 L512 113 L221 113 L152 0 L-26 0 L394 687 L571 687 L705 0 Z M488 233 L441 474 L294 233 L488 233 Z M326 758 Q347 824 377.5 855 Q408 886 455 886 Q478 886 496 878 Q514 870 528.5 861 Q543 852 555 844 Q567 836 577 836 Q597 836 612.5 851.5 Q628 867 638 893 L711 870 Q690 803 659 772.5 Q628 742 582 742 Q559 742 540.5 750 Q522 758 507.5 767 Q493 776 481.5 784 Q470 792 460 792 Q440 792 424.5 777 Q409 762 398 735 L326 758 Z " />
<glyph glyph-name="Adieresis" unicode="&#xc4;" horiz-adv-x="786" d="M705 0 L534 0 L512 113 L221 113 L152 0 L-26 0 L394 687 L571 687 L705 0 Z M488 233 L441 474 L294 233 L488 233 Z M331 820 Q331 854 354.5 876 Q378 898 409 898 Q438 898 457 878 Q476 858 476 830 Q476 797 452 774.5 Q428 752 399 752 Q367 752 349 772 Q331 792 331 820 Z M545 821 Q545 854 569 876 Q593 898 623 898 Q653 898 671.5 878 Q690 858 690 830 Q690 797 666 774.5 Q642 752 613 752 Q582 752 563.5 772 Q545 792 545 821 Z " />
<glyph glyph-name="Aring" unicode="&#xc5;" horiz-adv-x="786" d="M705 0 L534 0 L512 113 L221 113 L152 0 L-26 0 L394 687 L571 687 L705 0 Z M488 233 L441 474 L294 233 L488 233 Z M401 841 Q401 869 413 894.5 Q425 920 445 939 Q465 958 490.5 969 Q516 980 543 980 Q585 980 610.5 954 Q636 928 636 889 Q636 861 624 835.5 Q612 810 592 791 Q572 772 547 761 Q522 750 495 750 Q453 750 427 776 Q401 802 401 841 Z M465 855 Q465 837 477 824.5 Q489 812 508 812 Q532 812 552 831 Q572 850 572 875 Q572 893 560 905 Q548 917 530 917 Q506 917 485.5 898.5 Q465 880 465 855 Z " />
<glyph glyph-name="AE" unicode="&#xc6;" horiz-adv-x="1057" d="M518 687 L1087 687 L1058 547 L681 547 L656 420 L997 420 L968 280 L625 280 L597 140 L974 140 L944 0 L411 0 L435 113 L251 113 L163 0 L-20 0 L518 687 Z M460 233 L501 431 L346 233 L460 233 Z " />
<glyph glyph-name="Ccedilla" unicode="&#xc7;" horiz-adv-x="691" d="M296 -197 Q264 -197 239.5 -187 Q215 -177 200 -165 L231 -113 Q242 -124 256 -128 Q270 -132 281 -132 Q308 -132 324.5 -122.5 Q341 -113 341 -96 Q341 -76 322 -76 Q303 -76 285 -89 L263 -64 L296 -8 Q242 0 195 26.5 Q148 53 113.5 93 Q79 133 59 184 Q39 235 39 292 Q39 373 74.5 446.5 Q110 520 170 576.5 Q230 633 308 666 Q386 699 471 699 Q550 699 618 665 Q686 631 726 579 L599 487 Q579 518 542 538 Q505 558 460 558 Q408 558 360.5 536 Q313 514 276.5 477.5 Q240 441 218.5 393.5 Q197 346 197 295 Q197 258 210.5 227.5 Q224 197 246 175 Q268 153 297.5 141 Q327 129 358 129 Q379 129 402.5 135 Q426 141 449 151.5 Q472 162 494 177 Q516 192 534 210 L631 100 Q580 55 510.5 25.5 Q441 -4 375 -11 L354 -44 Q380 -47 396 -64 Q412 -81 412 -106 Q412 -151 378 -174 Q344 -197 296 -197 Z " />
<glyph glyph-name="Egrave" unicode="&#xc8;" horiz-adv-x="681" d="M177 687 L710 687 L681 547 L304 547 L279 420 L620 420 L591 280 L248 280 L221 140 L597 140 L567 0 L34 0 L177 687 Z M426 902 L508 745 L409 745 L287 877 L426 902 Z " />
<glyph glyph-name="Eacute" unicode="&#xc9;" horiz-adv-x="681" d="M177 687 L710 687 L681 547 L304 547 L279 420 L620 420 L591 280 L248 280 L221 140 L597 140 L567 0 L34 0 L177 687 Z M548 902 L683 877 L507 745 L400 745 L548 902 Z " />
<glyph glyph-name="Ecircumflex" unicode="&#xca;" horiz-adv-x="681" d="M177 687 L710 687 L681 547 L304 547 L279 420 L620 420 L591 280 L248 280 L221 140 L597 140 L567 0 L34 0 L177 687 Z M418 893 L544 893 L620 745 L529 745 L471 818 L379 745 L281 745 L418 893 Z " />
<glyph glyph-name="Edieresis" unicode="&#xcb;" horiz-adv-x="681" d="M177 687 L710 687 L681 547 L304 547 L279 420 L620 420 L591 280 L248 280 L221 140 L597 140 L567 0 L34 0 L177 687 Z M292 820 Q292 854 315.5 876 Q339 898 370 898 Q399 898 418 878 Q437 858 437 830 Q437 797 413 774.5 Q389 752 360 752 Q328 752 310 772 Q292 792 292 820 Z M506 821 Q506 854 530 876 Q554 898 584 898 Q614 898 632.5 878 Q651 858 651 830 Q651 797 627 774.5 Q603 752 574 752 Q543 752 524.5 772 Q506 792 506 821 Z " />
<glyph glyph-name="Igrave" unicode="&#xcc;" horiz-adv-x="500" d="M50 141 L147 141 L232 546 L135 546 L164 687 L514 687 L485 546 L388 546 L303 141 L400 141 L371 0 L21 0 L50 141 Z M329 902 L411 745 L312 745 L190 877 L329 902 Z " />
<glyph glyph-name="Iacute" unicode="&#xcd;" horiz-adv-x="360" d="M50 141 L147 141 L232 546 L135 546 L164 687 L514 687 L485 546 L388 546 L303 141 L400 141 L371 0 L21 0 L50 141 Z M385 902 L520 877 L344 745 L237 745 L385 902 Z " />
<glyph glyph-name="Icircumflex" unicode="&#xce;" horiz-adv-x="500" d="M50 141 L147 141 L232 546 L135 546 L164 687 L514 687 L485 546 L388 546 L303 141 L400 141 L371 0 L21 0 L50 141 Z M320 893 L446 893 L522 745 L431 745 L373 818 L281 745 L183 745 L320 893 Z " />
<glyph glyph-name="Idieresis" unicode="&#xcf;" horiz-adv-x="500" d="M50 141 L147 141 L232 546 L135 546 L164 687 L514 687 L485 546 L388 546 L303 141 L400 141 L371 0 L21 0 L50 141 Z M195 820 Q195 854 218.5 876 Q242 898 273 898 Q302 898 321 878 Q340 858 340 830 Q340 797 316 774.5 Q292 752 263 752 Q231 752 213 772 Q195 792 195 820 Z M409 821 Q409 854 433 876 Q457 898 487 898 Q517 898 535.5 878 Q554 858 554 830 Q554 797 530 774.5 Q506 752 477 752 Q446 752 427.5 772 Q409 792 409 821 Z " />
<glyph glyph-name="Eth" unicode="&#xd0;" horiz-adv-x="821" d="M78 416 L166 416 L222 687 L466 687 Q540 687 601.5 666 Q663 645 707.5 607.5 Q752 570 777 518.5 Q802 467 802 405 Q802 323 764.5 249 Q727 175 663 120 Q599 65 514 32.5 Q429 0 333 0 L79 0 L136 276 L49 276 L78 416 Z M373 141 Q428 141 477.5 161.5 Q527 182 564 217.5 Q601 253 622.5 299.5 Q644 346 644 398 Q644 431 631 458 Q618 485 594.5 504.5 Q571 524 539 535 Q507 546 468 546 L349 546 L322 416 L460 416 L430 276 L292 276 L264 141 L373 141 Z " />
<glyph glyph-name="Ntilde" unicode="&#xd1;" horiz-adv-x="808" d="M177 687 L331 687 L562 255 L653 687 L809 687 L666 0 L513 0 L282 432 L190 0 L34 0 L177 687 Z M326 758 Q347 824 377.5 855 Q408 886 455 886 Q478 886 496 878 Q514 870 528.5 861 Q543 852 555 844 Q567 836 577 836 Q597 836 612.5 851.5 Q628 867 638 893 L711 870 Q690 803 659 772.5 Q628 742 582 742 Q559 742 540.5 750 Q522 758 507.5 767 Q493 776 481.5 784 Q470 792 460 792 Q440 792 424.5 777 Q409 762 398 735 L326 758 Z " />
<glyph glyph-name="Ograve" unicode="&#xd2;" horiz-adv-x="795" d="M349 -12 Q283 -12 226.5 10 Q170 32 129 72 Q88 112 65 166.5 Q42 221 42 285 Q42 371 76.5 446 Q111 521 170.5 577.5 Q230 634 310 666.5 Q390 699 480 699 Q547 699 603.5 677 Q660 655 701.5 615.5 Q743 576 766 521.5 Q789 467 789 403 Q789 318 754.5 242 Q720 166 660 110 Q600 54 520 21 Q440 -12 349 -12 Z M201 291 Q201 256 213 226 Q225 196 246.5 174.5 Q268 153 297.5 141 Q327 129 362 129 Q417 129 465.5 150 Q514 171 550.5 207.5 Q587 244 608 293 Q629 342 629 397 Q629 432 617 461.5 Q605 491 583.5 512.5 Q562 534 532.5 546 Q503 558 468 558 Q413 558 364.5 537 Q316 516 279.5 479.5 Q243 443 222 394.5 Q201 346 201 291 Z M470 902 L552 745 L453 745 L331 877 L470 902 Z " />
<glyph glyph-name="Oacute" unicode="&#xd3;" horiz-adv-x="795" d="M349 -12 Q283 -12 226.5 10 Q170 32 129 72 Q88 112 65 166.5 Q42 221 42 285 Q42 371 76.5 446 Q111 521 170.5 577.5 Q230 634 310 666.5 Q390 699 480 699 Q547 699 603.5 677 Q660 655 701.5 615.5 Q743 576 766 521.5 Q789 467 789 403 Q789 318 754.5 242 Q720 166 660 110 Q600 54 520 21 Q440 -12 349 -12 Z M201 291 Q201 256 213 226 Q225 196 246.5 174.5 Q268 153 297.5 141 Q327 129 362 129 Q417 129 465.5 150 Q514 171 550.5 207.5 Q587 244 608 293 Q629 342 629 397 Q629 432 617 461.5 Q605 491 583.5 512.5 Q562 534 532.5 546 Q503 558 468 558 Q413 558 364.5 537 Q316 516 279.5 479.5 Q243 443 222 394.5 Q201 346 201 291 Z M592 902 L727 877 L551 745 L444 745 L592 902 Z " />
<glyph glyph-name="Ocircumflex" unicode="&#xd4;" horiz-adv-x="795" d="M349 -12 Q283 -12 226.5 10 Q170 32 129 72 Q88 112 65 166.5 Q42 221 42 285 Q42 371 76.5 446 Q111 521 170.5 577.5 Q230 634 310 666.5 Q390 699 480 699 Q547 699 603.5 677 Q660 655 701.5 615.5 Q743 576 766 521.5 Q789 467 789 403 Q789 318 754.5 242 Q720 166 660 110 Q600 54 520 21 Q440 -12 349 -12 Z M201 291 Q201 256 213 226 Q225 196 246.5 174.5 Q268 153 297.5 141 Q327 129 362 129 Q417 129 465.5 150 Q514 171 550.5 207.5 Q587 244 608 293 Q629 342 629 397 Q629 432 617 461.5 Q605 491 583.5 512.5 Q562 534 532.5 546 Q503 558 468 558 Q413 558 364.5 537 Q316 516 279.5 479.5 Q243 443 222 394.5 Q201 346 201 291 Z M461 893 L587 893 L663 745 L572 745 L514 818 L422 745 L324 745 L461 893 Z " />
<glyph glyph-name="Otilde" unicode="&#xd5;" horiz-adv-x="795" d="M349 -12 Q283 -12 226.5 10 Q170 32 129 72 Q88 112 65 166.5 Q42 221 42 285 Q42 371 76.5 446 Q111 521 170.5 577.5 Q230 634 310 666.5 Q390 699 480 699 Q547 699 603.5 677 Q660 655 701.5 615.5 Q743 576 766 521.5 Q789 467 789 403 Q789 318 754.5 242 Q720 166 660 110 Q600 54 520 21 Q440 -12 349 -12 Z M201 291 Q201 256 213 226 Q225 196 246.5 174.5 Q268 153 297.5 141 Q327 129 362 129 Q417 129 465.5 150 Q514 171 550.5 207.5 Q587 244 608 293 Q629 342 629 397 Q629 432 617 461.5 Q605 491 583.5 512.5 Q562 534 532.5 546 Q503 558 468 558 Q413 558 364.5 537 Q316 516 279.5 479.5 Q243 443 222 394.5 Q201 346 201 291 Z M320 758 Q341 824 371.5 855 Q402 886 449 886 Q472 886 490 878 Q508 870 522.5 861 Q537 852 549 844 Q561 836 571 836 Q591 836 606.5 851.5 Q622 867 632 893 L705 870 Q684 803 653 772.5 Q622 742 576 742 Q553 742 534.5 750 Q516 758 501.5 767 Q487 776 475.5 784 Q464 792 454 792 Q434 792 418.5 777 Q403 762 392 735 L320 758 Z " />
<glyph glyph-name="Odieresis" unicode="&#xd6;" horiz-adv-x="795" d="M349 -12 Q283 -12 226.5 10 Q170 32 129 72 Q88 112 65 166.5 Q42 221 42 285 Q42 371 76.5 446 Q111 521 170.5 577.5 Q230 634 310 666.5 Q390 699 480 699 Q547 699 603.5 677 Q660 655 701.5 615.5 Q743 576 766 521.5 Q789 467 789 403 Q789 318 754.5 242 Q720 166 660 110 Q600 54 520 21 Q440 -12 349 -12 Z M201 291 Q201 256 213 226 Q225 196 246.5 174.5 Q268 153 297.5 141 Q327 129 362 129 Q417 129 465.5 150 Q514 171 550.5 207.5 Q587 244 608 293 Q629 342 629 397 Q629 432 617 461.5 Q605 491 583.5 512.5 Q562 534 532.5 546 Q503 558 468 558 Q413 558 364.5 537 Q316 516 279.5 479.5 Q243 443 222 394.5 Q201 346 201 291 Z M336 820 Q336 854 359.5 876 Q383 898 414 898 Q443 898 462 878 Q481 858 481 830 Q481 797 457 774.5 Q433 752 404 752 Q372 752 354 772 Q336 792 336 820 Z M550 821 Q550 854 574 876 Q598 898 628 898 Q658 898 676.5 878 Q695 858 695 830 Q695 797 671 774.5 Q647 752 618 752 Q587 752 568.5 772 Q550 792 550 821 Z " />
<glyph glyph-name="multiply" unicode="&#xd7;" horiz-adv-x="559" d="M53 206 L205 333 L103 459 L212 552 L314 425 L464 550 L538 461 L387 335 L488 209 L379 116 L277 243 L127 118 L53 206 Z " />
<glyph glyph-name="Oslash" unicode="&#xd8;" horiz-adv-x="836" d="M107 100 Q78 137 61.5 184 Q45 231 45 285 Q45 371 79.5 446 Q114 521 173.5 577.5 Q233 634 313 666.5 Q393 699 483 699 Q540 699 588.5 683.5 Q637 668 676 639 L726 687 L865 687 L742 571 Q766 536 779 493.5 Q792 451 792 403 Q792 318 757.5 242 Q723 166 663 110 Q603 54 523 21 Q443 -12 352 -12 Q253 -12 179 36 L141 0 L2 0 L107 100 Z M204 291 Q204 248 223 210 L563 532 Q523 558 471 558 Q416 558 367.5 537 Q319 516 282.5 479.5 Q246 443 225 394.5 Q204 346 204 291 Z M293 144 Q325 129 365 129 Q420 129 468.5 150 Q517 171 553.5 207.5 Q590 244 611 293 Q632 342 632 397 Q632 413 629.5 427.5 Q627 442 622 456 L293 144 Z " />
<glyph glyph-name="Ugrave" unicode="&#xd9;" horiz-adv-x="760" d="M331 -12 Q260 -12 206 12 Q152 36 118 78 Q84 120 72 178 Q60 236 74 305 L154 687 L309 687 L228 299 Q212 221 244.5 175 Q277 129 343 129 Q379 129 412.5 143 Q446 157 473.5 181.5 Q501 206 520.5 239 Q540 272 548 311 L626 687 L781 687 L699 292 Q685 224 651 168 Q617 112 568.5 72 Q520 32 459.5 10 Q399 -12 331 -12 Z M440 902 L522 745 L423 745 L301 877 L440 902 Z " />
<glyph glyph-name="Uacute" unicode="&#xda;" horiz-adv-x="760" d="M331 -12 Q260 -12 206 12 Q152 36 118 78 Q84 120 72 178 Q60 236 74 305 L154 687 L309 687 L228 299 Q212 221 244.5 175 Q277 129 343 129 Q379 129 412.5 143 Q446 157 473.5 181.5 Q501 206 520.5 239 Q540 272 548 311 L626 687 L781 687 L699 292 Q685 224 651 168 Q617 112 568.5 72 Q520 32 459.5 10 Q399 -12 331 -12 Z M562 902 L697 877 L521 745 L414 745 L562 902 Z " />
<glyph glyph-name="Ucircumflex" unicode="&#xdb;" horiz-adv-x="760" d="M331 -12 Q260 -12 206 12 Q152 36 118 78 Q84 120 72 178 Q60 236 74 305 L154 687 L309 687 L228 299 Q212 221 244.5 175 Q277 129 343 129 Q379 129 412.5 143 Q446 157 473.5 181.5 Q501 206 520.5 239 Q540 272 548 311 L626 687 L781 687 L699 292 Q685 224 651 168 Q617 112 568.5 72 Q520 32 459.5 10 Q399 -12 331 -12 Z M431 893 L557 893 L633 745 L542 745 L484 818 L392 745 L294 745 L431 893 Z " />
<glyph glyph-name="Udieresis" unicode="&#xdc;" horiz-adv-x="760" d="M331 -12 Q260 -12 206 12 Q152 36 118 78 Q84 120 72 178 Q60 236 74 305 L154 687 L309 687 L228 299 Q212 221 244.5 175 Q277 129 343 129 Q379 129 412.5 143 Q446 157 473.5 181.5 Q501 206 520.5 239 Q540 272 548 311 L626 687 L781 687 L699 292 Q685 224 651 168 Q617 112 568.5 72 Q520 32 459.5 10 Q399 -12 331 -12 Z M306 820 Q306 854 329.5 876 Q353 898 384 898 Q413 898 432 878 Q451 858 451 830 Q451 797 427 774.5 Q403 752 374 752 Q342 752 324 772 Q306 792 306 820 Z M520 821 Q520 854 544 876 Q568 898 598 898 Q628 898 646.5 878 Q665 858 665 830 Q665 797 641 774.5 Q617 752 588 752 Q557 752 538.5 772 Q520 792 520 821 Z " />
<glyph glyph-name="Yacute" unicode="&#xdd;" horiz-adv-x="727" d="M272 244 L95 687 L242 687 L366 378 L610 687 L788 687 L428 244 L375 0 L218 0 L272 244 Z M539 902 L674 877 L498 745 L391 745 L539 902 Z " />
<glyph glyph-name="Thorn" unicode="&#xde;" horiz-adv-x="701" d="M171 687 L324 687 L302 579 L456 579 Q505 579 545.5 565 Q586 551 615 525.5 Q644 500 660 464 Q676 428 676 385 Q676 326 651.5 276 Q627 226 585.5 189.5 Q544 153 488.5 132.5 Q433 112 370 112 L207 112 L184 0 L28 0 L171 687 Z M374 254 Q402 254 428 263.5 Q454 273 473.5 289.5 Q493 306 505 327.5 Q517 349 517 373 Q517 403 492 420 Q467 437 422 437 L275 437 L237 254 L374 254 Z " />
<glyph glyph-name="germandbls" unicode="&#xdf;" horiz-adv-x="625" d="M122 524 Q131 568 155.5 604 Q180 640 217 665.5 Q254 691 300.5 704.5 Q347 718 399 718 Q449 718 489 705.5 Q529 693 557.5 670.5 Q586 648 601 616.5 Q616 585 616 547 Q616 484 581 435 Q546 386 484 357 Q527 336 552 298.5 Q577 261 577 213 Q577 164 555.5 124.5 Q534 85 497.5 57.5 Q461 30 413.5 15 Q366 0 314 0 L238 0 L265 132 L303 132 Q326 132 347 140 Q368 148 384.5 161.5 Q401 175 411.5 193.5 Q422 212 424 232 Q427 259 406 274.5 Q385 290 346 290 L298 290 L324 412 L338 412 Q360 412 380.5 420.5 Q401 429 417 443.5 Q433 458 442.5 475.5 Q452 493 452 511 Q452 534 434.5 547.5 Q417 561 384 561 Q341 561 307.5 536 Q274 511 266 473 L167 0 L12 0 L122 524 Z " />
<glyph glyph-name="agrave" unicode="&#xe0;" horiz-adv-x="588" d="M330 42 Q298 15 258 1.5 Q218 -12 180 -12 Q142 -12 110 -2 Q78 8 55.5 27 Q33 46 20.5 72 Q8 98 8 130 Q8 175 28.5 211 Q49 247 83 272.5 Q117 298 161 311.5 Q205 325 251 325 Q286 325 319 317 Q352 309 382 295 Q387 316 388.5 326 Q390 336 390 341 Q390 371 368.5 388.5 Q347 406 299 406 Q260 406 223.5 394.5 Q187 383 155 368 L116 474 Q238 529 341 529 Q432 529 485.5 482 Q539 435 539 355 Q539 342 537 326.5 Q535 311 528 276 Q521 241 507 176.5 Q493 112 470 0 L321 0 L330 42 Z M155 135 Q155 115 172 104 Q189 93 217 93 Q240 93 261.5 98.5 Q283 104 302 114.5 Q321 125 334.5 139 Q348 153 354 169 L355 166 Q358 179 360.5 190 Q363 201 365 212 Q344 220 320.5 223 Q297 226 272 226 Q250 226 228.5 218.5 Q207 211 191 198 Q175 185 165 169 Q155 153 155 135 Z M329 732 L411 575 L312 575 L190 707 L329 732 Z " />
<glyph glyph-name="aacute" unicode="&#xe1;" horiz-adv-x="588" d="M330 42 Q298 15 258 1.5 Q218 -12 180 -12 Q142 -12 110 -2 Q78 8 55.5 27 Q33 46 20.5 72 Q8 98 8 130 Q8 175 28.5 211 Q49 247 83 272.5 Q117 298 161 311.5 Q205 325 251 325 Q286 325 319 317 Q352 309 382 295 Q387 316 388.5 326 Q390 336 390 341 Q390 371 368.5 388.5 Q347 406 299 406 Q260 406 223.5 394.5 Q187 383 155 368 L116 474 Q238 529 341 529 Q432 529 485.5 482 Q539 435 539 355 Q539 342 537 326.5 Q535 311 528 276 Q521 241 507 176.5 Q493 112 470 0 L321 0 L330 42 Z M155 135 Q155 115 172 104 Q189 93 217 93 Q240 93 261.5 98.5 Q283 104 302 114.5 Q321 125 334.5 139 Q348 153 354 169 L355 166 Q358 179 360.5 190 Q363 201 365 212 Q344 220 320.5 223 Q297 226 272 226 Q250 226 228.5 218.5 Q207 211 191 198 Q175 185 165 169 Q155 153 155 135 Z M452 732 L587 707 L411 575 L304 575 L452 732 Z " />
<glyph glyph-name="acircumflex" unicode="&#xe2;" horiz-adv-x="588" d="M330 42 Q298 15 258 1.5 Q218 -12 180 -12 Q142 -12 110 -2 Q78 8 55.5 27 Q33 46 20.5 72 Q8 98 8 130 Q8 175 28.5 211 Q49 247 83 272.5 Q117 298 161 311.5 Q205 325 251 325 Q286 325 319 317 Q352 309 382 295 Q387 316 388.5 326 Q390 336 390 341 Q390 371 368.5 388.5 Q347 406 299 406 Q260 406 223.5 394.5 Q187 383 155 368 L116 474 Q238 529 341 529 Q432 529 485.5 482 Q539 435 539 355 Q539 342 537 326.5 Q535 311 528 276 Q521 241 507 176.5 Q493 112 470 0 L321 0 L330 42 Z M155 135 Q155 115 172 104 Q189 93 217 93 Q240 93 261.5 98.5 Q283 104 302 114.5 Q321 125 334.5 139 Q348 153 354 169 L355 166 Q358 179 360.5 190 Q363 201 365 212 Q344 220 320.5 223 Q297 226 272 226 Q250 226 228.5 218.5 Q207 211 191 198 Q175 185 165 169 Q155 153 155 135 Z M314 723 L440 723 L516 575 L425 575 L367 648 L275 575 L177 575 L314 723 Z " />
<glyph glyph-name="atilde" unicode="&#xe3;" horiz-adv-x="588" d="M330 42 Q298 15 258 1.5 Q218 -12 180 -12 Q142 -12 110 -2 Q78 8 55.5 27 Q33 46 20.5 72 Q8 98 8 130 Q8 175 28.5 211 Q49 247 83 272.5 Q117 298 161 311.5 Q205 325 251 325 Q286 325 319 317 Q352 309 382 295 Q387 316 388.5 326 Q390 336 390 341 Q390 371 368.5 388.5 Q347 406 299 406 Q260 406 223.5 394.5 Q187 383 155 368 L116 474 Q238 529 341 529 Q432 529 485.5 482 Q539 435 539 355 Q539 342 537 326.5 Q535 311 528 276 Q521 241 507 176.5 Q493 112 470 0 L321 0 L330 42 Z M155 135 Q155 115 172 104 Q189 93 217 93 Q240 93 261.5 98.5 Q283 104 302 114.5 Q321 125 334.5 139 Q348 153 354 169 L355 166 Q358 179 360.5 190 Q363 201 365 212 Q344 220 320.5 223 Q297 226 272 226 Q250 226 228.5 218.5 Q207 211 191 198 Q175 185 165 169 Q155 153 155 135 Z M186 588 Q207 654 237.5 685 Q268 716 315 716 Q338 716 356 708 Q374 700 388.5 691 Q403 682 415 674 Q427 666 437 666 Q457 666 472.5 681.5 Q488 697 498 723 L571 700 Q550 633 519 602.5 Q488 572 442 572 Q419 572 400.5 580 Q382 588 367.5 597 Q353 606 341.5 614 Q330 622 320 622 Q300 622 284.5 607 Q269 592 258 565 L186 588 Z " />
<glyph glyph-name="adieresis" unicode="&#xe4;" horiz-adv-x="588" d="M330 42 Q298 15 258 1.5 Q218 -12 180 -12 Q142 -12 110 -2 Q78 8 55.5 27 Q33 46 20.5 72 Q8 98 8 130 Q8 175 28.5 211 Q49 247 83 272.5 Q117 298 161 311.5 Q205 325 251 325 Q286 325 319 317 Q352 309 382 295 Q387 316 388.5 326 Q390 336 390 341 Q390 371 368.5 388.5 Q347 406 299 406 Q260 406 223.5 394.5 Q187 383 155 368 L116 474 Q238 529 341 529 Q432 529 485.5 482 Q539 435 539 355 Q539 342 537 326.5 Q535 311 528 276 Q521 241 507 176.5 Q493 112 470 0 L321 0 L330 42 Z M155 135 Q155 115 172 104 Q189 93 217 93 Q240 93 261.5 98.5 Q283 104 302 114.5 Q321 125 334.5 139 Q348 153 354 169 L355 166 Q358 179 360.5 190 Q363 201 365 212 Q344 220 320.5 223 Q297 226 272 226 Q250 226 228.5 218.5 Q207 211 191 198 Q175 185 165 169 Q155 153 155 135 Z M201 650 Q201 684 224.5 706 Q248 728 279 728 Q308 728 327 708 Q346 688 346 660 Q346 627 322 604.5 Q298 582 269 582 Q237 582 219 602 Q201 622 201 650 Z M415 651 Q415 684 439 706 Q463 728 493 728 Q523 728 541.5 708 Q560 688 560 660 Q560 627 536 604.5 Q512 582 483 582 Q452 582 433.5 602 Q415 622 415 651 Z " />
<glyph glyph-name="aring" unicode="&#xe5;" horiz-adv-x="588" d="M330 42 Q298 15 258 1.5 Q218 -12 180 -12 Q142 -12 110 -2 Q78 8 55.5 27 Q33 46 20.5 72 Q8 98 8 130 Q8 175 28.5 211 Q49 247 83 272.5 Q117 298 161 311.5 Q205 325 251 325 Q286 325 319 317 Q352 309 382 295 Q387 316 388.5 326 Q390 336 390 341 Q390 371 368.5 388.5 Q347 406 299 406 Q260 406 223.5 394.5 Q187 383 155 368 L116 474 Q238 529 341 529 Q432 529 485.5 482 Q539 435 539 355 Q539 342 537 326.5 Q535 311 528 276 Q521 241 507 176.5 Q493 112 470 0 L321 0 L330 42 Z M155 135 Q155 115 172 104 Q189 93 217 93 Q240 93 261.5 98.5 Q283 104 302 114.5 Q321 125 334.5 139 Q348 153 354 169 L355 166 Q358 179 360.5 190 Q363 201 365 212 Q344 220 320.5 223 Q297 226 272 226 Q250 226 228.5 218.5 Q207 211 191 198 Q175 185 165 169 Q155 153 155 135 Z M271 671 Q271 699 283 724.5 Q295 750 315 769 Q335 788 360.5 799 Q386 810 413 810 Q455 810 480.5 784 Q506 758 506 719 Q506 691 494 665.5 Q482 640 462 621 Q442 602 417 591 Q392 580 365 580 Q323 580 297 606 Q271 632 271 671 Z M335 685 Q335 667 347 654.5 Q359 642 378 642 Q402 642 422 661 Q442 680 442 705 Q442 723 430 735 Q418 747 400 747 Q376 747 355.5 728.5 Q335 710 335 685 Z " />
<glyph glyph-name="ae" unicode="&#xe6;" horiz-adv-x="901" d="M203 -12 Q152 -12 112.5 1 Q73 14 47.5 37 Q22 60 12.5 93 Q3 126 11 165 Q19 201 41 230.5 Q63 260 95 281 Q127 302 167.5 313.5 Q208 325 251 325 Q286 325 319 317 Q352 309 383 295 L387 315 Q395 355 376 380.5 Q357 406 299 406 Q260 406 223.5 394.5 Q187 383 155 368 L116 474 Q176 501 225.5 515 Q275 529 327 529 Q385 529 425.5 509 Q466 489 488 455 Q530 490 581.5 509.5 Q633 529 690 529 Q732 529 768 519 Q804 509 830.5 490 Q857 471 872 445 Q887 419 887 387 Q887 306 820.5 261 Q754 216 634 219 L504 219 L504 212 Q504 163 530 134.5 Q556 106 603 106 Q642 106 681 121.5 Q720 137 749 160 L824 64 Q803 46 776 32 Q749 18 719 8 Q689 -2 658.5 -7 Q628 -12 601 -12 Q539 -12 491.5 10 Q444 32 415 71 Q377 31 323 9.5 Q269 -12 203 -12 Z M156 145 Q151 120 168 106.5 Q185 93 220 93 Q247 93 270.5 100 Q294 107 313 119.5 Q332 132 344 148.5 Q356 165 360 183 L366 211 Q345 219 321 222.5 Q297 226 272 226 Q230 226 197 203 Q164 180 156 145 Z M653 308 Q703 308 730.5 323.5 Q758 339 759 367 Q759 387 738 399 Q717 411 685 411 Q634 411 593 381.5 Q552 352 529 308 L653 308 Z " />
<glyph glyph-name="ccedilla" unicode="&#xe7;" horiz-adv-x="537" d="M203 -197 Q171 -197 146.5 -187 Q122 -177 107 -165 L138 -113 Q149 -124 163 -128 Q177 -132 188 -132 Q215 -132 231.5 -122.5 Q248 -113 248 -96 Q248 -76 229 -76 Q210 -76 192 -89 L170 -64 L204 -7 Q164 1 130 21.5 Q96 42 71 72 Q46 102 32.5 139 Q19 176 19 217 Q19 281 47.5 338 Q76 395 123 437.5 Q170 480 230 504.5 Q290 529 354 529 Q419 529 468 502.5 Q517 476 546 435 L433 358 Q419 378 393.5 389 Q368 400 343 400 Q308 400 276 384.5 Q244 369 219.5 344 Q195 319 180.5 287 Q166 255 166 221 Q166 177 195 147 Q224 117 268 117 Q300 117 333 132 Q366 147 389 170 L480 76 Q436 37 387 15 Q338 -7 281 -11 L261 -44 Q287 -47 303 -64 Q319 -81 319 -106 Q319 -151 285 -174 Q251 -197 203 -197 Z " />
<glyph glyph-name="egrave" unicode="&#xe8;" horiz-adv-x="545" d="M253 -12 Q201 -12 158.5 4 Q116 20 86 49 Q56 78 39.5 118.5 Q23 159 23 208 Q23 274 48.5 332 Q74 390 117.5 434 Q161 478 219 503.5 Q277 529 342 529 Q384 529 420 519 Q456 509 482.5 490 Q509 471 524 445 Q539 419 539 387 Q539 306 472.5 261 Q406 216 286 219 L156 219 L156 212 Q156 163 182 134.5 Q208 106 255 106 Q294 106 333 121.5 Q372 137 401 160 L476 64 Q455 46 428 32 Q401 18 371 8 Q341 -2 310.5 -7 Q280 -12 253 -12 Z M305 308 Q355 308 382.5 323.5 Q410 339 411 367 Q411 387 390 399 Q369 411 337 411 Q286 411 245 381.5 Q204 352 181 308 L305 308 Z M326 732 L408 575 L309 575 L187 707 L326 732 Z " />
<glyph glyph-name="eacute" unicode="&#xe9;" horiz-adv-x="545" d="M253 -12 Q201 -12 158.5 4 Q116 20 86 49 Q56 78 39.5 118.5 Q23 159 23 208 Q23 274 48.5 332 Q74 390 117.5 434 Q161 478 219 503.5 Q277 529 342 529 Q384 529 420 519 Q456 509 482.5 490 Q509 471 524 445 Q539 419 539 387 Q539 306 472.5 261 Q406 216 286 219 L156 219 L156 212 Q156 163 182 134.5 Q208 106 255 106 Q294 106 333 121.5 Q372 137 401 160 L476 64 Q455 46 428 32 Q401 18 371 8 Q341 -2 310.5 -7 Q280 -12 253 -12 Z M305 308 Q355 308 382.5 323.5 Q410 339 411 367 Q411 387 390 399 Q369 411 337 411 Q286 411 245 381.5 Q204 352 181 308 L305 308 Z M448 732 L583 707 L407 575 L300 575 L448 732 Z " />
<glyph glyph-name="ecircumflex" unicode="&#xea;" horiz-adv-x="545" d="M253 -12 Q201 -12 158.5 4 Q116 20 86 49 Q56 78 39.5 118.5 Q23 159 23 208 Q23 274 48.5 332 Q74 390 117.5 434 Q161 478 219 503.5 Q277 529 342 529 Q384 529 420 519 Q456 509 482.5 490 Q509 471 524 445 Q539 419 539 387 Q539 306 472.5 261 Q406 216 286 219 L156 219 L156 212 Q156 163 182 134.5 Q208 106 255 106 Q294 106 333 121.5 Q372 137 401 160 L476 64 Q455 46 428 32 Q401 18 371 8 Q341 -2 310.5 -7 Q280 -12 253 -12 Z M305 308 Q355 308 382.5 323.5 Q410 339 411 367 Q411 387 390 399 Q369 411 337 411 Q286 411 245 381.5 Q204 352 181 308 L305 308 Z M318 723 L444 723 L520 575 L429 575 L371 648 L279 575 L181 575 L318 723 Z " />
<glyph glyph-name="edieresis" unicode="&#xeb;" horiz-adv-x="545" d="M253 -12 Q201 -12 158.5 4 Q116 20 86 49 Q56 78 39.5 118.5 Q23 159 23 208 Q23 274 48.5 332 Q74 390 117.5 434 Q161 478 219 503.5 Q277 529 342 529 Q384 529 420 519 Q456 509 482.5 490 Q509 471 524 445 Q539 419 539 387 Q539 306 472.5 261 Q406 216 286 219 L156 219 L156 212 Q156 163 182 134.5 Q208 106 255 106 Q294 106 333 121.5 Q372 137 401 160 L476 64 Q455 46 428 32 Q401 18 371 8 Q341 -2 310.5 -7 Q280 -12 253 -12 Z M305 308 Q355 308 382.5 323.5 Q410 339 411 367 Q411 387 390 399 Q369 411 337 411 Q286 411 245 381.5 Q204 352 181 308 L305 308 Z M192 650 Q192 684 215.5 706 Q239 728 270 728 Q299 728 318 708 Q337 688 337 660 Q337 627 313 604.5 Q289 582 260 582 Q228 582 210 602 Q192 622 192 650 Z M406 651 Q406 684 430 706 Q454 728 484 728 Q514 728 532.5 708 Q551 688 551 660 Q551 627 527 604.5 Q503 582 474 582 Q443 582 424.5 602 Q406 622 406 651 Z " />
<glyph glyph-name="igrave" unicode="&#xec;" horiz-adv-x="296" d="M125 517 L279 517 L171 0 L17 0 L125 517 Z M185 732 L267 575 L168 575 L46 707 L185 732 Z " />
<glyph glyph-name="iacute" unicode="&#xed;" horiz-adv-x="296" d="M125 517 L279 517 L171 0 L17 0 L125 517 Z M307 732 L442 707 L266 575 L159 575 L307 732 Z " />
<glyph glyph-name="icircumflex" unicode="&#xee;" horiz-adv-x="296" d="M125 517 L279 517 L171 0 L17 0 L125 517 Z M177 723 L303 723 L379 575 L288 575 L230 648 L138 575 L40 575 L177 723 Z " />
<glyph glyph-name="idieresis" unicode="&#xef;" horiz-adv-x="296" d="M125 517 L279 517 L171 0 L17 0 L125 517 Z M51 650 Q51 684 74.5 706 Q98 728 129 728 Q158 728 177 708 Q196 688 196 660 Q196 627 172 604.5 Q148 582 119 582 Q87 582 69 602 Q51 622 51 650 Z M265 651 Q265 684 289 706 Q313 728 343 728 Q373 728 391.5 708 Q410 688 410 660 Q410 627 386 604.5 Q362 582 333 582 Q302 582 283.5 602 Q265 622 265 651 Z " />
<glyph glyph-name="eth" unicode="&#xf0;" horiz-adv-x="627" d="M274 118 Q307 118 337 131.5 Q367 145 389.5 168 Q412 191 425.5 221 Q439 251 439 283 Q439 321 414.5 345 Q390 369 344 369 Q310 369 280 355.5 Q250 342 227.5 319 Q205 296 191.5 266.5 Q178 237 178 205 Q178 164 203.5 141 Q229 118 274 118 Z M32 201 Q32 258 52.5 311 Q73 364 109 404.5 Q145 445 194.5 469.5 Q244 494 301 494 Q355 494 388.5 473.5 Q422 453 446 424 Q437 463 415.5 497 Q394 531 363 563 L248 516 L227 595 L297 624 Q282 636 266.5 648 Q251 660 235 672 L375 723 Q388 711 400.5 699.5 Q413 688 424 676 L525 718 L546 639 L483 613 Q539 549 568 487 Q597 425 597 353 Q597 280 572 213.5 Q547 147 503 97 Q459 47 398 17.5 Q337 -12 266 -12 Q212 -12 169 3.5 Q126 19 95.5 47 Q65 75 48.5 114 Q32 153 32 201 Z " />
<glyph glyph-name="ntilde" unicode="&#xf1;" horiz-adv-x="629" d="M125 517 L279 517 L268 465 Q297 495 337.5 512 Q378 529 423 529 Q461 529 491 517.5 Q521 506 542 485 Q563 464 574.5 435 Q586 406 586 371 Q586 357 584 340.5 Q582 324 574.5 286.5 Q567 249 552.5 182 Q538 115 514 0 L366 0 Q389 111 402.5 173.5 Q416 236 422.5 268.5 Q429 301 430.5 312.5 Q432 324 432 332 Q432 364 414.5 382 Q397 400 365 400 Q322 400 286 374 Q250 348 236 313 L171 0 L17 0 L125 517 Z M162 588 Q183 654 213.5 685 Q244 716 291 716 Q314 716 332 708 Q350 700 364.5 691 Q379 682 391 674 Q403 666 413 666 Q433 666 448.5 681.5 Q464 697 474 723 L547 700 Q526 633 495 602.5 Q464 572 418 572 Q395 572 376.5 580 Q358 588 343.5 597 Q329 606 317.5 614 Q306 622 296 622 Q276 622 260.5 607 Q245 592 234 565 L162 588 Z " />
<glyph glyph-name="ograve" unicode="&#xf2;" horiz-adv-x="643" d="M273 -12 Q221 -12 177 5 Q133 22 101 53 Q69 84 51 126 Q33 168 33 217 Q33 281 59.5 338 Q86 395 132 437.5 Q178 480 239 504.5 Q300 529 369 529 Q421 529 465 512 Q509 495 541 464 Q573 433 591 391.5 Q609 350 609 300 Q609 236 582.5 179.5 Q556 123 510 80.5 Q464 38 403 13 Q342 -12 273 -12 Z M181 221 Q181 176 210 146.5 Q239 117 283 117 Q320 117 352.5 131 Q385 145 409.5 169.5 Q434 194 448 226.5 Q462 259 462 296 Q462 341 432.5 370.5 Q403 400 359 400 Q322 400 289.5 386 Q257 372 233 347.5 Q209 323 195 290.5 Q181 258 181 221 Z M351 732 L433 575 L334 575 L212 707 L351 732 Z " />
<glyph glyph-name="oacute" unicode="&#xf3;" horiz-adv-x="643" d="M273 -12 Q221 -12 177 5 Q133 22 101 53 Q69 84 51 126 Q33 168 33 217 Q33 281 59.5 338 Q86 395 132 437.5 Q178 480 239 504.5 Q300 529 369 529 Q421 529 465 512 Q509 495 541 464 Q573 433 591 391.5 Q609 350 609 300 Q609 236 582.5 179.5 Q556 123 510 80.5 Q464 38 403 13 Q342 -12 273 -12 Z M181 221 Q181 176 210 146.5 Q239 117 283 117 Q320 117 352.5 131 Q385 145 409.5 169.5 Q434 194 448 226.5 Q462 259 462 296 Q462 341 432.5 370.5 Q403 400 359 400 Q322 400 289.5 386 Q257 372 233 347.5 Q209 323 195 290.5 Q181 258 181 221 Z M473 732 L608 707 L432 575 L325 575 L473 732 Z " />
<glyph glyph-name="ocircumflex" unicode="&#xf4;" horiz-adv-x="643" d="M273 -12 Q221 -12 177 5 Q133 22 101 53 Q69 84 51 126 Q33 168 33 217 Q33 281 59.5 338 Q86 395 132 437.5 Q178 480 239 504.5 Q300 529 369 529 Q421 529 465 512 Q509 495 541 464 Q573 433 591 391.5 Q609 350 609 300 Q609 236 582.5 179.5 Q556 123 510 80.5 Q464 38 403 13 Q342 -12 273 -12 Z M181 221 Q181 176 210 146.5 Q239 117 283 117 Q320 117 352.5 131 Q385 145 409.5 169.5 Q434 194 448 226.5 Q462 259 462 296 Q462 341 432.5 370.5 Q403 400 359 400 Q322 400 289.5 386 Q257 372 233 347.5 Q209 323 195 290.5 Q181 258 181 221 Z M343 723 L469 723 L545 575 L454 575 L396 648 L304 575 L206 575 L343 723 Z " />
<glyph glyph-name="otilde" unicode="&#xf5;" horiz-adv-x="643" d="M273 -12 Q221 -12 177 5 Q133 22 101 53 Q69 84 51 126 Q33 168 33 217 Q33 281 59.5 338 Q86 395 132 437.5 Q178 480 239 504.5 Q300 529 369 529 Q421 529 465 512 Q509 495 541 464 Q573 433 591 391.5 Q609 350 609 300 Q609 236 582.5 179.5 Q556 123 510 80.5 Q464 38 403 13 Q342 -12 273 -12 Z M181 221 Q181 176 210 146.5 Q239 117 283 117 Q320 117 352.5 131 Q385 145 409.5 169.5 Q434 194 448 226.5 Q462 259 462 296 Q462 341 432.5 370.5 Q403 400 359 400 Q322 400 289.5 386 Q257 372 233 347.5 Q209 323 195 290.5 Q181 258 181 221 Z M202 588 Q223 654 253.5 685 Q284 716 331 716 Q354 716 372 708 Q390 700 404.5 691 Q419 682 431 674 Q443 666 453 666 Q473 666 488.5 681.5 Q504 697 514 723 L587 700 Q566 633 535 602.5 Q504 572 458 572 Q435 572 416.5 580 Q398 588 383.5 597 Q369 606 357.5 614 Q346 622 336 622 Q316 622 300.5 607 Q285 592 274 565 L202 588 Z " />
<glyph glyph-name="odieresis" unicode="&#xf6;" horiz-adv-x="643" d="M273 -12 Q221 -12 177 5 Q133 22 101 53 Q69 84 51 126 Q33 168 33 217 Q33 281 59.5 338 Q86 395 132 437.5 Q178 480 239 504.5 Q300 529 369 529 Q421 529 465 512 Q509 495 541 464 Q573 433 591 391.5 Q609 350 609 300 Q609 236 582.5 179.5 Q556 123 510 80.5 Q464 38 403 13 Q342 -12 273 -12 Z M181 221 Q181 176 210 146.5 Q239 117 283 117 Q320 117 352.5 131 Q385 145 409.5 169.5 Q434 194 448 226.5 Q462 259 462 296 Q462 341 432.5 370.5 Q403 400 359 400 Q322 400 289.5 386 Q257 372 233 347.5 Q209 323 195 290.5 Q181 258 181 221 Z M217 650 Q217 684 240.5 706 Q264 728 295 728 Q324 728 343 708 Q362 688 362 660 Q362 627 338 604.5 Q314 582 285 582 Q253 582 235 602 Q217 622 217 650 Z M431 651 Q431 684 455 706 Q479 728 509 728 Q539 728 557.5 708 Q576 688 576 660 Q576 627 552 604.5 Q528 582 499 582 Q468 582 449.5 602 Q431 622 431 651 Z " />
<glyph glyph-name="divide" unicode="&#xf7;" horiz-adv-x="608" d="M90 396 L575 396 L549 272 L64 272 L90 396 Z M198 136 Q198 177 226 201.5 Q254 226 289 226 Q321 226 342 204 Q363 182 363 151 Q363 133 355.5 116 Q348 99 335.5 86.5 Q323 74 307 66.5 Q291 59 274 59 Q239 59 218.5 81.5 Q198 104 198 136 Z M277 519 Q277 539 285 555.5 Q293 572 305.5 584 Q318 596 334.5 602.5 Q351 609 368 609 Q401 609 421.5 586.5 Q442 564 442 533 Q442 514 434.5 497.5 Q427 481 415 468.5 Q403 456 387 449 Q371 442 354 442 Q319 442 298 464.5 Q277 487 277 519 Z " />
<glyph glyph-name="oslash" unicode="&#xf8;" horiz-adv-x="645" d="M78 82 Q36 141 36 217 Q36 281 62.5 338 Q89 395 135 437.5 Q181 480 242 504.5 Q303 529 372 529 Q413 529 449 518.5 Q485 508 514 488 L545 517 L657 517 L569 435 Q589 407 600.5 373 Q612 339 612 300 Q612 236 585.5 179.5 Q559 123 513 80.5 Q467 38 406 13 Q345 -12 276 -12 Q235 -12 199 -1.5 Q163 9 134 29 L103 0 L-10 0 L78 82 Z M184 221 Q184 203 190 186 L408 390 Q397 395 386 397.5 Q375 400 362 400 Q325 400 292.5 386 Q260 372 236 347.5 Q212 323 198 290.5 Q184 258 184 221 Z M240 128 Q262 117 286 117 Q323 117 355.5 131 Q388 145 412.5 169.5 Q437 194 451 226.5 Q465 259 465 296 Q465 316 459 332 L240 128 Z " />
<glyph glyph-name="ugrave" unicode="&#xf9;" horiz-adv-x="629" d="M504 0 L350 0 L361 52 Q332 22 291.5 5 Q251 -12 206 -12 Q169 -12 138.5 0 Q108 12 87 33 Q66 54 54.5 83 Q43 112 43 146 Q43 160 45.5 176.5 Q48 193 55.5 230.5 Q63 268 77 335 Q91 402 115 517 L263 517 Q240 406 226.5 343.5 Q213 281 206.5 248.5 Q200 216 198.5 204.5 Q197 193 197 185 Q197 153 214.5 135 Q232 117 264 117 Q307 117 343 143 Q379 169 393 204 L458 517 L612 517 L504 0 Z M331 732 L413 575 L314 575 L192 707 L331 732 Z " />
<glyph glyph-name="uacute" unicode="&#xfa;" horiz-adv-x="629" d="M504 0 L350 0 L361 52 Q332 22 291.5 5 Q251 -12 206 -12 Q169 -12 138.5 0 Q108 12 87 33 Q66 54 54.5 83 Q43 112 43 146 Q43 160 45.5 176.5 Q48 193 55.5 230.5 Q63 268 77 335 Q91 402 115 517 L263 517 Q240 406 226.5 343.5 Q213 281 206.5 248.5 Q200 216 198.5 204.5 Q197 193 197 185 Q197 153 214.5 135 Q232 117 264 117 Q307 117 343 143 Q379 169 393 204 L458 517 L612 517 L504 0 Z M453 732 L588 707 L412 575 L305 575 L453 732 Z " />
<glyph glyph-name="ucircumflex" unicode="&#xfb;" horiz-adv-x="629" d="M504 0 L350 0 L361 52 Q332 22 291.5 5 Q251 -12 206 -12 Q169 -12 138.5 0 Q108 12 87 33 Q66 54 54.5 83 Q43 112 43 146 Q43 160 45.5 176.5 Q48 193 55.5 230.5 Q63 268 77 335 Q91 402 115 517 L263 517 Q240 406 226.5 343.5 Q213 281 206.5 248.5 Q200 216 198.5 204.5 Q197 193 197 185 Q197 153 214.5 135 Q232 117 264 117 Q307 117 343 143 Q379 169 393 204 L458 517 L612 517 L504 0 Z M323 723 L449 723 L525 575 L434 575 L376 648 L284 575 L186 575 L323 723 Z " />
<glyph glyph-name="udieresis" unicode="&#xfc;" horiz-adv-x="629" d="M504 0 L350 0 L361 52 Q332 22 291.5 5 Q251 -12 206 -12 Q169 -12 138.5 0 Q108 12 87 33 Q66 54 54.5 83 Q43 112 43 146 Q43 160 45.5 176.5 Q48 193 55.5 230.5 Q63 268 77 335 Q91 402 115 517 L263 517 Q240 406 226.5 343.5 Q213 281 206.5 248.5 Q200 216 198.5 204.5 Q197 193 197 185 Q197 153 214.5 135 Q232 117 264 117 Q307 117 343 143 Q379 169 393 204 L458 517 L612 517 L504 0 Z M197 650 Q197 684 220.5 706 Q244 728 275 728 Q304 728 323 708 Q342 688 342 660 Q342 627 318 604.5 Q294 582 265 582 Q233 582 215 602 Q197 622 197 650 Z M411 651 Q411 684 435 706 Q459 728 489 728 Q519 728 537.5 708 Q556 688 556 660 Q556 627 532 604.5 Q508 582 479 582 Q448 582 429.5 602 Q411 622 411 651 Z " />
<glyph glyph-name="yacute" unicode="&#xfd;" horiz-adv-x="557" d="M96 -180 Q61 -180 25.5 -169.5 Q-10 -159 -35 -143 L9 -45 Q26 -56 42 -61 Q58 -66 72 -66 Q92 -66 112 -57 Q132 -48 141 -34 L168 -5 L64 517 L219 517 L275 161 L474 517 L634 517 L312 -28 Q265 -106 210.5 -143 Q156 -180 96 -180 Z M435 732 L570 707 L394 575 L287 575 L435 732 Z " />
<glyph glyph-name="thorn" unicode="&#xfe;" horiz-adv-x="675" d="M162 699 L316 699 L265 453 Q301 488 346.5 508.5 Q392 529 443 529 Q487 529 523 513.5 Q559 498 585 470 Q611 442 625.5 403.5 Q640 365 640 320 Q640 254 617.5 194 Q595 134 555.5 88.5 Q516 43 462.5 15.5 Q409 -12 347 -12 Q293 -12 252 13 Q211 38 188 81 L135 -172 L-19 -172 L162 699 Z M218 212 Q218 170 245.5 143.5 Q273 117 317 117 Q352 117 383.5 132.5 Q415 148 439 173.5 Q463 199 477 233 Q491 267 491 303 Q491 345 464 372.5 Q437 400 393 400 Q364 400 337 389.5 Q310 379 288.5 360.5 Q267 342 250.5 317.5 Q234 293 226 265 L219 234 Q218 229 218 223 Q218 217 218 212 Z " />
<glyph glyph-name="ydieresis" unicode="&#xff;" horiz-adv-x="557" d="M96 -180 Q61 -180 25.5 -169.5 Q-10 -159 -35 -143 L9 -45 Q26 -56 42 -61 Q58 -66 72 -66 Q92 -66 112 -57 Q132 -48 141 -34 L168 -5 L64 517 L219 517 L275 161 L474 517 L634 517 L312 -28 Q265 -106 210.5 -143 Q156 -180 96 -180 Z M183 650 Q183 684 206.5 706 Q230 728 261 728 Q290 728 309 708 Q328 688 328 660 Q328 627 304 604.5 Q280 582 251 582 Q219 582 201 602 Q183 622 183 650 Z M397 651 Q397 684 421 706 Q445 728 475 728 Q505 728 523.5 708 Q542 688 542 660 Q542 627 518 604.5 Q494 582 465 582 Q434 582 415.5 602 Q397 622 397 651 Z " />
<glyph glyph-name="Amacron" unicode="&#x100;" horiz-adv-x="786" d="M705 0 L534 0 L512 113 L221 113 L152 0 L-26 0 L394 687 L571 687 L705 0 Z M488 233 L441 474 L294 233 L488 233 Z M340 839 L690 839 L671 750 L322 750 L340 839 Z " />
<glyph glyph-name="amacron" unicode="&#x101;" horiz-adv-x="588" d="M330 42 Q298 15 258 1.5 Q218 -12 180 -12 Q142 -12 110 -2 Q78 8 55.5 27 Q33 46 20.5 72 Q8 98 8 130 Q8 175 28.5 211 Q49 247 83 272.5 Q117 298 161 311.5 Q205 325 251 325 Q286 325 319 317 Q352 309 382 295 Q387 316 388.5 326 Q390 336 390 341 Q390 371 368.5 388.5 Q347 406 299 406 Q260 406 223.5 394.5 Q187 383 155 368 L116 474 Q238 529 341 529 Q432 529 485.5 482 Q539 435 539 355 Q539 342 537 326.5 Q535 311 528 276 Q521 241 507 176.5 Q493 112 470 0 L321 0 L330 42 Z M155 135 Q155 115 172 104 Q189 93 217 93 Q240 93 261.5 98.5 Q283 104 302 114.5 Q321 125 334.5 139 Q348 153 354 169 L355 166 Q358 179 360.5 190 Q363 201 365 212 Q344 220 320.5 223 Q297 226 272 226 Q250 226 228.5 218.5 Q207 211 191 198 Q175 185 165 169 Q155 153 155 135 Z M210 669 L560 669 L541 580 L192 580 L210 669 Z " />
<glyph glyph-name="Abreve" unicode="&#x102;" horiz-adv-x="786" d="M705 0 L534 0 L512 113 L221 113 L152 0 L-26 0 L394 687 L571 687 L705 0 Z M488 233 L441 474 L294 233 L488 233 Z M425 881 Q441 861 464 850 Q487 839 512 839 Q539 839 567.5 851 Q596 863 620 883 L673 816 Q632 783 587 766.5 Q542 750 497 750 Q452 750 413.5 767 Q375 784 348 818 L425 881 Z " />
<glyph glyph-name="abreve" unicode="&#x103;" horiz-adv-x="588" d="M330 42 Q298 15 258 1.5 Q218 -12 180 -12 Q142 -12 110 -2 Q78 8 55.5 27 Q33 46 20.5 72 Q8 98 8 130 Q8 175 28.5 211 Q49 247 83 272.5 Q117 298 161 311.5 Q205 325 251 325 Q286 325 319 317 Q352 309 382 295 Q387 316 388.5 326 Q390 336 390 341 Q390 371 368.5 388.5 Q347 406 299 406 Q260 406 223.5 394.5 Q187 383 155 368 L116 474 Q238 529 341 529 Q432 529 485.5 482 Q539 435 539 355 Q539 342 537 326.5 Q535 311 528 276 Q521 241 507 176.5 Q493 112 470 0 L321 0 L330 42 Z M155 135 Q155 115 172 104 Q189 93 217 93 Q240 93 261.5 98.5 Q283 104 302 114.5 Q321 125 334.5 139 Q348 153 354 169 L355 166 Q358 179 360.5 190 Q363 201 365 212 Q344 220 320.5 223 Q297 226 272 226 Q250 226 228.5 218.5 Q207 211 191 198 Q175 185 165 169 Q155 153 155 135 Z M294 711 Q310 691 333 680 Q356 669 381 669 Q408 669 436.5 681 Q465 693 489 713 L542 646 Q501 613 456 596.5 Q411 580 366 580 Q321 580 282.5 597 Q244 614 217 648 L294 711 Z " />
<glyph glyph-name="Aogonek" unicode="&#x104;" horiz-adv-x="786" d="M705 0 L703 0 Q677 0 659 -16.5 Q641 -33 641 -56 Q641 -82 668 -82 Q698 -82 716 -64 L733 -144 Q713 -159 690 -166 Q667 -173 644 -173 Q598 -173 571.5 -148 Q545 -123 545 -78 Q545 -34 571 0 L534 0 L512 113 L221 113 L152 0 L-26 0 L394 687 L571 687 L705 0 Z M488 233 L441 474 L294 233 L488 233 Z " />
<glyph glyph-name="aogonek" unicode="&#x105;" horiz-adv-x="588" d="M330 42 Q298 15 258 1.5 Q218 -12 180 -12 Q142 -12 110 -2 Q78 8 55.5 27 Q33 46 20.5 72 Q8 98 8 130 Q8 175 28.5 211 Q49 247 83 272.5 Q117 298 161 311.5 Q205 325 251 325 Q286 325 319 317 Q352 309 382 295 Q387 316 388.5 326 Q390 336 390 341 Q390 371 368.5 388.5 Q347 406 299 406 Q260 406 223.5 394.5 Q187 383 155 368 L116 474 Q238 529 341 529 Q432 529 485.5 482 Q539 435 539 355 Q539 342 537 327 Q535 312 528 277.5 Q521 243 508 180 Q495 117 472 9 L495 0 Q469 0 451 -16.5 Q433 -33 433 -56 Q433 -82 460 -82 Q490 -82 508 -64 L525 -144 Q505 -159 482 -166 Q459 -173 436 -173 Q390 -173 363.5 -148 Q337 -123 337 -78 Q337 -34 363 0 L321 0 L330 42 Z M155 135 Q155 115 172 104 Q189 93 217 93 Q240 93 261.5 98.5 Q283 104 302 114.5 Q321 125 334.5 139 Q348 153 354 169 L355 166 Q358 179 360.5 190 Q363 201 365 212 Q344 220 320.5 223 Q297 226 272 226 Q250 226 228.5 218.5 Q207 211 191 198 Q175 185 165 169 Q155 153 155 135 Z " />
<glyph glyph-name="Cacute" unicode="&#x106;" horiz-adv-x="691" d="M344 -12 Q282 -12 226.5 11.5 Q171 35 129.5 76 Q88 117 63.5 172.5 Q39 228 39 292 Q39 373 74.5 446.5 Q110 520 170 576.5 Q230 633 308 666 Q386 699 471 699 Q550 699 618 665 Q686 631 726 579 L599 487 Q579 518 542 538 Q505 558 460 558 Q408 558 360.5 536 Q313 514 276.5 477.5 Q240 441 218.5 393.5 Q197 346 197 295 Q197 258 210.5 227.5 Q224 197 246 175 Q268 153 297.5 141 Q327 129 358 129 Q379 129 402.5 135 Q426 141 449 151.5 Q472 162 494 177 Q516 192 534 210 L631 100 Q603 75 568 54.5 Q533 34 495 19 Q457 4 418.5 -4 Q380 -12 344 -12 Z M582 902 L717 877 L541 745 L434 745 L582 902 Z " />
<glyph glyph-name="cacute" unicode="&#x107;" horiz-adv-x="537" d="M256 -12 Q205 -12 162 6 Q119 24 87 55 Q55 86 37 127.5 Q19 169 19 217 Q19 281 47.5 338 Q76 395 123 437.5 Q170 480 230 504.5 Q290 529 354 529 Q419 529 468 502.5 Q517 476 546 435 L433 358 Q419 378 393.5 389 Q368 400 343 400 Q308 400 276 384.5 Q244 369 219.5 344 Q195 319 180.5 287 Q166 255 166 221 Q166 177 195 147 Q224 117 268 117 Q300 117 333 132 Q366 147 389 170 L480 76 Q383 -12 256 -12 Z M444 732 L579 707 L403 575 L296 575 L444 732 Z " />
<glyph glyph-name="Ccaron" unicode="&#x10c;" horiz-adv-x="691" d="M344 -12 Q282 -12 226.5 11.5 Q171 35 129.5 76 Q88 117 63.5 172.5 Q39 228 39 292 Q39 373 74.5 446.5 Q110 520 170 576.5 Q230 633 308 666 Q386 699 471 699 Q550 699 618 665 Q686 631 726 579 L599 487 Q579 518 542 538 Q505 558 460 558 Q408 558 360.5 536 Q313 514 276.5 477.5 Q240 441 218.5 393.5 Q197 346 197 295 Q197 258 210.5 227.5 Q224 197 246 175 Q268 153 297.5 141 Q327 129 358 129 Q379 129 402.5 135 Q426 141 449 151.5 Q472 162 494 177 Q516 192 534 210 L631 100 Q603 75 568 54.5 Q533 34 495 19 Q457 4 418.5 -4 Q380 -12 344 -12 Z M448 893 L505 820 L598 893 L696 893 L558 745 L432 745 L357 893 L448 893 Z " />
<glyph glyph-name="ccaron" unicode="&#x10d;" horiz-adv-x="537" d="M256 -12 Q205 -12 162 6 Q119 24 87 55 Q55 86 37 127.5 Q19 169 19 217 Q19 281 47.5 338 Q76 395 123 437.5 Q170 480 230 504.5 Q290 529 354 529 Q419 529 468 502.5 Q517 476 546 435 L433 358 Q419 378 393.5 389 Q368 400 343 400 Q308 400 276 384.5 Q244 369 219.5 344 Q195 319 180.5 287 Q166 255 166 221 Q166 177 195 147 Q224 117 268 117 Q300 117 333 132 Q366 147 389 170 L480 76 Q383 -12 256 -12 Z M311 723 L368 650 L461 723 L559 723 L421 575 L295 575 L220 723 L311 723 Z " />
<glyph glyph-name="Dcaron" unicode="&#x10e;" horiz-adv-x="756" d="M177 687 L421 687 Q495 687 556.5 666 Q618 645 662.5 607.5 Q707 570 732 518.5 Q757 467 757 405 Q757 323 719.5 249 Q682 175 618 120 Q554 65 469 32.5 Q384 0 288 0 L34 0 L177 687 Z M328 141 Q383 141 432.5 161.5 Q482 182 519 217.5 Q556 253 577.5 299.5 Q599 346 599 398 Q599 431 586 458 Q573 485 549.5 504.5 Q526 524 494 535 Q462 546 423 546 L304 546 L219 141 L328 141 Z M390 893 L447 820 L540 893 L638 893 L500 745 L374 745 L299 893 L390 893 Z " />
<glyph glyph-name="dcaron" unicode="&#x10f;" horiz-adv-x="676" d="M410 65 Q374 29 328.5 8.5 Q283 -12 231 -12 Q188 -12 151.5 4 Q115 20 89.5 48 Q64 76 49.5 114.5 Q35 153 35 198 Q35 263 57.5 323 Q80 383 119 428.5 Q158 474 211.5 501.5 Q265 529 327 529 Q381 529 422.5 504 Q464 479 487 435 L542 699 L696 699 L551 0 L397 0 L410 65 Z M183 214 Q183 172 210.5 144.5 Q238 117 283 117 Q312 117 339 128 Q366 139 387.5 157.5 Q409 176 425.5 201 Q442 226 450 254 L456 282 Q456 288 456.5 293.5 Q457 299 457 305 Q457 347 429 373.5 Q401 400 358 400 Q322 400 290.5 385 Q259 370 235 344.5 Q211 319 197 285 Q183 251 183 214 Z M738 485 Q761 502 778.5 521.5 Q796 541 808 560 Q779 559 765 577 Q751 595 751 621 Q751 653 774 676 Q797 699 826 699 Q857 699 874.5 676.5 Q892 654 892 619 Q892 568 859.5 525.5 Q827 483 780 446 L738 485 Z " />
<glyph glyph-name="Dcroat" unicode="&#x110;" horiz-adv-x="821" d="M78 416 L166 416 L222 687 L466 687 Q540 687 601.5 666 Q663 645 707.5 607.5 Q752 570 777 518.5 Q802 467 802 405 Q802 323 764.5 249 Q727 175 663 120 Q599 65 514 32.5 Q429 0 333 0 L79 0 L136 276 L49 276 L78 416 Z M373 141 Q428 141 477.5 161.5 Q527 182 564 217.5 Q601 253 622.5 299.5 Q644 346 644 398 Q644 431 631 458 Q618 485 594.5 504.5 Q571 524 539 535 Q507 546 468 546 L349 546 L322 416 L460 416 L430 276 L292 276 L264 141 L373 141 Z " />
<glyph glyph-name="dcroat" unicode="&#x111;" horiz-adv-x="671" d="M381 648 L531 648 L542 699 L696 699 L685 648 L745 648 L728 572 L670 572 L551 0 L397 0 L410 65 Q374 29 328.5 8.5 Q283 -12 231 -12 Q188 -12 151.5 4 Q115 20 89.5 48 Q64 76 49.5 114.5 Q35 153 35 198 Q35 263 57.5 323 Q80 383 119 428.5 Q158 474 211.5 501.5 Q265 529 327 529 Q381 529 422.5 504 Q464 479 487 435 L516 572 L365 572 L381 648 Z M183 214 Q183 172 210.5 144.5 Q238 117 283 117 Q312 117 339 128 Q366 139 387.5 157.5 Q409 176 425.5 201 Q442 226 450 254 L456 282 Q456 288 456.5 293.5 Q457 299 457 305 Q457 347 429 373.5 Q401 400 358 400 Q322 400 290.5 385 Q259 370 235 344.5 Q211 319 197 285 Q183 251 183 214 Z " />
<glyph glyph-name="Emacron" unicode="&#x112;" horiz-adv-x="681" d="M177 687 L710 687 L681 547 L304 547 L279 420 L620 420 L591 280 L248 280 L221 140 L597 140 L567 0 L34 0 L177 687 Z M301 839 L651 839 L632 750 L283 750 L301 839 Z " />
<glyph glyph-name="emacron" unicode="&#x113;" horiz-adv-x="545" d="M253 -12 Q201 -12 158.5 4 Q116 20 86 49 Q56 78 39.5 118.5 Q23 159 23 208 Q23 274 48.5 332 Q74 390 117.5 434 Q161 478 219 503.5 Q277 529 342 529 Q384 529 420 519 Q456 509 482.5 490 Q509 471 524 445 Q539 419 539 387 Q539 306 472.5 261 Q406 216 286 219 L156 219 L156 212 Q156 163 182 134.5 Q208 106 255 106 Q294 106 333 121.5 Q372 137 401 160 L476 64 Q455 46 428 32 Q401 18 371 8 Q341 -2 310.5 -7 Q280 -12 253 -12 Z M305 308 Q355 308 382.5 323.5 Q410 339 411 367 Q411 387 390 399 Q369 411 337 411 Q286 411 245 381.5 Q204 352 181 308 L305 308 Z M200 669 L550 669 L531 580 L182 580 L200 669 Z " />
<glyph glyph-name="Edotaccent" unicode="&#x116;" horiz-adv-x="681" d="M177 687 L710 687 L681 547 L304 547 L279 420 L620 420 L591 280 L248 280 L221 140 L597 140 L567 0 L34 0 L177 687 Z M399 820 Q399 854 422.5 876 Q446 898 477 898 Q506 898 525 878 Q544 858 544 830 Q544 797 520 774.5 Q496 752 467 752 Q435 752 417 772 Q399 792 399 820 Z " />
<glyph glyph-name="edotaccent" unicode="&#x117;" horiz-adv-x="545" d="M253 -12 Q201 -12 158.5 4 Q116 20 86 49 Q56 78 39.5 118.5 Q23 159 23 208 Q23 274 48.5 332 Q74 390 117.5 434 Q161 478 219 503.5 Q277 529 342 529 Q384 529 420 519 Q456 509 482.5 490 Q509 471 524 445 Q539 419 539 387 Q539 306 472.5 261 Q406 216 286 219 L156 219 L156 212 Q156 163 182 134.5 Q208 106 255 106 Q294 106 333 121.5 Q372 137 401 160 L476 64 Q455 46 428 32 Q401 18 371 8 Q341 -2 310.5 -7 Q280 -12 253 -12 Z M305 308 Q355 308 382.5 323.5 Q410 339 411 367 Q411 387 390 399 Q369 411 337 411 Q286 411 245 381.5 Q204 352 181 308 L305 308 Z M299 650 Q299 684 322.5 706 Q346 728 377 728 Q406 728 425 708 Q444 688 444 660 Q444 627 420 604.5 Q396 582 367 582 Q335 582 317 602 Q299 622 299 650 Z " />
<glyph glyph-name="Eogonek" unicode="&#x118;" horiz-adv-x="681" d="M177 687 L710 687 L681 547 L304 547 L279 420 L620 420 L591 280 L248 280 L221 140 L597 140 L567 0 Q541 0 523 -16.5 Q505 -33 505 -56 Q505 -82 532 -82 Q562 -82 580 -64 L597 -144 Q577 -159 554 -166 Q531 -173 508 -173 Q462 -173 435.5 -148 Q409 -123 409 -78 Q409 -34 435 0 L34 0 L177 687 Z " />
<glyph glyph-name="eogonek" unicode="&#x119;" horiz-adv-x="545" d="M253 -12 Q227 -12 209 -28.5 Q191 -45 191 -68 Q191 -94 218 -94 Q248 -94 266 -76 L283 -156 Q263 -171 240 -178 Q217 -185 194 -185 Q148 -185 121.5 -160 Q95 -135 95 -90 Q95 -59 108 -33.5 Q121 -8 144 10 Q87 36 55 87.5 Q23 139 23 208 Q23 274 48.5 332 Q74 390 117.5 434 Q161 478 219 503.5 Q277 529 342 529 Q384 529 420 519 Q456 509 482.5 490 Q509 471 524 445 Q539 419 539 387 Q539 306 472.5 261 Q406 216 286 219 L156 219 L156 212 Q156 163 182 134.5 Q208 106 255 106 Q294 106 333 121.5 Q372 137 401 160 L476 64 Q455 46 428 32 Q401 18 371 8 Q341 -2 310.5 -7 Q280 -12 253 -12 Z M305 308 Q355 308 382.5 323.5 Q410 339 411 367 Q411 387 390 399 Q369 411 337 411 Q286 411 245 381.5 Q204 352 181 308 L305 308 Z " />
<glyph glyph-name="Ecaron" unicode="&#x11a;" horiz-adv-x="681" d="M177 687 L710 687 L681 547 L304 547 L279 420 L620 420 L591 280 L248 280 L221 140 L597 140 L567 0 L34 0 L177 687 Z M412 893 L469 820 L562 893 L660 893 L522 745 L396 745 L321 893 L412 893 Z " />
<glyph glyph-name="ecaron" unicode="&#x11b;" horiz-adv-x="545" d="M253 -12 Q201 -12 158.5 4 Q116 20 86 49 Q56 78 39.5 118.5 Q23 159 23 208 Q23 274 48.5 332 Q74 390 117.5 434 Q161 478 219 503.5 Q277 529 342 529 Q384 529 420 519 Q456 509 482.5 490 Q509 471 524 445 Q539 419 539 387 Q539 306 472.5 261 Q406 216 286 219 L156 219 L156 212 Q156 163 182 134.5 Q208 106 255 106 Q294 106 333 121.5 Q372 137 401 160 L476 64 Q455 46 428 32 Q401 18 371 8 Q341 -2 310.5 -7 Q280 -12 253 -12 Z M305 308 Q355 308 382.5 323.5 Q410 339 411 367 Q411 387 390 399 Q369 411 337 411 Q286 411 245 381.5 Q204 352 181 308 L305 308 Z M312 723 L369 650 L462 723 L560 723 L422 575 L296 575 L221 723 L312 723 Z " />
<glyph glyph-name="Gbreve" unicode="&#x11e;" horiz-adv-x="730" d="M348 -12 Q282 -12 225.5 11.5 Q169 35 127.5 75.5 Q86 116 62.5 170.5 Q39 225 39 287 Q39 371 76.5 445.5 Q114 520 175.5 576.5 Q237 633 316.5 666 Q396 699 480 699 Q559 699 626.5 666 Q694 633 735 579 L608 487 Q586 522 547.5 540 Q509 558 467 558 Q414 558 365 535.5 Q316 513 278.5 475.5 Q241 438 218.5 390 Q196 342 196 291 Q196 257 208.5 227.5 Q221 198 243 176 Q265 154 295.5 141.5 Q326 129 361 129 Q397 129 434.5 142 Q472 155 505 178 L522 264 L368 264 L394 384 L700 384 L641 100 Q578 46 500 17 Q422 -12 348 -12 Z M420 881 Q436 861 459 850 Q482 839 507 839 Q534 839 562.5 851 Q591 863 615 883 L668 816 Q627 783 582 766.5 Q537 750 492 750 Q447 750 408.5 767 Q370 784 343 818 L420 881 Z " />
<glyph glyph-name="gbreve" unicode="&#x11f;" horiz-adv-x="623" d="M224 -179 Q168 -179 124 -167 Q80 -155 50.5 -133 Q21 -111 8.5 -80 Q-4 -49 4 -12 Q8 9 23 28.5 Q38 48 61.5 64 Q85 80 116 92 Q147 104 182 110 L246 88 Q200 78 168 52.5 Q136 27 129 -5 Q123 -35 156 -54 Q189 -73 249 -73 Q305 -73 342 -55.5 Q379 -38 385 -10 Q391 21 306 35 Q274 40 261.5 42 Q249 44 240 45.5 Q231 47 217.5 49.5 Q204 52 171 58 Q106 69 72 101 Q38 133 47 175 Q52 201 74.5 226.5 Q97 252 126 266 L201 220 Q190 214 182 206.5 Q174 199 172 193 Q170 179 189 171 Q208 163 259 155 Q274 153 285 151 Q296 149 309.5 147 Q323 145 340.5 142 Q358 139 385 134 Q463 121 498 84.5 Q533 48 521 -9 Q504 -90 427 -134.5 Q350 -179 224 -179 Z M288 189 Q237 189 197.5 201.5 Q158 214 132 236.5 Q106 259 95.5 290.5 Q85 322 93 359 Q101 397 124.5 428 Q148 459 183.5 481.5 Q219 504 263.5 516.5 Q308 529 359 529 Q410 529 449.5 516.5 Q489 504 515 481.5 Q541 459 551.5 428 Q562 397 554 359 Q547 322 523.5 290.5 Q500 259 464.5 236.5 Q429 214 384 201.5 Q339 189 288 189 Z M315 281 Q355 284 382.5 308.5 Q410 333 415 368 Q420 403 397 422.5 Q374 442 333 437 Q292 434 264 409.5 Q236 385 232 350 Q228 315 251 295.5 Q274 276 315 281 Z M509 409 L431 520 Q452 516 471 515 Q490 514 507 514 Q519 514 536 514.5 Q553 515 572 515.5 Q591 516 608 516.5 Q625 517 637 517 L614 406 L509 409 Z M380 580 Q335 580 296.5 597 Q258 614 231 648 L308 711 Q324 691 347 680 Q370 669 395 669 Q422 669 450.5 681 Q479 693 503 713 L556 646 Q515 613 470 596.5 Q425 580 380 580 Z " />
<glyph glyph-name="uni0122" unicode="&#x122;" horiz-adv-x="730" d="M348 -12 Q282 -12 225.5 11.5 Q169 35 127.5 75.5 Q86 116 62.5 170.5 Q39 225 39 287 Q39 371 76.5 445.5 Q114 520 175.5 576.5 Q237 633 316.5 666 Q396 699 480 699 Q559 699 626.5 666 Q694 633 735 579 L608 487 Q586 522 547.5 540 Q509 558 467 558 Q414 558 365 535.5 Q316 513 278.5 475.5 Q241 438 218.5 390 Q196 342 196 291 Q196 257 208.5 227.5 Q221 198 243 176 Q265 154 295.5 141.5 Q326 129 361 129 Q397 129 434.5 142 Q472 155 505 178 L522 264 L368 264 L394 384 L700 384 L641 100 Q578 46 500 17 Q422 -12 348 -12 Z M240 -257 Q263 -240 280.5 -220.5 Q298 -201 310 -182 Q281 -183 267 -165 Q253 -147 253 -121 Q253 -89 276 -66 Q299 -43 328 -43 Q359 -43 376.5 -65.5 Q394 -88 394 -123 Q394 -174 361.5 -216.5 Q329 -259 282 -296 L240 -257 Z " />
<glyph glyph-name="uni0123" unicode="&#x123;" horiz-adv-x="631" d="M224 -179 Q168 -179 124 -167 Q80 -155 50.5 -133 Q21 -111 8.5 -80 Q-4 -49 4 -12 Q8 9 23 28.5 Q38 48 61.5 64 Q85 80 116 92 Q147 104 182 110 L246 88 Q200 78 168 52.5 Q136 27 129 -5 Q123 -35 156 -54 Q189 -73 249 -73 Q305 -73 342 -55.5 Q379 -38 385 -10 Q391 21 306 35 Q274 40 261.5 42 Q249 44 240 45.5 Q231 47 217.5 49.5 Q204 52 171 58 Q106 69 72 101 Q38 133 47 175 Q52 201 74.5 226.5 Q97 252 126 266 L201 220 Q190 214 182 206.5 Q174 199 172 193 Q170 179 189 171 Q208 163 259 155 Q274 153 285 151 Q296 149 309.5 147 Q323 145 340.5 142 Q358 139 385 134 Q463 121 498 84.5 Q533 48 521 -9 Q504 -90 427 -134.5 Q350 -179 224 -179 Z M288 189 Q237 189 197.5 201.5 Q158 214 132 236.5 Q106 259 95.5 290.5 Q85 322 93 359 Q101 397 124.5 428 Q148 459 183.5 481.5 Q219 504 263.5 516.5 Q308 529 359 529 Q410 529 449.5 516.5 Q489 504 515 481.5 Q541 459 551.5 428 Q562 397 554 359 Q547 322 523.5 290.5 Q500 259 464.5 236.5 Q429 214 384 201.5 Q339 189 288 189 Z M315 281 Q355 284 382.5 308.5 Q410 333 415 368 Q420 403 397 422.5 Q374 442 333 437 Q292 434 264 409.5 Q236 385 232 350 Q228 315 251 295.5 Q274 276 315 281 Z M509 409 L431 520 Q452 516 471 515 Q490 514 507 514 Q519 514 536 514.5 Q553 515 572 515.5 Q591 516 608 516.5 Q625 517 637 517 L614 406 L509 409 Z M474 797 Q451 780 433.5 760.5 Q416 741 404 722 Q433 723 447 705 Q461 687 461 661 Q461 629 438 606 Q415 583 386 583 Q355 583 337.5 605.5 Q320 628 320 663 Q320 714 352.5 756.5 Q385 799 432 836 L474 797 Z " />
<glyph glyph-name="Imacron" unicode="&#x12a;" horiz-adv-x="500" d="M50 141 L147 141 L232 546 L135 546 L164 687 L514 687 L485 546 L388 546 L303 141 L400 141 L371 0 L21 0 L50 141 Z M203 839 L553 839 L534 750 L185 750 L203 839 Z " />
<glyph glyph-name="imacron" unicode="&#x12b;" horiz-adv-x="296" d="M125 517 L279 517 L171 0 L17 0 L125 517 Z M60 669 L410 669 L391 580 L42 580 L60 669 Z " />
<glyph glyph-name="Iogonek" unicode="&#x12e;" horiz-adv-x="500" d="M50 141 L147 141 L232 546 L135 546 L164 687 L514 687 L485 546 L388 546 L303 141 L400 141 L371 0 L280 0 Q254 0 236 -16.5 Q218 -33 218 -56 Q218 -82 245 -82 Q275 -82 293 -64 L310 -144 Q290 -159 267 -166 Q244 -173 221 -173 Q175 -173 148.5 -148 Q122 -123 122 -78 Q122 -34 148 0 L21 0 L50 141 Z " />
<glyph glyph-name="iogonek" unicode="&#x12f;" horiz-adv-x="296" d="M125 517 L279 517 L171 0 Q145 0 127 -16.5 Q109 -33 109 -56 Q109 -82 136 -82 Q166 -82 184 -64 L201 -144 Q181 -159 158 -166 Q135 -173 112 -173 Q66 -173 39.5 -148 Q13 -123 13 -78 Q13 -34 39 0 L17 0 L125 517 Z M158 650 Q158 684 181.5 706 Q205 728 236 728 Q265 728 284 708 Q303 688 303 660 Q303 627 279 604.5 Q255 582 226 582 Q194 582 176 602 Q158 622 158 650 Z " />
<glyph glyph-name="Idotaccent" unicode="&#x130;" horiz-adv-x="500" d="M50 141 L147 141 L232 546 L135 546 L164 687 L514 687 L485 546 L388 546 L303 141 L400 141 L371 0 L21 0 L50 141 Z M301 820 Q301 854 324.5 876 Q348 898 379 898 Q408 898 427 878 Q446 858 446 830 Q446 797 422 774.5 Q398 752 369 752 Q337 752 319 772 Q301 792 301 820 Z " />
<glyph glyph-name="dotlessi" unicode="&#x131;" horiz-adv-x="296" d="M125 517 L279 517 L171 0 L17 0 L125 517 Z " />
<glyph glyph-name="uni0136" unicode="&#x136;" horiz-adv-x="729" d="M177 687 L333 687 L271 398 L592 687 L792 687 L460 388 L661 0 L481 0 L335 280 L232 190 L190 0 L34 0 L177 687 Z M226 -257 Q249 -240 266.5 -220.5 Q284 -201 296 -182 Q267 -183 253 -165 Q239 -147 239 -121 Q239 -89 262 -66 Q285 -43 314 -43 Q345 -43 362.5 -65.5 Q380 -88 380 -123 Q380 -174 347.5 -216.5 Q315 -259 268 -296 L226 -257 Z " />
<glyph glyph-name="uni0137" unicode="&#x137;" horiz-adv-x="592" d="M159 699 L313 699 L232 307 L454 517 L633 517 L386 289 L520 0 L349 0 L267 190 L194 126 L168 0 L14 0 L159 699 Z M148 -257 Q171 -240 188.5 -220.5 Q206 -201 218 -182 Q189 -183 175 -165 Q161 -147 161 -121 Q161 -89 184 -66 Q207 -43 236 -43 Q267 -43 284.5 -65.5 Q302 -88 302 -123 Q302 -174 269.5 -216.5 Q237 -259 190 -296 L148 -257 Z " />
<glyph glyph-name="Lacute" unicode="&#x139;" horiz-adv-x="597" d="M177 687 L333 687 L221 140 L557 140 L528 0 L34 0 L177 687 Z M357 902 L492 877 L316 745 L209 745 L357 902 Z " />
<glyph glyph-name="lacute" unicode="&#x13a;" horiz-adv-x="315" d="M181 -12 Q145 -12 117.5 0.5 Q90 13 72.5 35 Q55 57 49 87.5 Q43 118 51 155 L164 699 L318 699 L208 171 Q203 145 213.5 129.5 Q224 114 244 114 L181 -12 Z M314 914 L449 889 L273 757 L166 757 L314 914 Z " />
<glyph glyph-name="Lcaron" unicode="&#x13d;" horiz-adv-x="597" d="M177 687 L333 687 L221 140 L557 140 L528 0 L34 0 L177 687 Z M370 484 Q393 501 410.5 520.5 Q428 540 440 559 Q411 558 397 576 Q383 594 383 620 Q383 652 406 675 Q429 698 458 698 Q489 698 506.5 675.5 Q524 653 524 618 Q524 567 491.5 524.5 Q459 482 412 445 L370 484 Z " />
<glyph glyph-name="lcaron" unicode="&#x13e;" horiz-adv-x="315" d="M181 -12 Q145 -12 117.5 0.5 Q90 13 72.5 35 Q55 57 49 87.5 Q43 118 51 155 L164 699 L318 699 L208 171 Q203 145 213.5 129.5 Q224 114 244 114 L181 -12 Z M378 485 Q401 502 418.5 521.5 Q436 541 448 560 Q419 559 405 577 Q391 595 391 621 Q391 653 414 676 Q437 699 466 699 Q497 699 514.5 676.5 Q532 654 532 619 Q532 568 499.5 525.5 Q467 483 420 446 L378 485 Z " />
<glyph glyph-name="Lslash" unicode="&#x141;" horiz-adv-x="674" d="M60 333 L168 382 L232 687 L388 687 L342 460 L440 504 L413 368 L314 323 L276 140 L612 140 L583 0 L89 0 L140 245 L34 197 L60 333 Z " />
<glyph glyph-name="lslash" unicode="&#x142;" horiz-adv-x="377" d="M49 333 L143 376 L210 699 L364 699 L313 452 L391 488 L364 351 L284 315 L254 171 Q249 145 259.5 129.5 Q270 114 290 114 L227 -12 Q191 -12 163.5 0.5 Q136 13 118.5 35 Q101 57 95 87.5 Q89 118 97 155 L114 238 L23 197 L49 333 Z " />
<glyph glyph-name="Nacute" unicode="&#x143;" horiz-adv-x="808" d="M177 687 L331 687 L562 255 L653 687 L809 687 L666 0 L513 0 L282 432 L190 0 L34 0 L177 687 Z M597 902 L732 877 L556 745 L449 745 L597 902 Z " />
<glyph glyph-name="nacute" unicode="&#x144;" horiz-adv-x="629" d="M125 517 L279 517 L268 465 Q297 495 337.5 512 Q378 529 423 529 Q461 529 491 517.5 Q521 506 542 485 Q563 464 574.5 435 Q586 406 586 371 Q586 357 584 340.5 Q582 324 574.5 286.5 Q567 249 552.5 182 Q538 115 514 0 L366 0 Q389 111 402.5 173.5 Q416 236 422.5 268.5 Q429 301 430.5 312.5 Q432 324 432 332 Q432 364 414.5 382 Q397 400 365 400 Q322 400 286 374 Q250 348 236 313 L171 0 L17 0 L125 517 Z M434 732 L569 707 L393 575 L286 575 L434 732 Z " />
<glyph glyph-name="uni0145" unicode="&#x145;" horiz-adv-x="808" d="M177 687 L331 687 L562 255 L653 687 L809 687 L666 0 L513 0 L282 432 L190 0 L34 0 L177 687 Z M246 -257 Q269 -240 286.5 -220.5 Q304 -201 316 -182 Q287 -183 273 -165 Q259 -147 259 -121 Q259 -89 282 -66 Q305 -43 334 -43 Q365 -43 382.5 -65.5 Q400 -88 400 -123 Q400 -174 367.5 -216.5 Q335 -259 288 -296 L246 -257 Z " />
<glyph glyph-name="uni0146" unicode="&#x146;" horiz-adv-x="629" d="M125 517 L279 517 L268 465 Q297 495 337.5 512 Q378 529 423 529 Q461 529 491 517.5 Q521 506 542 485 Q563 464 574.5 435 Q586 406 586 371 Q586 357 584 340.5 Q582 324 574.5 286.5 Q567 249 552.5 182 Q538 115 514 0 L366 0 Q389 111 402.5 173.5 Q416 236 422.5 268.5 Q429 301 430.5 312.5 Q432 324 432 332 Q432 364 414.5 382 Q397 400 365 400 Q322 400 286 374 Q250 348 236 313 L171 0 L17 0 L125 517 Z M119 -257 Q142 -240 159.5 -220.5 Q177 -201 189 -182 Q160 -183 146 -165 Q132 -147 132 -121 Q132 -89 155 -66 Q178 -43 207 -43 Q238 -43 255.5 -65.5 Q273 -88 273 -123 Q273 -174 240.5 -216.5 Q208 -259 161 -296 L119 -257 Z " />
<glyph glyph-name="Ncaron" unicode="&#x147;" horiz-adv-x="808" d="M177 687 L331 687 L562 255 L653 687 L809 687 L666 0 L513 0 L282 432 L190 0 L34 0 L177 687 Z M461 893 L518 820 L611 893 L709 893 L571 745 L445 745 L370 893 L461 893 Z " />
<glyph glyph-name="ncaron" unicode="&#x148;" horiz-adv-x="629" d="M125 517 L279 517 L268 465 Q297 495 337.5 512 Q378 529 423 529 Q461 529 491 517.5 Q521 506 542 485 Q563 464 574.5 435 Q586 406 586 371 Q586 357 584 340.5 Q582 324 574.5 286.5 Q567 249 552.5 182 Q538 115 514 0 L366 0 Q389 111 402.5 173.5 Q416 236 422.5 268.5 Q429 301 430.5 312.5 Q432 324 432 332 Q432 364 414.5 382 Q397 400 365 400 Q322 400 286 374 Q250 348 236 313 L171 0 L17 0 L125 517 Z M298 723 L355 650 L448 723 L546 723 L408 575 L282 575 L207 723 L298 723 Z " />
<glyph glyph-name="Omacron" unicode="&#x14c;" horiz-adv-x="795" d="M349 -12 Q283 -12 226.5 10 Q170 32 129 72 Q88 112 65 166.5 Q42 221 42 285 Q42 371 76.5 446 Q111 521 170.5 577.5 Q230 634 310 666.5 Q390 699 480 699 Q547 699 603.5 677 Q660 655 701.5 615.5 Q743 576 766 521.5 Q789 467 789 403 Q789 318 754.5 242 Q720 166 660 110 Q600 54 520 21 Q440 -12 349 -12 Z M201 291 Q201 256 213 226 Q225 196 246.5 174.5 Q268 153 297.5 141 Q327 129 362 129 Q417 129 465.5 150 Q514 171 550.5 207.5 Q587 244 608 293 Q629 342 629 397 Q629 432 617 461.5 Q605 491 583.5 512.5 Q562 534 532.5 546 Q503 558 468 558 Q413 558 364.5 537 Q316 516 279.5 479.5 Q243 443 222 394.5 Q201 346 201 291 Z M344 839 L694 839 L675 750 L326 750 L344 839 Z " />
<glyph glyph-name="omacron" unicode="&#x14d;" horiz-adv-x="643" d="M273 -12 Q221 -12 177 5 Q133 22 101 53 Q69 84 51 126 Q33 168 33 217 Q33 281 59.5 338 Q86 395 132 437.5 Q178 480 239 504.5 Q300 529 369 529 Q421 529 465 512 Q509 495 541 464 Q573 433 591 391.5 Q609 350 609 300 Q609 236 582.5 179.5 Q556 123 510 80.5 Q464 38 403 13 Q342 -12 273 -12 Z M181 221 Q181 176 210 146.5 Q239 117 283 117 Q320 117 352.5 131 Q385 145 409.5 169.5 Q434 194 448 226.5 Q462 259 462 296 Q462 341 432.5 370.5 Q403 400 359 400 Q322 400 289.5 386 Q257 372 233 347.5 Q209 323 195 290.5 Q181 258 181 221 Z M225 669 L575 669 L556 580 L207 580 L225 669 Z " />
<glyph glyph-name="Ohungarumlaut" unicode="&#x150;" horiz-adv-x="795" d="M349 -12 Q283 -12 226.5 10 Q170 32 129 72 Q88 112 65 166.5 Q42 221 42 285 Q42 371 76.5 446 Q111 521 170.5 577.5 Q230 634 310 666.5 Q390 699 480 699 Q547 699 603.5 677 Q660 655 701.5 615.5 Q743 576 766 521.5 Q789 467 789 403 Q789 318 754.5 242 Q720 166 660 110 Q600 54 520 21 Q440 -12 349 -12 Z M201 291 Q201 256 213 226 Q225 196 246.5 174.5 Q268 153 297.5 141 Q327 129 362 129 Q417 129 465.5 150 Q514 171 550.5 207.5 Q587 244 608 293 Q629 342 629 397 Q629 432 617 461.5 Q605 491 583.5 512.5 Q562 534 532.5 546 Q503 558 468 558 Q413 558 364.5 537 Q316 516 279.5 479.5 Q243 443 222 394.5 Q201 346 201 291 Z M474 902 L609 877 L433 745 L326 745 L474 902 Z M712 901 L848 877 L672 745 L565 745 L712 901 Z " />
<glyph glyph-name="ohungarumlaut" unicode="&#x151;" horiz-adv-x="649" d="M273 -12 Q221 -12 177 5 Q133 22 101 53 Q69 84 51 126 Q33 168 33 217 Q33 281 59.5 338 Q86 395 132 437.5 Q178 480 239 504.5 Q300 529 369 529 Q421 529 465 512 Q509 495 541 464 Q573 433 591 391.5 Q609 350 609 300 Q609 236 582.5 179.5 Q556 123 510 80.5 Q464 38 403 13 Q342 -12 273 -12 Z M181 221 Q181 176 210 146.5 Q239 117 283 117 Q320 117 352.5 131 Q385 145 409.5 169.5 Q434 194 448 226.5 Q462 259 462 296 Q462 341 432.5 370.5 Q403 400 359 400 Q322 400 289.5 386 Q257 372 233 347.5 Q209 323 195 290.5 Q181 258 181 221 Z M345 732 L480 707 L304 575 L197 575 L345 732 Z M583 731 L719 707 L543 575 L436 575 L583 731 Z " />
<glyph glyph-name="OE" unicode="&#x152;" horiz-adv-x="1061" d="M61 284 Q61 366 98.5 439.5 Q136 513 197.5 568 Q259 623 338 655 Q417 687 500 687 L1091 687 L1062 547 L685 547 L660 420 L1001 420 L972 280 L629 280 L601 140 L978 140 L948 0 L367 0 Q301 0 245 21.5 Q189 43 148 80.5 Q107 118 84 170.5 Q61 223 61 284 Z M219 289 Q219 256 231.5 228.5 Q244 201 266 181.5 Q288 162 319 151.5 Q350 141 386 141 L445 141 L529 546 L480 546 Q431 546 384.5 524 Q338 502 301 466 Q264 430 241.5 384 Q219 338 219 289 Z " />
<glyph glyph-name="oe" unicode="&#x153;" horiz-adv-x="990" d="M273 -12 Q221 -12 177 5 Q133 22 101 53 Q69 84 51 126 Q33 168 33 217 Q33 281 59.5 338 Q86 395 132 437.5 Q178 480 239 504.5 Q300 529 369 529 Q429 529 477.5 506.5 Q526 484 558 446 Q600 484 654.5 506.5 Q709 529 770 529 Q812 529 848 519 Q884 509 910.5 490 Q937 471 952 445 Q967 419 967 387 Q967 306 900.5 261 Q834 216 714 219 L597 219 Q595 211 592 203.5 Q589 196 586 188 Q592 150 617 128 Q642 106 683 106 Q722 106 761 121.5 Q800 137 829 160 L904 64 Q883 46 856 32 Q829 18 799 8 Q769 -2 738.5 -7 Q708 -12 681 -12 Q621 -12 573.5 9 Q526 30 496 68 Q451 31 394 9.5 Q337 -12 273 -12 Z M181 221 Q181 176 210 146.5 Q239 117 283 117 Q342 117 388 151 Q434 185 453 239 Q455 266 462 290 L462 296 Q462 341 432.5 370.5 Q403 400 359 400 Q322 400 289.5 386 Q257 372 233 347.5 Q209 323 195 290.5 Q181 258 181 221 Z M733 308 Q783 308 810.5 323.5 Q838 339 839 367 Q839 387 818 399 Q797 411 765 411 Q714 411 673 381.5 Q632 352 609 308 L733 308 Z " />
<glyph glyph-name="Racute" unicode="&#x154;" horiz-adv-x="693" d="M322 220 L236 220 L190 0 L34 0 L177 687 L458 687 Q507 687 547.5 672.5 Q588 658 616.5 632.5 Q645 607 661 571 Q677 535 677 491 Q677 447 662.5 407.5 Q648 368 622.5 335.5 Q597 303 561.5 278.5 Q526 254 483 239 L628 0 L455 0 L322 220 Z M380 362 Q407 362 432 372 Q457 382 476.5 398.5 Q496 415 507.5 436.5 Q519 458 519 480 Q519 509 494 527 Q469 545 426 545 L304 545 L265 362 L380 362 Z M549 902 L684 877 L508 745 L401 745 L549 902 Z " />
<glyph glyph-name="racute" unicode="&#x155;" horiz-adv-x="425" d="M125 517 L279 517 L260 428 Q295 476 344 502.5 Q393 529 451 529 L434 400 Q395 400 361 388.5 Q327 377 299 357 Q271 337 251 308.5 Q231 280 222 245 L171 0 L17 0 L125 517 Z M381 732 L516 707 L340 575 L233 575 L381 732 Z " />
<glyph glyph-name="uni0156" unicode="&#x156;" horiz-adv-x="693" d="M322 220 L236 220 L190 0 L34 0 L177 687 L458 687 Q507 687 547.5 672.5 Q588 658 616.5 632.5 Q645 607 661 571 Q677 535 677 491 Q677 447 662.5 407.5 Q648 368 622.5 335.5 Q597 303 561.5 278.5 Q526 254 483 239 L628 0 L455 0 L322 220 Z M199 -257 Q222 -240 239.5 -220.5 Q257 -201 269 -182 Q240 -183 226 -165 Q212 -147 212 -121 Q212 -89 235 -66 Q258 -43 287 -43 Q318 -43 335.5 -65.5 Q353 -88 353 -123 Q353 -174 320.5 -216.5 Q288 -259 241 -296 L199 -257 Z M380 362 Q407 362 432 372 Q457 382 476.5 398.5 Q496 415 507.5 436.5 Q519 458 519 480 Q519 509 494 527 Q469 545 426 545 L304 545 L265 362 L380 362 Z " />
<glyph glyph-name="uni0157" unicode="&#x157;" horiz-adv-x="425" d="M125 517 L279 517 L260 428 Q295 476 344 502.5 Q393 529 451 529 L434 400 Q395 400 361 388.5 Q327 377 299 357 Q271 337 251 308.5 Q231 280 222 245 L171 0 L17 0 L125 517 Z M65 -257 Q88 -240 105.5 -220.5 Q123 -201 135 -182 Q106 -183 92 -165 Q78 -147 78 -121 Q78 -89 101 -66 Q124 -43 153 -43 Q184 -43 201.5 -65.5 Q219 -88 219 -123 Q219 -174 186.5 -216.5 Q154 -259 107 -296 L65 -257 Z " />
<glyph glyph-name="Rcaron" unicode="&#x158;" horiz-adv-x="693" d="M322 220 L236 220 L190 0 L34 0 L177 687 L458 687 Q507 687 547.5 672.5 Q588 658 616.5 632.5 Q645 607 661 571 Q677 535 677 491 Q677 447 662.5 407.5 Q648 368 622.5 335.5 Q597 303 561.5 278.5 Q526 254 483 239 L628 0 L455 0 L322 220 Z M380 362 Q407 362 432 372 Q457 382 476.5 398.5 Q496 415 507.5 436.5 Q519 458 519 480 Q519 509 494 527 Q469 545 426 545 L304 545 L265 362 L380 362 Z M413 893 L470 820 L563 893 L661 893 L523 745 L397 745 L322 893 L413 893 Z " />
<glyph glyph-name="rcaron" unicode="&#x159;" horiz-adv-x="425" d="M125 517 L279 517 L260 428 Q295 476 344 502.5 Q393 529 451 529 L434 400 Q395 400 361 388.5 Q327 377 299 357 Q271 337 251 308.5 Q231 280 222 245 L171 0 L17 0 L125 517 Z M245 723 L302 650 L395 723 L493 723 L355 575 L229 575 L154 723 L245 723 Z " />
<glyph glyph-name="Sacute" unicode="&#x15a;" horiz-adv-x="633" d="M280 -12 Q194 -12 117 20 Q40 52 -9 106 L94 204 Q135 162 188 140.5 Q241 119 292 119 Q360 119 396.5 147.5 Q433 176 433 213 Q433 224 427.5 232.5 Q422 241 408.5 248 Q395 255 372.5 261.5 Q350 268 316 277 Q266 289 225 303 Q184 317 155 336.5 Q126 356 110.5 384 Q95 412 95 454 Q95 507 116.5 551.5 Q138 596 178 629 Q218 662 273.5 680.5 Q329 699 396 699 Q468 699 535 674 Q602 649 650 601 L553 496 Q515 534 467 551 Q419 568 381 568 Q321 568 287.5 539.5 Q254 511 254 476 Q254 453 280 440 Q306 427 372 411 Q429 398 470.5 382.5 Q512 367 539 346.5 Q566 326 578.5 299 Q591 272 591 234 Q591 179 567.5 133.5 Q544 88 502 56 Q460 24 403 6 Q346 -12 280 -12 Z M512 902 L647 877 L471 745 L364 745 L512 902 Z " />
<glyph glyph-name="sacute" unicode="&#x15b;" horiz-adv-x="500" d="M210 -12 Q144 -12 85 10 Q26 32 -16 70 L58 159 Q90 131 134.5 115.5 Q179 100 217 100 Q258 100 284 117.5 Q310 135 310 160 Q310 171 296 180.5 Q282 190 234 203 Q197 212 165.5 222.5 Q134 233 112 248 Q90 263 77.5 285 Q65 307 65 339 Q65 381 83 416 Q101 451 132 476 Q163 501 205.5 515 Q248 529 296 529 Q354 529 404.5 509.5 Q455 490 495 461 L427 370 Q398 391 362 405 Q326 419 295 419 Q257 419 231 401 Q205 383 205 360 Q205 349 220.5 340.5 Q236 332 282 318 Q318 309 348.5 298.5 Q379 288 401.5 272 Q424 256 437 233.5 Q450 211 450 177 Q450 135 431 100 Q412 65 379.5 40 Q347 15 303.5 1.5 Q260 -12 210 -12 Z M412 732 L547 707 L371 575 L264 575 L412 732 Z " />
<glyph glyph-name="Scedilla" unicode="&#x15e;" horiz-adv-x="633" d="M223 -197 Q191 -197 166.5 -187 Q142 -177 127 -165 L158 -113 Q169 -124 183 -128 Q197 -132 208 -132 Q235 -132 251.5 -122.5 Q268 -113 268 -96 Q268 -76 249 -76 Q230 -76 212 -89 L190 -64 L223 -8 Q154 1 93 31 Q32 61 -9 106 L94 204 Q135 162 188 140.5 Q241 119 292 119 Q360 119 396.5 147.5 Q433 176 433 213 Q433 224 427.5 232.5 Q422 241 408.5 248 Q395 255 372.5 261.5 Q350 268 316 277 Q266 289 225 303 Q184 317 155 336.5 Q126 356 110.5 384 Q95 412 95 454 Q95 507 116.5 551.5 Q138 596 178 629 Q218 662 273.5 680.5 Q329 699 396 699 Q468 699 535 674 Q602 649 650 601 L553 496 Q515 534 467 551 Q419 568 381 568 Q321 568 287.5 539.5 Q254 511 254 476 Q254 453 280 440 Q306 427 372 411 Q429 398 470.5 382.5 Q512 367 539 346.5 Q566 326 578.5 299 Q591 272 591 234 Q591 181 569 137 Q547 93 508 61 Q469 29 416 10 Q363 -9 301 -12 L281 -44 Q307 -47 323 -64 Q339 -81 339 -106 Q339 -151 305 -174 Q271 -197 223 -197 Z " />
<glyph glyph-name="scedilla" unicode="&#x15f;" horiz-adv-x="500" d="M154 -197 Q122 -197 97.5 -187 Q73 -177 58 -165 L89 -113 Q100 -124 114 -128 Q128 -132 139 -132 Q166 -132 182.5 -122.5 Q199 -113 199 -96 Q199 -76 180 -76 Q161 -76 143 -89 L121 -64 L155 -8 Q104 0 60 20.5 Q16 41 -16 70 L58 159 Q90 131 134.5 115.5 Q179 100 217 100 Q258 100 284 117.5 Q310 135 310 160 Q310 171 296 180.5 Q282 190 234 203 Q197 212 165.5 222.5 Q134 233 112 248 Q90 263 77.5 285 Q65 307 65 339 Q65 381 83 416 Q101 451 132 476 Q163 501 205.5 515 Q248 529 296 529 Q354 529 404.5 509.5 Q455 490 495 461 L427 370 Q398 391 362 405 Q326 419 295 419 Q257 419 231 401 Q205 383 205 360 Q205 349 220.5 340.5 Q236 332 282 318 Q318 309 348.5 298.5 Q379 288 401.5 272 Q424 256 437 233.5 Q450 211 450 177 Q450 137 433 103.5 Q416 70 387 45.5 Q358 21 318 6.5 Q278 -8 232 -11 L212 -44 Q238 -47 254 -64 Q270 -81 270 -106 Q270 -151 236 -174 Q202 -197 154 -197 Z " />
<glyph glyph-name="Scaron" unicode="&#x160;" horiz-adv-x="633" d="M280 -12 Q194 -12 117 20 Q40 52 -9 106 L94 204 Q135 162 188 140.5 Q241 119 292 119 Q360 119 396.5 147.5 Q433 176 433 213 Q433 224 427.5 232.5 Q422 241 408.5 248 Q395 255 372.5 261.5 Q350 268 316 277 Q266 289 225 303 Q184 317 155 336.5 Q126 356 110.5 384 Q95 412 95 454 Q95 507 116.5 551.5 Q138 596 178 629 Q218 662 273.5 680.5 Q329 699 396 699 Q468 699 535 674 Q602 649 650 601 L553 496 Q515 534 467 551 Q419 568 381 568 Q321 568 287.5 539.5 Q254 511 254 476 Q254 453 280 440 Q306 427 372 411 Q429 398 470.5 382.5 Q512 367 539 346.5 Q566 326 578.5 299 Q591 272 591 234 Q591 179 567.5 133.5 Q544 88 502 56 Q460 24 403 6 Q346 -12 280 -12 Z M376 893 L433 820 L526 893 L624 893 L486 745 L360 745 L285 893 L376 893 Z " />
<glyph glyph-name="scaron" unicode="&#x161;" horiz-adv-x="500" d="M210 -12 Q144 -12 85 10 Q26 32 -16 70 L58 159 Q90 131 134.5 115.5 Q179 100 217 100 Q258 100 284 117.5 Q310 135 310 160 Q310 171 296 180.5 Q282 190 234 203 Q197 212 165.5 222.5 Q134 233 112 248 Q90 263 77.5 285 Q65 307 65 339 Q65 381 83 416 Q101 451 132 476 Q163 501 205.5 515 Q248 529 296 529 Q354 529 404.5 509.5 Q455 490 495 461 L427 370 Q398 391 362 405 Q326 419 295 419 Q257 419 231 401 Q205 383 205 360 Q205 349 220.5 340.5 Q236 332 282 318 Q318 309 348.5 298.5 Q379 288 401.5 272 Q424 256 437 233.5 Q450 211 450 177 Q450 135 431 100 Q412 65 379.5 40 Q347 15 303.5 1.5 Q260 -12 210 -12 Z M276 723 L333 650 L426 723 L524 723 L386 575 L260 575 L185 723 L276 723 Z " />
<glyph glyph-name="uni0162" unicode="&#x162;" horiz-adv-x="597" d="M281 547 L68 547 L97 687 L677 687 L648 547 L436 547 L322 0 L278 0 L251 -44 Q277 -47 293 -64 Q309 -81 309 -106 Q309 -151 275 -174 Q241 -197 193 -197 Q161 -197 136.5 -187 Q112 -177 97 -165 L128 -113 Q139 -124 153 -128 Q167 -132 178 -132 Q205 -132 221.5 -122.5 Q238 -113 238 -96 Q238 -76 219 -76 Q200 -76 182 -89 L160 -64 L198 0 L167 0 L281 547 Z " />
<glyph glyph-name="uni0163" unicode="&#x163;" horiz-adv-x="386" d="M68 517 L139 517 L169 659 L316 659 L286 517 L397 517 L371 393 L260 393 Q235 272 223.5 215 Q212 158 212 150 Q212 117 242 117 Q259 117 275.5 124 Q292 131 300 139 L320 30 Q290 6 248 -5 L224 -44 Q250 -47 266 -64 Q282 -81 282 -106 Q282 -151 248 -174 Q214 -197 166 -197 Q134 -197 109.5 -187 Q85 -177 70 -165 L101 -113 Q112 -124 126 -128 Q140 -132 151 -132 Q178 -132 194.5 -122.5 Q211 -113 211 -96 Q211 -76 192 -76 Q173 -76 155 -89 L133 -64 L166 -10 Q117 -1 88.5 33.5 Q60 68 60 119 Q60 128 61.5 140.5 Q63 153 68.5 180.5 Q74 208 84.5 258 Q95 308 113 393 L42 393 L68 517 Z " />
<glyph glyph-name="Tcaron" unicode="&#x164;" horiz-adv-x="597" d="M281 547 L68 547 L97 687 L677 687 L648 547 L436 547 L322 0 L167 0 L281 547 Z M356 893 L413 820 L506 893 L604 893 L466 745 L340 745 L265 893 L356 893 Z " />
<glyph glyph-name="tcaron" unicode="&#x165;" horiz-adv-x="386" d="M194 -12 Q133 -12 96.5 24.5 Q60 61 60 119 Q60 128 61.5 140.5 Q63 153 68.5 180.5 Q74 208 84.5 258 Q95 308 113 393 L42 393 L68 517 L139 517 L169 659 L316 659 L286 517 L397 517 L371 393 L260 393 Q235 272 223.5 215 Q212 158 212 150 Q212 117 242 117 Q259 117 275.5 124 Q292 131 300 139 L320 30 Q294 10 261 -1 Q228 -12 194 -12 Z M489 485 Q512 502 529.5 521.5 Q547 541 559 560 Q530 559 516 577 Q502 595 502 621 Q502 653 525 676 Q548 699 577 699 Q608 699 625.5 676.5 Q643 654 643 619 Q643 568 610.5 525.5 Q578 483 531 446 L489 485 Z " />
<glyph glyph-name="Umacron" unicode="&#x16a;" horiz-adv-x="760" d="M331 -12 Q260 -12 206 12 Q152 36 118 78 Q84 120 72 178 Q60 236 74 305 L154 687 L309 687 L228 299 Q212 221 244.5 175 Q277 129 343 129 Q379 129 412.5 143 Q446 157 473.5 181.5 Q501 206 520.5 239 Q540 272 548 311 L626 687 L781 687 L699 292 Q685 224 651 168 Q617 112 568.5 72 Q520 32 459.5 10 Q399 -12 331 -12 Z M314 839 L664 839 L645 750 L296 750 L314 839 Z " />
<glyph glyph-name="umacron" unicode="&#x16b;" horiz-adv-x="629" d="M504 0 L350 0 L361 52 Q332 22 291.5 5 Q251 -12 206 -12 Q169 -12 138.5 0 Q108 12 87 33 Q66 54 54.5 83 Q43 112 43 146 Q43 160 45.5 176.5 Q48 193 55.5 230.5 Q63 268 77 335 Q91 402 115 517 L263 517 Q240 406 226.5 343.5 Q213 281 206.5 248.5 Q200 216 198.5 204.5 Q197 193 197 185 Q197 153 214.5 135 Q232 117 264 117 Q307 117 343 143 Q379 169 393 204 L458 517 L612 517 L504 0 Z M205 669 L555 669 L536 580 L187 580 L205 669 Z " />
<glyph glyph-name="Uring" unicode="&#x16e;" horiz-adv-x="760" d="M331 -12 Q260 -12 206 12 Q152 36 118 78 Q84 120 72 178 Q60 236 74 305 L154 687 L309 687 L228 299 Q212 221 244.5 175 Q277 129 343 129 Q379 129 412.5 143 Q446 157 473.5 181.5 Q501 206 520.5 239 Q540 272 548 311 L626 687 L781 687 L699 292 Q685 224 651 168 Q617 112 568.5 72 Q520 32 459.5 10 Q399 -12 331 -12 Z M376 841 Q376 869 388 894.5 Q400 920 420 939 Q440 958 465.5 969 Q491 980 518 980 Q560 980 585.5 954 Q611 928 611 889 Q611 861 599 835.5 Q587 810 567 791 Q547 772 522 761 Q497 750 470 750 Q428 750 402 776 Q376 802 376 841 Z M440 855 Q440 837 452 824.5 Q464 812 483 812 Q507 812 527 831 Q547 850 547 875 Q547 893 535 905 Q523 917 505 917 Q481 917 460.5 898.5 Q440 880 440 855 Z " />
<glyph glyph-name="uring" unicode="&#x16f;" horiz-adv-x="616" d="M504 0 L350 0 L361 52 Q332 22 291.5 5 Q251 -12 206 -12 Q169 -12 138.5 0 Q108 12 87 33 Q66 54 54.5 83 Q43 112 43 146 Q43 160 45.5 176.5 Q48 193 55.5 230.5 Q63 268 77 335 Q91 402 115 517 L263 517 Q240 406 226.5 343.5 Q213 281 206.5 248.5 Q200 216 198.5 204.5 Q197 193 197 185 Q197 153 214.5 135 Q232 117 264 117 Q307 117 343 143 Q379 169 393 204 L458 517 L612 517 L504 0 Z M268 671 Q268 699 280 724.5 Q292 750 312 769 Q332 788 357.5 799 Q383 810 410 810 Q452 810 477.5 784 Q503 758 503 719 Q503 691 491 665.5 Q479 640 459 621 Q439 602 414 591 Q389 580 362 580 Q320 580 294 606 Q268 632 268 671 Z M332 685 Q332 667 344 654.5 Q356 642 375 642 Q399 642 419 661 Q439 680 439 705 Q439 723 427 735 Q415 747 397 747 Q373 747 352.5 728.5 Q332 710 332 685 Z " />
<glyph glyph-name="Uhungarumlaut" unicode="&#x170;" horiz-adv-x="760" d="M331 -12 Q260 -12 206 12 Q152 36 118 78 Q84 120 72 178 Q60 236 74 305 L154 687 L309 687 L228 299 Q212 221 244.5 175 Q277 129 343 129 Q379 129 412.5 143 Q446 157 473.5 181.5 Q501 206 520.5 239 Q540 272 548 311 L626 687 L781 687 L699 292 Q685 224 651 168 Q617 112 568.5 72 Q520 32 459.5 10 Q399 -12 331 -12 Z M444 902 L579 877 L403 745 L296 745 L444 902 Z M682 901 L818 877 L642 745 L535 745 L682 901 Z " />
<glyph glyph-name="uhungarumlaut" unicode="&#x171;" horiz-adv-x="629" d="M504 0 L350 0 L361 52 Q332 22 291.5 5 Q251 -12 206 -12 Q169 -12 138.5 0 Q108 12 87 33 Q66 54 54.5 83 Q43 112 43 146 Q43 160 45.5 176.5 Q48 193 55.5 230.5 Q63 268 77 335 Q91 402 115 517 L263 517 Q240 406 226.5 343.5 Q213 281 206.5 248.5 Q200 216 198.5 204.5 Q197 193 197 185 Q197 153 214.5 135 Q232 117 264 117 Q307 117 343 143 Q379 169 393 204 L458 517 L612 517 L504 0 Z M336 732 L471 707 L295 575 L188 575 L336 732 Z M574 731 L710 707 L534 575 L427 575 L574 731 Z " />
<glyph glyph-name="Uogonek" unicode="&#x172;" horiz-adv-x="760" d="M331 -12 Q324 -12 317.5 -12 Q311 -12 305 -11 Q294 -19 287 -30.5 Q280 -42 280 -56 Q280 -82 307 -82 Q337 -82 355 -64 L372 -144 Q352 -159 329 -166 Q306 -173 283 -173 Q237 -173 210.5 -148 Q184 -123 184 -78 Q184 -28 217 7 Q130 40 91 119 Q52 198 74 305 L154 687 L309 687 L228 299 Q212 221 244.5 175 Q277 129 343 129 Q379 129 412.5 143 Q446 157 473.5 181.5 Q501 206 520.5 239 Q540 272 548 311 L626 687 L781 687 L699 292 Q685 224 651 168 Q617 112 568.5 72 Q520 32 459.5 10 Q399 -12 331 -12 Z " />
<glyph glyph-name="uogonek" unicode="&#x173;" horiz-adv-x="616" d="M504 0 L481 0 Q455 0 437 -16.5 Q419 -33 419 -56 Q419 -82 446 -82 Q476 -82 494 -64 L511 -144 Q491 -159 468 -166 Q445 -173 422 -173 Q376 -173 349.5 -148 Q323 -123 323 -78 Q323 -34 350 1 L361 52 Q332 22 291.5 5 Q251 -12 206 -12 Q169 -12 138.5 0 Q108 12 87 33 Q66 54 54.5 83 Q43 112 43 146 Q43 160 45.5 176.5 Q48 193 55.5 230.5 Q63 268 77 335 Q91 402 115 517 L263 517 Q240 406 226.5 343.5 Q213 281 206.5 248.5 Q200 216 198.5 204.5 Q197 193 197 185 Q197 153 214.5 135 Q232 117 264 117 Q307 117 343 143 Q379 169 393 204 L458 517 L612 517 L504 0 Z " />
<glyph glyph-name="Wcircumflex" unicode="&#x174;" horiz-adv-x="1080" d="M97 687 L268 687 L368 180 L478 362 L415 687 L559 687 L588 541 L677 687 L828 687 L624 354 L659 180 L968 687 L1146 687 L726 0 L549 0 L515 175 L408 0 L231 0 L97 687 Z M602 893 L728 893 L804 745 L713 745 L655 818 L563 745 L465 745 L602 893 Z " />
<glyph glyph-name="wcircumflex" unicode="&#x175;" horiz-adv-x="856" d="M69 517 L216 517 L245 206 L409 517 L536 517 L568 206 L727 517 L880 517 L597 0 L459 0 L434 315 L275 0 L138 0 L69 517 Z M452 723 L578 723 L654 575 L563 575 L505 648 L413 575 L315 575 L452 723 Z " />
<glyph glyph-name="Ycircumflex" unicode="&#x176;" horiz-adv-x="727" d="M272 244 L95 687 L242 687 L366 378 L610 687 L788 687 L428 244 L375 0 L218 0 L272 244 Z M410 893 L536 893 L612 745 L521 745 L463 818 L371 745 L273 745 L410 893 Z " />
<glyph glyph-name="ycircumflex" unicode="&#x177;" horiz-adv-x="557" d="M96 -180 Q61 -180 25.5 -169.5 Q-10 -159 -35 -143 L9 -45 Q26 -56 42 -61 Q58 -66 72 -66 Q92 -66 112 -57 Q132 -48 141 -34 L168 -5 L64 517 L219 517 L275 161 L474 517 L634 517 L312 -28 Q265 -106 210.5 -143 Q156 -180 96 -180 Z M306 723 L432 723 L508 575 L417 575 L359 648 L267 575 L169 575 L306 723 Z " />
<glyph glyph-name="Ydieresis" unicode="&#x178;" horiz-adv-x="727" d="M272 244 L95 687 L242 687 L366 378 L610 687 L788 687 L428 244 L375 0 L218 0 L272 244 Z M287 820 Q287 854 310.5 876 Q334 898 365 898 Q394 898 413 878 Q432 858 432 830 Q432 797 408 774.5 Q384 752 355 752 Q323 752 305 772 Q287 792 287 820 Z M501 821 Q501 854 525 876 Q549 898 579 898 Q609 898 627.5 878 Q646 858 646 830 Q646 797 622 774.5 Q598 752 569 752 Q538 752 519.5 772 Q501 792 501 821 Z " />
<glyph glyph-name="Zacute" unicode="&#x179;" horiz-adv-x="653" d="M2 117 L447 547 L101 547 L130 687 L691 687 L668 570 L225 140 L582 140 L553 0 L-19 0 L2 117 Z M518 902 L653 877 L477 745 L370 745 L518 902 Z " />
<glyph glyph-name="zacute" unicode="&#x17a;" horiz-adv-x="542" d="M5 108 L318 387 L72 387 L99 517 L547 517 L525 409 L213 130 L468 130 L441 0 L-15 0 L5 108 Z M432 732 L567 707 L391 575 L284 575 L432 732 Z " />
<glyph glyph-name="Zdotaccent" unicode="&#x17b;" horiz-adv-x="653" d="M2 117 L447 547 L101 547 L130 687 L691 687 L668 570 L225 140 L582 140 L553 0 L-19 0 L2 117 Z M373 820 Q373 854 396.5 876 Q420 898 451 898 Q480 898 499 878 Q518 858 518 830 Q518 797 494 774.5 Q470 752 441 752 Q409 752 391 772 Q373 792 373 820 Z " />
<glyph glyph-name="zdotaccent" unicode="&#x17c;" horiz-adv-x="542" d="M5 108 L318 387 L72 387 L99 517 L547 517 L525 409 L213 130 L468 130 L441 0 L-15 0 L5 108 Z M287 650 Q287 684 310.5 706 Q334 728 365 728 Q394 728 413 708 Q432 688 432 660 Q432 627 408 604.5 Q384 582 355 582 Q323 582 305 602 Q287 622 287 650 Z " />
<glyph glyph-name="Zcaron" unicode="&#x17d;" horiz-adv-x="653" d="M2 117 L447 547 L101 547 L130 687 L691 687 L668 570 L225 140 L582 140 L553 0 L-19 0 L2 117 Z M385 893 L442 820 L535 893 L633 893 L495 745 L369 745 L294 893 L385 893 Z " />
<glyph glyph-name="zcaron" unicode="&#x17e;" horiz-adv-x="542" d="M5 108 L318 387 L72 387 L99 517 L547 517 L525 409 L213 130 L468 130 L441 0 L-15 0 L5 108 Z M298 723 L355 650 L448 723 L546 723 L408 575 L282 575 L207 723 L298 723 Z " />
<glyph glyph-name="uni0237" unicode="&#x237;" horiz-adv-x="286" d="M-25 -178 Q-57 -178 -85.5 -171 Q-114 -164 -132 -154 L-102 -46 Q-93 -50 -79.5 -51 Q-66 -52 -56 -52 Q-31 -52 -10.5 -33 Q10 -14 15 11 L120 517 L274 517 L163 -18 Q148 -91 96 -134.5 Q44 -178 -25 -178 Z " />
<glyph glyph-name="circumflex" unicode="&#x2c6;" horiz-adv-x="397" d="M232 723 L358 723 L434 575 L343 575 L285 648 L193 575 L95 575 L232 723 Z " />
<glyph glyph-name="caron" unicode="&#x2c7;" horiz-adv-x="398" d="M127 723 L218 723 L275 650 L368 723 L466 723 L328 575 L202 575 L127 723 Z " />
<glyph glyph-name="breve" unicode="&#x2d8;" horiz-adv-x="404" d="M269 580 Q224 580 185.5 597 Q147 614 120 648 L197 711 Q213 691 236 680 Q259 669 284 669 Q311 669 339.5 681 Q368 693 392 713 L445 646 Q404 613 359 596.5 Q314 580 269 580 Z " />
<glyph glyph-name="dotaccent" unicode="&#x2d9;" horiz-adv-x="258" d="M207 582 Q175 582 157 602 Q139 622 139 650 Q139 684 162.5 706 Q186 728 217 728 Q246 728 265 708 Q284 688 284 660 Q284 627 260 604.5 Q236 582 207 582 Z " />
<glyph glyph-name="ring" unicode="&#x2da;" horiz-adv-x="328" d="M231 580 Q189 580 163 606 Q137 632 137 671 Q137 699 149 724.5 Q161 750 181 769 Q201 788 226.5 799 Q252 810 279 810 Q321 810 346.5 784 Q372 758 372 719 Q372 691 360 665.5 Q348 640 328 621 Q308 602 283 591 Q258 580 231 580 Z M201 685 Q201 667 213 654.5 Q225 642 244 642 Q268 642 288 661 Q308 680 308 705 Q308 723 296 735 Q284 747 266 747 Q242 747 221.5 728.5 Q201 710 201 685 Z " />
<glyph glyph-name="ogonek" unicode="&#x2db;" horiz-adv-x="291" d="M84 -173 Q38 -173 11.5 -148 Q-15 -123 -15 -78 Q-15 -41 3 -12 Q21 17 53 35 L143 0 Q117 0 99 -16.5 Q81 -33 81 -56 Q81 -82 108 -82 Q138 -82 156 -64 L173 -144 Q153 -159 130 -166 Q107 -173 84 -173 Z " />
<glyph glyph-name="tilde" unicode="&#x2dc;" horiz-adv-x="464" d="M376 572 Q353 572 334.5 580 Q316 588 301.5 597 Q287 606 275.5 614 Q264 622 254 622 Q234 622 218.5 607 Q203 592 192 565 L120 588 Q141 654 171.5 685 Q202 716 249 716 Q272 716 290 708 Q308 700 322.5 691 Q337 682 349 674 Q361 666 371 666 Q391 666 406.5 681.5 Q422 697 432 723 L505 700 Q484 633 453 602.5 Q422 572 376 572 Z " />
<glyph glyph-name="hungarumlaut" unicode="&#x2dd;" horiz-adv-x="551" d="M240 732 L375 707 L199 575 L92 575 L240 732 Z M478 731 L614 707 L438 575 L331 575 L478 731 Z " />
<glyph glyph-name="uni0307" unicode="&#x307;" d="M216 586 Q182 586 161 608 Q140 630 140 661 Q140 679 147.5 695.5 Q155 712 167.5 724.5 Q180 737 196.5 744 Q213 751 230 751 Q263 751 283.5 729 Q304 707 304 675 Q304 657 296.5 641 Q289 625 277 613 Q265 601 249 593.5 Q233 586 216 586 Z " />
<glyph glyph-name="uni0326" unicode="&#x326;" d="M-44 -257 Q-21 -240 -3.5 -220.5 Q14 -201 26 -182 Q-3 -183 -17 -165 Q-31 -147 -31 -121 Q-31 -89 -8 -66 Q15 -43 44 -43 Q75 -43 92.5 -65.5 Q110 -88 110 -123 Q110 -174 77.5 -216.5 Q45 -259 -2 -296 L-44 -257 Z " />
<glyph glyph-name="Wgrave" unicode="&#x1e80;" horiz-adv-x="1080" d="M97 687 L268 687 L368 180 L478 362 L415 687 L559 687 L588 541 L677 687 L828 687 L624 354 L659 180 L968 687 L1146 687 L726 0 L549 0 L515 175 L408 0 L231 0 L97 687 Z M607 902 L689 745 L590 745 L468 877 L607 902 Z " />
<glyph glyph-name="wgrave" unicode="&#x1e81;" horiz-adv-x="856" d="M69 517 L216 517 L245 206 L409 517 L536 517 L568 206 L727 517 L880 517 L597 0 L459 0 L434 315 L275 0 L138 0 L69 517 Z M458 732 L540 575 L441 575 L319 707 L458 732 Z " />
<glyph glyph-name="Wacute" unicode="&#x1e82;" horiz-adv-x="1080" d="M97 687 L268 687 L368 180 L478 362 L415 687 L559 687 L588 541 L677 687 L828 687 L624 354 L659 180 L968 687 L1146 687 L726 0 L549 0 L515 175 L408 0 L231 0 L97 687 Z M730 902 L865 877 L689 745 L582 745 L730 902 Z " />
<glyph glyph-name="wacute" unicode="&#x1e83;" horiz-adv-x="856" d="M69 517 L216 517 L245 206 L409 517 L536 517 L568 206 L727 517 L880 517 L597 0 L459 0 L434 315 L275 0 L138 0 L69 517 Z M581 732 L716 707 L540 575 L433 575 L581 732 Z " />
<glyph glyph-name="Wdieresis" unicode="&#x1e84;" horiz-adv-x="1080" d="M97 687 L268 687 L368 180 L478 362 L415 687 L559 687 L588 541 L677 687 L828 687 L624 354 L659 180 L968 687 L1146 687 L726 0 L549 0 L515 175 L408 0 L231 0 L97 687 Z M479 820 Q479 854 502.5 876 Q526 898 557 898 Q586 898 605 878 Q624 858 624 830 Q624 797 600 774.5 Q576 752 547 752 Q515 752 497 772 Q479 792 479 820 Z M693 821 Q693 854 717 876 Q741 898 771 898 Q801 898 819.5 878 Q838 858 838 830 Q838 797 814 774.5 Q790 752 761 752 Q730 752 711.5 772 Q693 792 693 821 Z " />
<glyph glyph-name="wdieresis" unicode="&#x1e85;" horiz-adv-x="856" d="M69 517 L216 517 L245 206 L409 517 L536 517 L568 206 L727 517 L880 517 L597 0 L459 0 L434 315 L275 0 L138 0 L69 517 Z M329 650 Q329 684 352.5 706 Q376 728 407 728 Q436 728 455 708 Q474 688 474 660 Q474 627 450 604.5 Q426 582 397 582 Q365 582 347 602 Q329 622 329 650 Z M543 651 Q543 684 567 706 Q591 728 621 728 Q651 728 669.5 708 Q688 688 688 660 Q688 627 664 604.5 Q640 582 611 582 Q580 582 561.5 602 Q543 622 543 651 Z " />
<glyph glyph-name="uni1EB8" unicode="&#x1eb8;" horiz-adv-x="675" d="M177 687 L710 687 L681 547 L304 547 L279 420 L620 420 L591 280 L248 280 L221 140 L597 140 L567 0 L34 0 L177 687 Z M199 -119 Q199 -85 222.5 -63 Q246 -41 277 -41 Q306 -41 325 -61 Q344 -81 344 -109 Q344 -142 320 -164.5 Q296 -187 267 -187 Q235 -187 217 -167 Q199 -147 199 -119 Z " />
<glyph glyph-name="uni1EB9" unicode="&#x1eb9;" horiz-adv-x="563" d="M253 -12 Q201 -12 158.5 4 Q116 20 86 49 Q56 78 39.5 118.5 Q23 159 23 208 Q23 274 48.5 332 Q74 390 117.5 434 Q161 478 219 503.5 Q277 529 342 529 Q384 529 420 519 Q456 509 482.5 490 Q509 471 524 445 Q539 419 539 387 Q539 306 472.5 261 Q406 216 286 219 L156 219 L156 212 Q156 163 182 134.5 Q208 106 255 106 Q294 106 333 121.5 Q372 137 401 160 L476 64 Q455 46 428 32 Q401 18 371 8 Q341 -2 310.5 -7 Q280 -12 253 -12 Z M120 -148 Q120 -114 143.5 -92 Q167 -70 198 -70 Q227 -70 246 -90 Q265 -110 265 -138 Q265 -171 241 -193.5 Q217 -216 188 -216 Q156 -216 138 -196 Q120 -176 120 -148 Z M305 308 Q355 308 382.5 323.5 Q410 339 411 367 Q411 387 390 399 Q369 411 337 411 Q286 411 245 381.5 Q204 352 181 308 L305 308 Z " />
<glyph glyph-name="uni1EBC" unicode="&#x1ebc;" horiz-adv-x="681" d="M177 687 L710 687 L681 547 L304 547 L279 420 L620 420 L591 280 L248 280 L221 140 L597 140 L567 0 L34 0 L177 687 Z M277 758 Q298 824 328.5 855 Q359 886 406 886 Q429 886 447 878 Q465 870 479.5 861 Q494 852 506 844 Q518 836 528 836 Q548 836 563.5 851.5 Q579 867 589 893 L662 870 Q641 803 610 772.5 Q579 742 533 742 Q510 742 491.5 750 Q473 758 458.5 767 Q444 776 432.5 784 Q421 792 411 792 Q391 792 375.5 777 Q360 762 349 735 L277 758 Z " />
<glyph glyph-name="uni1EBD" unicode="&#x1ebd;" horiz-adv-x="545" d="M253 -12 Q201 -12 158.5 4 Q116 20 86 49 Q56 78 39.5 118.5 Q23 159 23 208 Q23 274 48.5 332 Q74 390 117.5 434 Q161 478 219 503.5 Q277 529 342 529 Q384 529 420 519 Q456 509 482.5 490 Q509 471 524 445 Q539 419 539 387 Q539 306 472.5 261 Q406 216 286 219 L156 219 L156 212 Q156 163 182 134.5 Q208 106 255 106 Q294 106 333 121.5 Q372 137 401 160 L476 64 Q455 46 428 32 Q401 18 371 8 Q341 -2 310.5 -7 Q280 -12 253 -12 Z M177 588 Q198 654 228.5 685 Q259 716 306 716 Q329 716 347 708 Q365 700 379.5 691 Q394 682 406 674 Q418 666 428 666 Q448 666 463.5 681.5 Q479 697 489 723 L562 700 Q541 633 510 602.5 Q479 572 433 572 Q410 572 391.5 580 Q373 588 358.5 597 Q344 606 332.5 614 Q321 622 311 622 Q291 622 275.5 607 Q260 592 249 565 L177 588 Z M305 308 Q355 308 382.5 323.5 Q410 339 411 367 Q411 387 390 399 Q369 411 337 411 Q286 411 245 381.5 Q204 352 181 308 L305 308 Z " />
<glyph glyph-name="Ygrave" unicode="&#x1ef2;" horiz-adv-x="727" d="M272 244 L95 687 L242 687 L366 378 L610 687 L788 687 L428 244 L375 0 L218 0 L272 244 Z M416 902 L498 745 L399 745 L277 877 L416 902 Z " />
<glyph glyph-name="ygrave" unicode="&#x1ef3;" horiz-adv-x="557" d="M96 -180 Q61 -180 25.5 -169.5 Q-10 -159 -35 -143 L9 -45 Q26 -56 42 -61 Q58 -66 72 -66 Q92 -66 112 -57 Q132 -48 141 -34 L168 -5 L64 517 L219 517 L275 161 L474 517 L634 517 L312 -28 Q265 -106 210.5 -143 Q156 -180 96 -180 Z M312 732 L394 575 L295 575 L173 707 L312 732 Z " />
<glyph glyph-name="uni2002" unicode="&#x2002;" horiz-adv-x="507" d="" />
<glyph glyph-name="uni2003" unicode="&#x2003;" horiz-adv-x="1007" d="" />
<glyph glyph-name="uni2004" unicode="&#x2004;" horiz-adv-x="340" d="" />
<glyph glyph-name="uni2005" unicode="&#x2005;" horiz-adv-x="257" d="" />
<glyph glyph-name="uni2006" unicode="&#x2006;" horiz-adv-x="173" d="" />
<glyph glyph-name="endash" unicode="&#x2013;" horiz-adv-x="625" d="M88 340 L570 340 L544 212 L61 212 L88 340 Z " />
<glyph glyph-name="emdash" unicode="&#x2014;" horiz-adv-x="930" d="M88 340 L875 340 L849 212 L61 212 L88 340 Z " />
<glyph glyph-name="quoteleft" unicode="&#x2018;" horiz-adv-x="310" d="M309 648 Q280 627 257.5 602 Q235 577 220 552 Q252 552 273.5 530.5 Q295 509 295 474 Q295 452 286 433 Q277 414 263 399.5 Q249 385 230.5 376.5 Q212 368 192 368 Q152 368 130 396 Q108 424 108 469 Q108 502 119.5 533 Q131 564 151.5 592.5 Q172 621 198.5 647.5 Q225 674 255 698 L309 648 Z " />
<glyph glyph-name="quoteright" unicode="&#x2019;" horiz-adv-x="309" d="M114 415 Q143 436 165.5 461 Q188 486 203 511 Q171 511 149.5 532.5 Q128 554 128 589 Q128 611 137 630 Q146 649 160 663.5 Q174 678 193 686.5 Q212 695 231 695 Q271 695 293 667 Q315 639 315 594 Q315 561 303.5 530 Q292 499 271.5 470.5 Q251 442 224.5 415.5 Q198 389 168 365 L114 415 Z " />
<glyph glyph-name="quotedblleft" unicode="&#x201c;" horiz-adv-x="576" d="M308 642 Q279 621 256.5 596 Q234 571 219 546 Q251 546 272.5 524.5 Q294 503 294 468 Q294 446 285 427 Q276 408 262 393.5 Q248 379 229.5 370.5 Q211 362 191 362 Q151 362 129 390 Q107 418 107 463 Q107 496 118.5 527 Q130 558 150.5 586.5 Q171 615 197.5 641.5 Q224 668 254 692 L308 642 Z M373 463 Q373 496 384.5 527 Q396 558 416.5 586.5 Q437 615 463.5 641.5 Q490 668 520 692 L574 642 Q545 621 522.5 596 Q500 571 485 546 Q517 546 538.5 524.5 Q560 503 560 468 Q560 446 551 427 Q542 408 528 393.5 Q514 379 495.5 370.5 Q477 362 457 362 Q417 362 395 390 Q373 418 373 463 Z " />
<glyph glyph-name="quotedblright" unicode="&#x201d;" horiz-adv-x="576" d="M114 415 Q143 436 165.5 461 Q188 486 203 511 Q171 511 149.5 532.5 Q128 554 128 589 Q128 611 137 630 Q146 649 160 663.5 Q174 678 193 686.5 Q212 695 231 695 Q271 695 293 667 Q315 639 315 594 Q315 561 303.5 530 Q292 499 271.5 470.5 Q251 442 224.5 415.5 Q198 389 168 365 L114 415 Z M381 415 Q410 436 432.5 461 Q455 486 470 511 Q438 511 416.5 532.5 Q395 554 395 589 Q395 611 404 630 Q413 649 427 663.5 Q441 678 460 686.5 Q479 695 498 695 Q538 695 560 667 Q582 639 582 594 Q582 561 570.5 530 Q559 499 538.5 470.5 Q518 442 491.5 415.5 Q465 389 435 365 L381 415 Z " />
<glyph glyph-name="quotedblbase" unicode="&#x201e;" horiz-adv-x="607" d="M19 -102 Q48 -81 70.5 -56 Q93 -31 108 -6 Q76 -6 54.5 15.5 Q33 37 33 72 Q33 94 42 113 Q51 132 65 146.5 Q79 161 98 169.5 Q117 178 136 178 Q176 178 198 150 Q220 122 220 77 Q220 44 208.5 13 Q197 -18 176.5 -46.5 Q156 -75 129.5 -101.5 Q103 -128 73 -152 L19 -102 Z " />
<glyph glyph-name="bullet" unicode="&#x2022;" horiz-adv-x="426" d="M203 158 Q149 158 115 192.5 Q81 227 81 279 Q81 311 94 339.5 Q107 368 129 389.5 Q151 411 180 424 Q209 437 241 437 Q268 437 290 427.5 Q312 418 328 402 Q344 386 353 364 Q362 342 362 316 Q362 285 349 256.5 Q336 228 314 206 Q292 184 263.5 171 Q235 158 203 158 Z " />
<glyph glyph-name="ellipsis" unicode="&#x2026;" horiz-adv-x="881" d="M129 -12 Q90 -12 66.5 13 Q43 38 43 74 Q43 97 52 116 Q61 135 75.5 148.5 Q90 162 109 170 Q128 178 149 178 Q186 178 209 153.5 Q232 129 232 94 Q232 72 223.5 53 Q215 34 200.5 19.5 Q186 5 167.5 -3.5 Q149 -12 129 -12 Z M310 74 Q310 97 319 116 Q328 135 342.5 148.5 Q357 162 376 170 Q395 178 416 178 Q453 178 476 153.5 Q499 129 499 94 Q499 72 490.5 53 Q482 34 467.5 19.5 Q453 5 434.5 -3.5 Q416 -12 396 -12 Q357 -12 333.5 13 Q310 38 310 74 Z M576 74 Q576 97 585 116 Q594 135 608.5 148.5 Q623 162 642 170 Q661 178 682 178 Q719 178 742 153.5 Q765 129 765 94 Q765 72 756.5 53 Q748 34 733.5 19.5 Q719 5 700.5 -3.5 Q682 -12 662 -12 Q623 -12 599.5 13 Q576 38 576 74 Z " />
<glyph glyph-name="uni202F" unicode="&#x202f;" horiz-adv-x="278" d="" />
<glyph glyph-name="perthousand" unicode="&#x2030;" horiz-adv-x="1282" d="M714 687 L838 687 L216 0 L92 0 L714 687 Z M109 486 Q109 528 124.5 566 Q140 604 167 632.5 Q194 661 231 677.5 Q268 694 310 694 Q381 694 420 652 Q459 610 459 548 Q459 506 443.5 468.5 Q428 431 400.5 403 Q373 375 336 358.5 Q299 342 257 342 Q187 342 148 382.5 Q109 423 109 486 Z M209 483 Q209 458 221.5 444.5 Q234 431 256 431 Q278 431 297 442 Q316 453 329.5 470 Q343 487 351 508.5 Q359 530 359 551 Q359 576 346.5 590 Q334 604 312 604 Q290 604 271 593 Q252 582 238 564.5 Q224 547 216.5 525.5 Q209 504 209 483 Z M468 135 Q468 176 483.5 213.5 Q499 251 526.5 279.5 Q554 308 591 325 Q628 342 670 342 Q741 342 779.5 300 Q818 258 818 196 Q818 155 802.5 117.5 Q787 80 759.5 51.5 Q732 23 695.5 6 Q659 -11 617 -11 Q547 -11 507.5 30.5 Q468 72 468 135 Z M568 131 Q568 106 580.5 92.5 Q593 79 616 79 Q639 79 657.5 90 Q676 101 690 118.5 Q704 136 711.5 157.5 Q719 179 719 200 Q719 225 706 238.5 Q693 252 671 252 Q649 252 630 241.5 Q611 231 597.5 213.5 Q584 196 576 174.5 Q568 153 568 131 Z M857 135 Q857 176 873 213.5 Q889 251 916.5 279.5 Q944 308 981 325 Q1018 342 1060 342 Q1131 342 1169.5 300 Q1208 258 1208 196 Q1208 155 1192.5 117.5 Q1177 80 1149.5 51.5 Q1122 23 1085.5 6 Q1049 -11 1007 -11 Q936 -11 896.5 30.5 Q857 72 857 135 Z M957 131 Q957 106 969.5 92.5 Q982 79 1005 79 Q1028 79 1047 90 Q1066 101 1079.5 118.5 Q1093 136 1101 157.5 Q1109 179 1109 200 Q1109 225 1095.5 238.5 Q1082 252 1061 252 Q1039 252 1019.5 241.5 Q1000 231 986.5 213.5 Q973 196 965 174.5 Q957 153 957 131 Z " />
<glyph glyph-name="guilsinglleft" unicode="&#x2039;" horiz-adv-x="357" d="M31 254 L236 457 L354 432 L174 255 L277 76 L155 49 L31 254 Z " />
<glyph glyph-name="guilsinglright" unicode="&#x203a;" horiz-adv-x="357" d="M2 76 L183 255 L79 432 L198 457 L323 254 L117 49 L2 76 Z " />
<glyph glyph-name="Euro" unicode="&#x20ac;" horiz-adv-x="792" d="M82 317 L121 317 Q123 334 125 350 Q127 366 132 382 L95 382 L111 456 L160 456 Q187 509 228 553.5 Q269 598 320 630 Q371 662 430 680.5 Q489 699 552 699 Q631 699 699 665 Q767 631 807 579 L680 487 Q660 518 623 538 Q586 558 541 558 Q481 558 428 530 Q375 502 338 456 L587 456 L571 382 L295 382 Q289 366 285 350 Q281 334 279 317 L558 317 L543 243 L286 243 Q302 191 345 160 Q388 129 439 129 Q460 129 483.5 135 Q507 141 530 151.5 Q553 162 575 177 Q597 192 615 210 L712 100 Q684 75 649 54.5 Q614 34 576 19 Q538 4 499.5 -4 Q461 -12 425 -12 Q369 -12 318 7.5 Q267 27 227 61 Q187 95 160 141.5 Q133 188 124 243 L67 243 L82 317 Z " />
<glyph glyph-name="trademark" unicode="&#x2122;" horiz-adv-x="805" d="M200 498 L118 498 L135 580 L388 580 L372 498 L290 498 L244 280 L155 280 L200 498 Z M427 580 L517 580 L569 448 L676 580 L766 580 L704 280 L614 280 L645 429 L538 297 L486 429 L455 280 L365 280 L427 580 Z " />
<glyph glyph-name="minus" unicode="&#x2212;" horiz-adv-x="696" d="M134 396 L619 396 L593 272 L108 272 L134 396 Z " />
<glyph glyph-name="uniF000" unicode="&#xf000;" horiz-adv-x="957" d="M59 234 Q45 242 50 258 L207 736 Q208 741 212.5 744.5 Q217 748 222 750 L227 751 Q231 753 235.5 750 Q240 747 242 743 L474 472 Q475 470 477 470 Q479 470 480 472 L712 743 Q714 747 718.5 750 Q723 753 727 751 L732 750 Q737 748 741.5 744.5 Q746 741 747 736 L904 258 Q909 242 895 234 L489 -67 Q477 -76 465 -67 L59 234 Z " />
<glyph glyph-name="uniF001" unicode="&#xf001;" horiz-adv-x="2828" d="M1044 -113 Q1005 -113 992.5 -104.5 Q980 -96 980 -91 Q980 -87 983 -84.5 Q986 -82 992.5 -80 Q999 -78 1009.5 -73.5 Q1020 -69 1036 -60 Q1051 -53 1068.5 -43.5 Q1086 -34 1107.5 -17.5 Q1129 -1 1156 24 Q1183 49 1217 86 Q1250 123 1275.5 155.5 Q1301 188 1319 212.5 Q1337 237 1347.5 252.5 Q1358 268 1360 271 L1172 534 L1246 534 Q1278 534 1297 533 Q1316 532 1329.5 526 Q1343 520 1355 507 Q1367 494 1384 470 L1441 387 Q1446 390 1457.5 404 Q1469 418 1487 439 Q1505 460 1528 485 Q1551 510 1578 534 Q1617 567 1655.5 589.5 Q1694 612 1728.5 625.5 Q1763 639 1792 645 Q1821 651 1841 651 Q1881 651 1893 642 Q1905 633 1905 628 Q1905 619 1891 617.5 Q1877 616 1849 602 Q1835 595 1817.5 584.5 Q1800 574 1778 557 Q1756 540 1729 514.5 Q1702 489 1669 451 Q1637 417 1611.5 386 Q1586 355 1567.5 331 Q1549 307 1538 291.5 Q1527 276 1524 271 L1724 -8 L1611 -8 Q1591 -8 1576 -2 Q1561 4 1550 13.5 Q1539 23 1530 34.5 Q1521 46 1513 57 L1441 154 Q1440 152 1429.5 137.5 Q1419 123 1401.5 101.5 Q1384 80 1360.5 54.5 Q1337 29 1308 3 Q1268 -31 1229.5 -53 Q1191 -75 1156.5 -88.5 Q1122 -102 1093 -107.5 Q1064 -113 1044 -113 Z M107 534 L178 534 L178 590 Q178 620 191.5 649.5 Q205 679 229 702.5 Q253 726 286.5 741 Q320 756 360 756 Q392 756 420.5 747 Q449 738 470 727 Q494 714 515 698 L484 628 Q474 632 462 636 Q451 639 438.5 641.5 Q426 644 411 644 Q380 644 354.5 628.5 Q329 613 329 582 L329 534 L446 534 L446 410 L329 410 L329 27 Q329 15 324.5 9.5 Q320 4 303 -8 Q286 -16 259.5 -27.5 Q233 -39 212 -42 Q193 -47 185.5 -45 Q178 -43 178 -23 L178 410 L107 410 L107 534 Z M522 264 Q522 331 548 384 Q574 437 616 473.5 Q658 510 711 529.5 Q764 549 818 549 Q871 549 923 529 Q975 509 1017 472 Q1059 435 1085 382.5 Q1111 330 1111 264 Q1111 207 1089.5 156 Q1068 105 1029.5 66 Q991 27 937 4 Q883 -19 818 -19 Q756 -19 702 2.5 Q648 24 608 62.5 Q568 101 545 152.5 Q522 204 522 264 Z M667 264 Q667 231 679.5 203 Q692 175 712.5 154 Q733 133 760.5 121 Q788 109 818 109 Q840 109 865.5 119 Q891 129 913 148.5 Q935 168 949.5 197 Q964 226 964 264 Q964 300 951.5 328.5 Q939 357 919 376.5 Q899 396 872.5 406.5 Q846 417 818 417 Q779 417 751 403.5 Q723 390 704 368 Q685 346 676 318.5 Q667 291 667 264 Z M1787 154 Q1787 198 1806 231.5 Q1825 265 1857 288 Q1889 311 1930 323 Q1971 335 2015 335 Q2049 335 2084 327 Q2119 319 2154 306 L2154 317 Q2154 367 2118.5 395.5 Q2083 424 2025 424 Q1995 424 1959 415.5 Q1923 407 1886 387 L1845 466 Q1876 500 1925.5 523 Q1975 546 2062 549 Q2121 549 2165 530 Q2209 511 2239 479 Q2269 447 2284 405 Q2299 363 2299 317 L2299 -8 L2154 -8 L2154 49 Q2122 11 2079.5 -4 Q2037 -19 1992 -19 Q1951 -19 1913.5 -7.5 Q1876 4 1848 26.5 Q1820 49 1803.5 81 Q1787 113 1787 154 Z M1935 157 Q1935 121 1962.5 103.5 Q1990 86 2025 86 Q2071 86 2106 104.5 Q2141 123 2154 166 L2154 215 Q2125 223 2097 228 Q2069 233 2037 233 Q2019 233 2001 228.5 Q1983 224 1968.5 214.5 Q1954 205 1944.5 190.5 Q1935 176 1935 157 Z M2439 534 L2593 534 L2593 443 Q2605 466 2623 485 Q2641 504 2663 518.5 Q2685 533 2710 541 Q2735 549 2760 549 Q2779 549 2798.5 545.5 Q2818 542 2835 534 L2794 410 Q2779 415 2764.5 418.5 Q2750 422 2736 422 Q2704 422 2677.5 409.5 Q2651 397 2632.5 376 Q2614 355 2603.5 326.5 Q2593 298 2593 266 L2593 -8 L2439 -8 L2439 534 Z " />
<glyph glyph-name="uniF002" unicode="&#xf002;" horiz-adv-x="3819" d="M59 234 Q45 242 50 258 L207 736 Q208 741 212.5 744.5 Q217 748 222 750 L227 751 Q231 753 235.5 750 Q240 747 242 743 L474 472 Q475 470 477 470 Q479 470 480 472 L712 743 Q714 747 718.5 750 Q723 753 727 751 L732 750 Q737 748 741.5 744.5 Q746 741 747 736 L904 258 Q909 242 895 234 L489 -67 Q477 -76 465 -67 L59 234 Z M1098 534 L1169 534 L1169 590 Q1169 620 1182.5 649.5 Q1196 679 1220 702.5 Q1244 726 1277.5 741 Q1311 756 1351 756 Q1383 756 1411.5 747 Q1440 738 1461 727 Q1485 714 1506 698 L1475 628 Q1465 632 1453 636 Q1442 639 1429.5 641.5 Q1417 644 1402 644 Q1371 644 1345.5 628.5 Q1320 613 1320 582 L1320 534 L1437 534 L1437 410 L1320 410 L1320 27 Q1320 15 1315.5 9.5 Q1311 4 1294 -8 Q1277 -16 1250.5 -27.5 Q1224 -39 1203 -42 Q1184 -47 1176.5 -45 Q1169 -43 1169 -23 L1169 410 L1098 410 L1098 534 Z M1513 264 Q1513 331 1539 384 Q1565 437 1607 473.5 Q1649 510 1702 529.5 Q1755 549 1809 549 Q1862 549 1914 529 Q1966 509 2008 472 Q2050 435 2076 382.5 Q2102 330 2102 264 Q2102 207 2080.5 156 Q2059 105 2020.5 66 Q1982 27 1928 4 Q1874 -19 1809 -19 Q1747 -19 1693 2.5 Q1639 24 1599 62.5 Q1559 101 1536 152.5 Q1513 204 1513 264 Z M1658 264 Q1658 231 1670.5 203 Q1683 175 1703.5 154 Q1724 133 1751.5 121 Q1779 109 1809 109 Q1831 109 1856.5 119 Q1882 129 1904 148.5 Q1926 168 1940.5 197 Q1955 226 1955 264 Q1955 300 1942.5 328.5 Q1930 357 1910 376.5 Q1890 396 1863.5 406.5 Q1837 417 1809 417 Q1770 417 1742 403.5 Q1714 390 1695 368 Q1676 346 1667 318.5 Q1658 291 1658 264 Z M1971 -91 Q1971 -87 1974 -84.5 Q1977 -82 1983.5 -80 Q1990 -78 2000.5 -73.5 Q2011 -69 2027 -60 Q2042 -53 2059.5 -43.5 Q2077 -34 2098.5 -17.5 Q2120 -1 2147 24 Q2174 49 2208 86 Q2241 123 2266.5 155.5 Q2292 188 2310 212.5 Q2328 237 2338.5 252.5 Q2349 268 2351 271 L2163 534 L2237 534 Q2269 534 2288 533 Q2307 532 2320.5 526 Q2334 520 2346 507 Q2358 494 2375 470 L2432 387 Q2437 390 2448.5 404 Q2460 418 2478 439 Q2496 460 2519 485 Q2542 510 2569 534 Q2608 567 2646.5 589.5 Q2685 612 2719.5 625.5 Q2754 639 2783 645 Q2812 651 2832 651 Q2872 651 2884 642 Q2896 633 2896 628 Q2896 619 2882 617.5 Q2868 616 2840 602 Q2826 595 2808.5 584.5 Q2791 574 2769 557 Q2747 540 2720 514.5 Q2693 489 2660 451 Q2628 417 2602.5 386 Q2577 355 2558.5 331 Q2540 307 2529 291.5 Q2518 276 2515 271 L2715 -8 L2602 -8 Q2582 -8 2567 -2 Q2552 4 2541 13.5 Q2530 23 2521 34.5 Q2512 46 2504 57 L2432 154 Q2431 152 2420.5 137.5 Q2410 123 2392.5 101.5 Q2375 80 2351.5 54.5 Q2328 29 2299 3 Q2259 -31 2220.5 -53 Q2182 -75 2147.5 -88.5 Q2113 -102 2084 -107.5 Q2055 -113 2035 -113 Q1996 -113 1983.5 -104.5 Q1971 -96 1971 -91 Z M2778 154 Q2778 198 2797 231.5 Q2816 265 2848 288 Q2880 311 2921 323 Q2962 335 3006 335 Q3040 335 3075 327 Q3110 319 3145 306 L3145 317 Q3145 367 3109.5 395.5 Q3074 424 3016 424 Q2986 424 2950 415.5 Q2914 407 2877 387 L2836 466 Q2867 500 2916.5 523 Q2966 546 3053 549 Q3112 549 3156 530 Q3200 511 3230 479 Q3260 447 3275 405 Q3290 363 3290 317 L3290 -8 L3145 -8 L3145 49 Q3113 11 3070.5 -4 Q3028 -19 2983 -19 Q2942 -19 2904.5 -7.5 Q2867 4 2839 26.5 Q2811 49 2794.5 81 Q2778 113 2778 154 Z M2926 157 Q2926 121 2953.5 103.5 Q2981 86 3016 86 Q3062 86 3097 104.5 Q3132 123 3145 166 L3145 215 Q3116 223 3088 228 Q3060 233 3028 233 Q3010 233 2992 228.5 Q2974 224 2959.5 214.5 Q2945 205 2935.5 190.5 Q2926 176 2926 157 Z M3430 534 L3584 534 L3584 443 Q3596 466 3614 485 Q3632 504 3654 518.5 Q3676 533 3701 541 Q3726 549 3751 549 Q3770 549 3789.5 545.5 Q3809 542 3826 534 L3785 410 Q3770 415 3755.5 418.5 Q3741 422 3727 422 Q3695 422 3668.5 409.5 Q3642 397 3623.5 376 Q3605 355 3594.5 326.5 Q3584 298 3584 266 L3584 -8 L3430 -8 L3430 534 Z " />
<glyph glyph-name="uniF003" unicode="&#xf003;" horiz-adv-x="944" d="M195 447 Q186 452 190 461 L283 744 Q283 749 292 753 L295 753 Q297 754 299.5 752.5 Q302 751 303 749 L441 588 Q443 584 445 588 L582 749 Q584 751 586.5 752.5 Q589 754 591 753 L594 753 Q602 749 603 744 L696 461 Q700 452 691 447 L450 268 Q443 263 436 268 L195 447 Z M31 168 L53 168 L53 186 Q53 204 68.5 220.5 Q84 237 109 237 Q119 237 128 234 Q137 231 143 228 Q151 224 157 219 L148 197 Q145 198 141 200 Q138 201 134 201.5 Q130 202 125 202 Q116 202 108 197.5 Q100 193 100 183 L100 168 L136 168 L136 130 L100 130 L100 11 Q100 7 98.5 5.5 Q97 4 92 1 Q87 -2 78.5 -5.5 Q70 -9 64 -10 Q58 -12 55.5 -11 Q53 -10 53 -4 L53 130 L31 130 L31 168 Z M160 85 Q160 106 168 122 Q176 138 189 149.5 Q202 161 218.5 167 Q235 173 251 173 Q268 173 284 167 Q300 161 313 149.5 Q326 138 334 121.5 Q342 105 342 85 Q342 50 317 23.5 Q292 -3 251 -3 Q213 -3 186.5 22 Q160 47 160 85 Z M204 85 Q204 65 218 51 Q232 37 251 37 Q265 37 280.5 49 Q296 61 296 85 Q296 107 282 119.5 Q268 132 251 132 Q227 132 215.5 117 Q204 102 204 85 Z M301 -25 Q301 -22 305 -21.5 Q309 -21 319 -16 Q328 -11 341 -2 Q354 7 375 30 Q395 53 406 69 Q417 85 419 87 L361 168 L384 168 Q404 168 409.5 166 Q415 164 426 148 L444 123 Q447 125 458 139 Q469 153 486 168 Q511 189 533 196.5 Q555 204 568 204 Q580 204 584 201.5 Q588 199 588 197 Q588 195 583.5 194.5 Q579 194 570 189 Q562 184 548.5 175 Q535 166 515 143 Q495 121 483.5 105.5 Q472 90 470 87 L532 1 L497 1 Q484 1 477.5 7.5 Q471 14 466 21 L444 51 Q443 49 431.5 34.5 Q420 20 403 4 Q378 -17 356 -24.5 Q334 -32 321 -32 Q309 -32 305 -29.5 Q301 -27 301 -25 Z M551 51 Q551 78 572.5 92.5 Q594 107 622 107 Q633 107 643.5 104.5 Q654 102 665 98 L665 101 Q665 117 654 125.5 Q643 134 625 134 Q615 134 604 131.5 Q593 129 582 123 L569 147 Q579 158 594 165 Q609 172 636 173 Q672 173 691 151.5 Q710 130 710 101 L710 1 L665 1 L665 18 Q655 7 642 2 Q629 -3 615 -3 Q589 -3 570 11 Q551 25 551 51 Z M597 52 Q597 41 605.5 35.5 Q614 30 625 30 Q639 30 649.5 35.5 Q660 41 665 54 L665 70 Q645 75 628 75 Q617 75 607 69 Q597 63 597 52 Z M753 168 L801 168 L801 140 Q808 154 822 163.5 Q836 173 852 173 Q858 173 864 172 Q870 171 875 168 L863 130 Q858 132 854 133 Q850 134 845 134 Q825 134 813 119.5 Q801 105 801 85 L801 1 L753 1 L753 168 Z " />
</font>
</svg>
