<?xml version="1.0" encoding="UTF-8"?>
<svg xmlns="http://www.w3.org/2000/svg" xmlns:xlink="http://www.w3.org/1999/xlink" version="1.2" >
<font id="Avenue Regular">
<font-face  font-family="Avenue" units-per-em="1000" ascent="795" descent="-205" font-style="normal" font-weight="400" font-stretch="normal" cap-height="687" x-height="517" underline-position="-133" underline-thickness="20" />
<missing-glyph  horiz-adv-x="500" d="M410 -210 L93 -210 L93 790 L410 790 L410 -210 Z M333 -141 L333 -108 L231 -108 L301 -61 L333 -61 L333 -28 L167 -28 L167 -61 L237 -61 L167 -108 L167 -141 L333 -141 Z M333 -5 L333 108 L167 108 L167 -5 L333 -5 Z M333 168 L333 281 L233 281 L233 225 L267 225 L267 248 L300 248 L300 201 L200 201 L200 281 L167 281 L167 168 L333 168 Z M333 303 L333 403 L300 403 L300 337 L167 337 L167 303 L333 303 Z M267 360 L267 430 L333 430 L333 463 L167 463 L167 430 L233 430 L233 393 L167 393 L167 360 L267 360 Z M333 490 L333 524 L267 524 L267 594 L167 594 L167 490 L333 490 Z M333 620 L333 653 L267 653 L267 690 L333 690 L333 723 L168 723 L168 690 L233 690 L233 653 L167 653 L167 620 L333 620 Z M200 75 L300 75 L300 28 L200 28 L200 75 Z M200 560 L233 560 L233 524 L200 524 L200 560 Z " />
<glyph glyph-name="null" d="" />
<glyph glyph-name="nonmarkingreturn" unicode="&#xd;" horiz-adv-x="250" d="" />
<glyph glyph-name="&amp;#x20;" unicode="&#x20;" horiz-adv-x="274" d="" />
<glyph glyph-name="&amp;#xa0;" unicode="&#xa0;" horiz-adv-x="274" d="" />
<glyph glyph-name="exclam" unicode="&#x21;" horiz-adv-x="321" d="M105 687 L217 687 L193 207 L128 207 L105 687 Z M95 54 Q95 79 114 98 Q133 117 161 117 Q187 117 205.5 98 Q224 79 224 54 Q224 27 205.5 7.5 Q187 -12 161 -12 Q133 -12 114 7.5 Q95 27 95 54 Z " />
<glyph glyph-name="quotedbl" unicode="&#x22;" horiz-adv-x="476" d="M116 419 Q112 443 106.5 471 Q101 499 96 526.5 Q91 554 88 580 Q85 606 85 625 Q85 648 101 664 Q117 680 140 680 Q162 680 178 664 Q194 648 194 625 Q194 606 191 580 Q188 554 183.5 526.5 Q179 499 174 471 Q169 443 164 419 L116 419 Z M282 625 Q282 648 298 664 Q314 680 337 680 Q359 680 375 664 Q391 648 391 625 Q391 606 388 580 Q385 554 380.5 526.5 Q376 499 371 471 Q366 443 361 419 L313 419 Q309 443 303.5 471 Q298 499 293 526.5 Q288 554 285 580 Q282 606 282 625 Z " />
<glyph glyph-name="numbersign" unicode="&#x23;" horiz-adv-x="691" d="M154 174 L46 174 L64 247 L172 247 L221 439 L111 439 L129 512 L239 512 L283 687 L360 687 L316 512 L457 512 L501 687 L578 687 L534 512 L646 512 L628 439 L516 439 L467 247 L579 247 L561 174 L449 174 L405 0 L328 0 L372 174 L231 174 L187 0 L110 0 L154 174 Z M390 247 L439 439 L298 439 L249 247 L390 247 Z " />
<glyph glyph-name="dollar" unicode="&#x24;" horiz-adv-x="667" d="M309 -9 Q235 -3 174.5 25 Q114 53 66 99 L125 171 Q163 135 208 110 Q253 85 309 78 L309 304 Q260 316 219.5 331.5 Q179 347 151 369.5 Q123 392 107.5 423 Q92 454 92 499 Q92 540 108 575 Q124 610 153 636.5 Q182 663 221.5 679 Q261 695 309 698 L309 759 L378 759 L378 696 Q438 688 487 663.5 Q536 639 577 602 L521 528 Q489 558 452.5 578.5 Q416 599 378 607 L378 390 Q426 378 466.5 362.5 Q507 347 535.5 324 Q564 301 580 269 Q596 237 596 192 Q596 152 582 117 Q568 82 540.5 55 Q513 28 472 11 Q431 -6 378 -10 L378 -74 L309 -74 L309 -9 Z M190 507 Q190 467 220 445.5 Q250 424 309 407 L309 612 Q256 608 223 577.5 Q190 547 190 507 Z M378 76 Q438 83 467.5 114 Q497 145 497 183 Q497 225 467.5 247.5 Q438 270 378 287 L378 76 Z " />
<glyph glyph-name="percent" unicode="&#x25;" horiz-adv-x="850" d="M619 687 L706 687 L233 0 L146 0 L619 687 Z M61 519 Q61 556 73 587.5 Q85 619 106.5 642.5 Q128 666 158 679.5 Q188 693 224 693 Q260 693 290 679.5 Q320 666 341.5 642.5 Q363 619 374.5 587.5 Q386 556 386 520 Q386 484 374 452 Q362 420 340.5 397 Q319 374 289 360.5 Q259 347 223 347 Q187 347 157 360.5 Q127 374 105.5 397.5 Q84 421 72.5 452 Q61 483 61 519 Z M134 519 Q134 472 160 441 Q186 410 224 410 Q263 410 288.5 440.5 Q314 471 314 519 Q314 567 288 598.5 Q262 630 223 630 Q184 630 159 599 Q134 568 134 519 Z M463 163 Q463 199 475 230.5 Q487 262 508.5 285.5 Q530 309 560 322.5 Q590 336 626 336 Q663 336 693 322.5 Q723 309 744.5 285.5 Q766 262 777.5 230.5 Q789 199 789 164 Q789 127 777 95 Q765 63 743 40 Q721 17 691 3.5 Q661 -10 625 -10 Q590 -10 560 3.5 Q530 17 508.5 40 Q487 63 475 94.5 Q463 126 463 163 Z M536 164 Q536 116 561 84.5 Q586 53 626 53 Q666 53 691 84 Q716 115 716 163 Q716 211 690 242 Q664 273 625 273 Q585 273 560.5 242 Q536 211 536 164 Z " />
<glyph glyph-name="ampersand" unicode="&#x26;" horiz-adv-x="712" d="M281 -12 Q234 -12 194 1.5 Q154 15 124.5 40.5 Q95 66 78 102 Q61 138 61 184 Q61 251 98.5 299.5 Q136 348 216 383 Q187 424 173.5 458 Q160 492 160 530 Q160 565 173.5 595 Q187 625 211 647 Q235 669 268.5 682 Q302 695 341 695 Q377 695 408.5 682 Q440 669 462.5 647 Q485 625 498 595.5 Q511 566 511 532 Q511 500 499.5 475 Q488 450 467 430 Q446 410 415.5 393 Q385 376 347 360 Q379 324 413 286 Q447 248 490 203 Q533 267 564 350 L641 315 Q619 267 595.5 224.5 Q572 182 546 145 Q571 119 598.5 90 Q626 61 658 29 L573 -10 L488 77 Q445 35 394.5 11.5 Q344 -12 281 -12 Z M155 188 Q155 160 165.5 137.5 Q176 115 194.5 99 Q213 83 237 75 Q261 67 288 67 Q328 67 364.5 84.5 Q401 102 433 134 Q375 194 334.5 239 Q294 284 261 324 Q210 298 182.5 264.5 Q155 231 155 188 Z M249 530 Q249 480 300 416 Q364 442 393 465.5 Q422 489 422 530 Q422 568 399.5 593 Q377 618 341 618 Q302 618 275.5 595 Q249 572 249 530 Z " />
<glyph glyph-name="quotesingle" unicode="&#x27;" horiz-adv-x="279" d="M116 419 Q112 443 106.5 471 Q101 499 96 526.5 Q91 554 88 580 Q85 606 85 625 Q85 648 101 664 Q117 680 140 680 Q162 680 178 664 Q194 648 194 625 Q194 606 191 580 Q188 554 183.5 526.5 Q179 499 174 471 Q169 443 164 419 L116 419 Z " />
<glyph glyph-name="parenleft" unicode="&#x28;" horiz-adv-x="339" d="M264 -170 Q161 -88 105.5 23 Q50 134 50 265 Q50 397 105.5 507.5 Q161 618 264 700 L313 648 Q233 566 191 475 Q149 384 149 265 Q149 147 191 56 Q233 -35 313 -117 L264 -170 Z " />
<glyph glyph-name="parenright" unicode="&#x29;" horiz-adv-x="339" d="M26 -117 Q107 -35 149 56 Q191 147 191 265 Q191 384 149 475 Q107 566 26 648 L76 700 Q179 618 234 507.5 Q289 397 289 265 Q289 134 234 23 Q179 -88 76 -170 L26 -117 Z " />
<glyph glyph-name="asterisk" unicode="&#x2a;" horiz-adv-x="461" d="M230 368 Q218 368 209.5 375 Q201 382 201 393 Q201 423 208 454 Q215 485 219 515 Q194 497 171 476 Q148 455 122 439 Q113 434 102 437.5 Q91 441 85 452 Q79 463 82 473.5 Q85 484 93 489 Q119 504 149 513.5 Q179 523 208 535 Q179 547 149 556.5 Q119 566 93 581 Q85 586 82 596.5 Q79 607 85 618 Q91 629 102 632.5 Q113 636 122 631 Q148 615 171 594 Q194 573 219 555 Q215 585 208 615.5 Q201 646 201 677 Q201 688 209.5 695 Q218 702 230 702 Q242 702 250.5 695 Q259 688 259 677 Q259 646 252 615.5 Q245 585 241 555 Q266 573 289 594 Q312 615 338 630 Q346 635 357.5 632 Q369 629 375 618 Q381 607 378 596.5 Q375 586 366 581 Q340 566 310.5 556.5 Q281 547 252 535 Q281 523 310.5 513.5 Q340 504 366 489 Q375 484 378 473 Q381 462 375 452 Q369 441 357.5 437.5 Q346 434 338 439 Q312 454 289 475.5 Q266 497 241 515 Q245 485 252 454 Q259 423 259 393 Q259 382 250.5 375 Q242 368 230 368 Z " />
<glyph glyph-name="plus" unicode="&#x2b;" horiz-adv-x="594" d="M64 377 L253 377 L253 567 L342 567 L342 377 L530 377 L530 291 L342 291 L342 102 L253 102 L253 291 L64 291 L64 377 Z " />
<glyph glyph-name="comma" unicode="&#x2c;" horiz-adv-x="318" d="M101 -105 Q144 -59 156 -12 Q130 -12 111 7.5 Q92 27 92 53 Q92 79 110.5 98 Q129 117 157 117 Q189 117 208.5 91 Q228 65 228 24 Q228 -10 209 -46 Q190 -82 143 -137 L101 -105 Z " />
<glyph glyph-name="hyphen" unicode="&#x2d;" horiz-adv-x="426" d="M82 316 L345 316 L345 229 L82 229 L82 316 Z " />
<glyph glyph-name="period" unicode="&#x2e;" horiz-adv-x="329" d="M166 -12 Q138 -12 119 7.5 Q100 27 100 54 Q100 79 119 98 Q138 117 166 117 Q192 117 210.5 98 Q229 79 229 54 Q229 27 210.5 7.5 Q192 -12 166 -12 Z " />
<glyph glyph-name="slash" unicode="&#x2f;" horiz-adv-x="457" d="M351 743 L455 743 L106 -74 L2 -74 L351 743 Z " />
<glyph glyph-name="zero" unicode="0" horiz-adv-x="697" d="M349 -12 Q285 -12 231 14 Q177 40 138.5 87.5 Q100 135 78.5 200.5 Q57 266 57 344 Q57 422 78.5 487 Q100 552 138.5 599.5 Q177 647 231 673 Q285 699 349 699 Q413 699 466.5 673 Q520 647 559 599.5 Q598 552 619.5 487 Q641 422 641 344 Q641 266 619.5 200.5 Q598 135 559 87.5 Q520 40 466.5 14 Q413 -12 349 -12 Z M156 344 Q156 286 170.5 236.5 Q185 187 210.5 152 Q236 117 271.5 97 Q307 77 349 77 Q391 77 426.5 97 Q462 117 487.5 152 Q513 187 527 236.5 Q541 286 541 344 Q541 403 527 451.5 Q513 500 487.5 535.5 Q462 571 426.5 590.5 Q391 610 349 610 Q307 610 271.5 590.5 Q236 571 210.5 535.5 Q185 500 170.5 451.5 Q156 403 156 344 Z " />
<glyph glyph-name="one" unicode="1" horiz-adv-x="377" d="M181 572 L62 495 L21 566 L200 687 L278 687 L278 0 L181 0 L181 572 Z " />
<glyph glyph-name="two" unicode="2" horiz-adv-x="578" d="M36 80 L268 289 Q309 327 336 354.5 Q363 382 378.5 405 Q394 428 400.5 448 Q407 468 407 490 Q407 544 373 577.5 Q339 611 284 611 Q227 611 184 583.5 Q141 556 105 509 L39 566 Q84 629 145 664 Q206 699 288 699 Q336 699 376.5 684 Q417 669 445.5 641.5 Q474 614 490 576 Q506 538 506 492 Q506 463 498.5 435.5 Q491 408 472 378 Q453 348 419.5 312 Q386 276 334 230 L180 91 L523 91 L523 0 L36 0 L36 80 Z " />
<glyph glyph-name="three" unicode="3" horiz-adv-x="592" d="M276 -12 Q191 -12 130 21.5 Q69 55 30 106 L92 169 Q125 127 170 101 Q215 75 276 75 Q310 75 339 85 Q368 95 389 112 Q410 129 422 152.5 Q434 176 434 204 Q434 258 393 289.5 Q352 321 283 321 Q268 321 252 319 Q236 317 221 315 L188 389 L395 599 L71 599 L70 687 L517 687 L517 599 L313 397 Q363 399 403.5 386.5 Q444 374 473 348.5 Q502 323 517.5 285.5 Q533 248 533 201 Q533 155 513.5 116 Q494 77 460 48.5 Q426 20 379 4 Q332 -12 276 -12 Z " />
<glyph glyph-name="four" unicode="4" horiz-adv-x="605" d="M380 160 L39 160 L28 238 L362 687 L477 687 L477 245 L577 245 L577 160 L477 160 L477 0 L380 0 L380 160 Z M380 245 L380 576 L135 245 L380 245 Z " />
<glyph glyph-name="five" unicode="5" horiz-adv-x="601" d="M299 -12 Q218 -12 156.5 18 Q95 48 51 96 L112 166 Q151 124 199 99 Q247 74 302 74 Q336 74 363.5 85 Q391 96 411 114.5 Q431 133 442 158.5 Q453 184 453 214 Q453 274 411 311.5 Q369 349 301 349 Q258 349 221 335 Q184 321 153 298 L84 329 L94 687 L514 687 L514 597 L187 597 L181 388 Q208 406 243 419 Q278 432 324 432 Q371 432 412 417.5 Q453 403 484 375.5 Q515 348 533 308 Q551 268 551 217 Q551 165 532.5 123 Q514 81 480.5 51 Q447 21 401 4.5 Q355 -12 299 -12 Z " />
<glyph glyph-name="six" unicode="6" horiz-adv-x="624" d="M329 -12 Q258 -12 207 14.5 Q156 41 123 87 Q90 133 74.5 196.5 Q59 260 59 333 Q59 411 81 477.5 Q103 544 141.5 593.5 Q180 643 233 671 Q286 699 348 699 Q411 699 459.5 677 Q508 655 547 619 L497 544 Q465 574 430 593 Q395 612 347 612 Q307 612 273 591.5 Q239 571 214 534.5 Q189 498 174.5 448 Q160 398 159 340 Q191 384 240 408.5 Q289 433 346 433 Q393 433 435 418.5 Q477 404 508.5 376.5 Q540 349 558.5 309 Q577 269 577 218 Q577 169 558.5 127 Q540 85 507 54 Q474 23 428.5 5.5 Q383 -12 329 -12 Z M167 239 Q180 165 219 118 Q258 71 326 71 Q362 71 390 83.5 Q418 96 437.5 116 Q457 136 467.5 161.5 Q478 187 478 213 Q478 246 466 271.5 Q454 297 433 315 Q412 333 384 342.5 Q356 352 324 352 Q266 352 223.5 321 Q181 290 167 239 Z " />
<glyph glyph-name="seven" unicode="7" horiz-adv-x="531" d="M387 597 L24 597 L24 687 L502 687 L502 614 L211 0 L100 0 L387 597 Z " />
<glyph glyph-name="eight" unicode="8" horiz-adv-x="628" d="M313 -12 Q259 -12 212 1.5 Q165 15 130.5 40 Q96 65 76 101 Q56 137 56 181 Q56 213 67.5 240 Q79 267 98.5 289 Q118 311 145 328 Q172 345 203 355 Q146 378 110 417 Q74 456 74 516 Q74 560 94 594 Q114 628 147.5 651 Q181 674 224 686.5 Q267 699 313 699 Q361 699 404.5 686.5 Q448 674 481 650 Q514 626 534 592 Q554 558 554 515 Q554 484 543.5 459 Q533 434 515.5 414.5 Q498 395 474.5 380 Q451 365 425 355 Q456 344 482.5 327.5 Q509 311 528.5 289 Q548 267 559.5 240 Q571 213 571 181 Q571 136 551 100.5 Q531 65 496 40 Q461 15 414 1.5 Q367 -12 313 -12 Z M154 189 Q154 164 166.5 142.5 Q179 121 200.5 106 Q222 91 251 82.5 Q280 74 313 74 Q346 74 375.5 82.5 Q405 91 426.5 106 Q448 121 460.5 142.5 Q473 164 473 189 Q473 217 457.5 239 Q442 261 418.5 276.5 Q395 292 367 300.5 Q339 309 313 310 Q288 309 260 300.5 Q232 292 208.5 276.5 Q185 261 169.5 239 Q154 217 154 189 Z M171 505 Q171 478 184.5 457.5 Q198 437 219 423 Q240 409 265 401.5 Q290 394 313 392 Q337 394 362.5 401.5 Q388 409 409 423.5 Q430 438 443.5 458 Q457 478 457 505 Q457 528 446 548 Q435 568 415.5 582.5 Q396 597 369.5 605 Q343 613 313 613 Q283 613 257 605 Q231 597 212 582.5 Q193 568 182 548 Q171 528 171 505 Z " />
<glyph glyph-name="nine" unicode="9" horiz-adv-x="624" d="M295 699 Q366 699 417 672.5 Q468 646 501 600 Q534 554 549.5 491 Q565 428 565 354 Q565 276 543 209.5 Q521 143 482.5 93.5 Q444 44 391 16 Q338 -12 276 -12 Q213 -12 164.5 10 Q116 32 77 68 L127 143 Q159 113 194 94 Q229 75 277 75 Q317 75 351 95.5 Q385 116 410 152.5 Q435 189 449.5 239 Q464 289 465 347 Q433 303 384 278.5 Q335 254 278 254 Q231 254 189 268.5 Q147 283 115.5 310.5 Q84 338 65.5 378 Q47 418 47 469 Q47 518 65.5 560 Q84 602 117 633 Q150 664 195.5 681.5 Q241 699 295 699 Z M146 474 Q146 441 158 415.5 Q170 390 191 372 Q212 354 240 344.5 Q268 335 300 335 Q358 335 400.5 366 Q443 397 457 448 Q444 522 405 569 Q366 616 298 616 Q262 616 234 603.5 Q206 591 186.5 571 Q167 551 156.5 525.5 Q146 500 146 474 Z " />
<glyph glyph-name="colon" unicode="&#x3a;" horiz-adv-x="313" d="M157 388 Q129 388 110.5 407.5 Q92 427 92 454 Q92 479 110.5 498 Q129 517 157 517 Q183 517 201.5 498 Q220 479 220 454 Q220 427 201.5 407.5 Q183 388 157 388 Z M92 54 Q92 79 110.5 98 Q129 117 157 117 Q183 117 201.5 98 Q220 79 220 54 Q220 27 201.5 7.5 Q183 -12 157 -12 Q129 -12 110.5 7.5 Q92 27 92 54 Z " />
<glyph glyph-name="semicolon" unicode="&#x3b;" horiz-adv-x="314" d="M99 -105 Q142 -59 154 -12 Q128 -12 109 7.5 Q90 27 90 53 Q90 79 108.5 98 Q127 117 155 117 Q187 117 206.5 91 Q226 65 226 24 Q226 -10 207 -46 Q188 -82 141 -137 L99 -105 Z M92 454 Q92 479 111 498 Q130 517 158 517 Q184 517 202.5 498 Q221 479 221 454 Q221 427 202.5 407.5 Q184 388 158 388 Q130 388 111 407.5 Q92 427 92 454 Z " />
<glyph glyph-name="less" unicode="&#x3c;" horiz-adv-x="594" d="M59 306 L59 381 L517 601 L517 517 L144 344 L517 171 L517 86 L59 306 Z " />
<glyph glyph-name="equal" unicode="&#x3d;" horiz-adv-x="713" d="M124 489 L590 489 L590 403 L124 403 L124 489 Z M124 267 L590 267 L590 181 L124 181 L124 267 Z " />
<glyph glyph-name="greater" unicode="&#x3e;" horiz-adv-x="594" d="M78 171 L450 344 L78 517 L78 601 L536 381 L536 306 L78 86 L78 171 Z " />
<glyph glyph-name="question" unicode="&#x3f;" horiz-adv-x="526" d="M190 386 Q231 389 265.5 399 Q300 409 325 425 Q350 441 364 461 Q378 481 378 503 Q378 524 369.5 543.5 Q361 563 344.5 578 Q328 593 305 602 Q282 611 253 611 Q202 611 163.5 586.5 Q125 562 94 525 L34 586 Q75 635 131 667 Q187 699 263 699 Q311 699 350.5 684.5 Q390 670 418 645 Q446 620 461.5 585.5 Q477 551 477 512 Q477 479 462.5 447.5 Q448 416 422.5 390.5 Q397 365 361 346 Q325 327 283 318 L283 205 L190 205 L190 386 Z M171 54 Q171 79 190 98 Q209 117 237 117 Q263 117 281.5 98 Q300 79 300 54 Q300 27 281.5 7.5 Q263 -12 237 -12 Q209 -12 190 7.5 Q171 27 171 54 Z " />
<glyph glyph-name="at" unicode="&#x40;" horiz-adv-x="930" d="M452 -116 Q373 -116 303.5 -86 Q234 -56 182 -5 Q130 46 100 114 Q70 182 70 259 Q70 344 103.5 419.5 Q137 495 194 552 Q251 609 327 642 Q403 675 488 675 Q566 675 634 646.5 Q702 618 753 570 Q804 522 833.5 458 Q863 394 863 322 Q863 260 846.5 214 Q830 168 803.5 137.5 Q777 107 743.5 92 Q710 77 676 77 Q628 77 598 100 Q568 123 559 161 Q531 125 491 101 Q451 77 401 77 Q365 77 334 89.5 Q303 102 281 125.5 Q259 149 246.5 181.5 Q234 214 234 253 Q234 305 254 350.5 Q274 396 306 429.5 Q338 463 380 482.5 Q422 502 465 502 Q517 502 550 479 Q583 456 600 424 L613 488 L695 482 Q671 359 656.5 287.5 Q642 216 642 194 Q642 164 659 147.5 Q676 131 705 131 Q726 131 747 141.5 Q768 152 785.5 175.5 Q803 199 814 235 Q825 271 825 322 Q825 387 798.5 444.5 Q772 502 726 545 Q680 588 618 613 Q556 638 486 638 Q409 638 340.5 608 Q272 578 220.5 526.5 Q169 475 139 406 Q109 337 109 260 Q109 191 136 129 Q163 67 210 20.5 Q257 -26 320 -53 Q383 -80 454 -80 Q516 -80 565.5 -65.5 Q615 -51 669 -19 L688 -47 Q631 -83 575.5 -99.5 Q520 -116 452 -116 Z M321 258 Q321 207 349.5 177.5 Q378 148 426 148 Q458 148 484.5 160.5 Q511 173 530.5 195 Q550 217 562 246.5 Q574 276 577 310 Q583 366 558 399 Q533 432 479 432 Q446 432 417.5 418 Q389 404 367.5 380 Q346 356 333.5 324.5 Q321 293 321 258 Z " />
<glyph glyph-name="A" unicode="A" horiz-adv-x="750" d="M726 0 L618 0 L556 145 L195 145 L133 0 L25 0 L322 687 L429 687 L726 0 Z M518 231 L376 563 L233 231 L518 231 Z " />
<glyph glyph-name="B" unicode="B" horiz-adv-x="708" d="M103 687 L427 687 Q470 687 506 674.5 Q542 662 567.5 639 Q593 616 607.5 585 Q622 554 622 516 Q622 462 596.5 426 Q571 390 524 364 Q584 335 617 290 Q650 245 650 188 Q650 147 634.5 112.5 Q619 78 591 53 Q563 28 524.5 14 Q486 0 440 0 L103 0 L103 687 Z M418 86 Q476 86 513 118 Q550 150 550 201 Q550 252 513 284 Q476 316 418 316 L200 316 L200 86 L418 86 Z M403 400 Q456 400 489.5 428 Q523 456 523 500 Q523 545 489.5 573 Q456 601 403 601 L200 601 L200 400 L403 400 Z " />
<glyph glyph-name="C" unicode="C" horiz-adv-x="697" d="M409 -12 Q337 -12 272.5 16.5 Q208 45 159 93.5 Q110 142 81.5 207 Q53 272 53 344 Q53 416 81.5 480.5 Q110 545 159 593.5 Q208 642 272.5 670.5 Q337 699 409 699 Q483 699 548 670.5 Q613 642 661 591 L593 526 Q558 564 510.5 587 Q463 610 409 610 Q357 610 310.5 588.5 Q264 567 229 531 Q194 495 173.5 446.5 Q153 398 153 344 Q153 290 173.5 241.5 Q194 193 229 156.5 Q264 120 310.5 98.5 Q357 77 409 77 Q463 77 510.5 100 Q558 123 594 162 L661 96 Q613 46 548 17 Q483 -12 409 -12 Z " />
<glyph glyph-name="D" unicode="D" horiz-adv-x="771" d="M103 687 L339 687 Q422 687 491.5 661.5 Q561 636 611 590.5 Q661 545 689 482 Q717 419 717 344 Q717 269 689 205.5 Q661 142 611 96.5 Q561 51 491.5 25.5 Q422 0 339 0 L103 0 L103 687 Z M344 89 Q404 89 454.5 108 Q505 127 541.5 160.5 Q578 194 598 241 Q618 288 618 344 Q618 400 598 447 Q578 494 541.5 527.5 Q505 561 454.5 580 Q404 599 344 599 L200 599 L200 89 L344 89 Z " />
<glyph glyph-name="E" unicode="E" horiz-adv-x="662" d="M103 687 L606 687 L606 597 L201 597 L201 395 L567 395 L567 305 L201 305 L201 91 L606 91 L606 0 L103 0 L103 687 Z " />
<glyph glyph-name="F" unicode="F" horiz-adv-x="644" d="M103 687 L606 687 L606 597 L201 597 L201 392 L567 392 L567 302 L201 302 L201 0 L103 0 L103 687 Z " />
<glyph glyph-name="G" unicode="G" horiz-adv-x="751" d="M410 -12 Q338 -12 273 16.5 Q208 45 159 93.5 Q110 142 81.5 207 Q53 272 53 344 Q53 416 81.5 480.5 Q110 545 159 593.5 Q208 642 273 670.5 Q338 699 410 699 Q446 699 484 691.5 Q522 684 557 670 Q592 656 624 636 Q656 616 680 591 L612 526 Q576 564 520 587 Q464 610 410 610 Q358 610 311 588.5 Q264 567 229 531 Q194 495 173.5 446.5 Q153 398 153 344 Q153 290 173.5 241.5 Q194 193 229 156.5 Q264 120 311 98.5 Q358 77 410 77 Q455 77 501 92.5 Q547 108 583 136 L583 283 L397 283 L397 369 L680 369 L680 96 Q656 71 624 51 Q592 31 557 17 Q522 3 484 -4.5 Q446 -12 410 -12 Z " />
<glyph glyph-name="H" unicode="H" horiz-adv-x="780" d="M103 687 L200 687 L200 395 L580 395 L580 687 L677 687 L677 0 L580 0 L580 305 L200 305 L200 0 L103 0 L103 687 Z " />
<glyph glyph-name="I" unicode="I" horiz-adv-x="372" d="M48 94 L137 94 L137 593 L48 593 L48 687 L323 687 L323 593 L235 593 L235 94 L323 94 L323 0 L48 0 L48 94 Z " />
<glyph glyph-name="J" unicode="J" horiz-adv-x="553" d="M239 -12 Q208 -12 176.5 -3.5 Q145 5 116 20 Q87 35 63 56 Q39 77 23 102 L91 169 Q111 128 150.5 102.5 Q190 77 235 77 Q263 77 286.5 88 Q310 99 327.5 119 Q345 139 354.5 166.5 Q364 194 364 227 L364 602 L163 602 L163 687 L461 687 L461 224 Q461 172 444.5 129 Q428 86 398.5 54.5 Q369 23 328.5 5.5 Q288 -12 239 -12 Z " />
<glyph glyph-name="K" unicode="K" horiz-adv-x="695" d="M103 687 L200 687 L200 325 L529 687 L653 687 L370 378 L672 0 L549 0 L302 310 L200 202 L200 0 L103 0 L103 687 Z " />
<glyph glyph-name="L" unicode="L" horiz-adv-x="593" d="M103 687 L200 687 L200 91 L566 91 L566 0 L103 0 L103 687 Z " />
<glyph glyph-name="M" unicode="M" horiz-adv-x="970" d="M145 687 L242 687 L485 233 L728 687 L826 687 L906 0 L808 0 L746 526 L485 40 L224 526 L162 0 L65 0 L145 687 Z " />
<glyph glyph-name="N" unicode="N" horiz-adv-x="800" d="M103 687 L200 687 L600 160 L600 687 L697 687 L697 0 L600 0 L200 527 L200 0 L103 0 L103 687 Z " />
<glyph glyph-name="O" unicode="O" horiz-adv-x="818" d="M409 -12 Q337 -12 272.5 16.5 Q208 45 159 93.5 Q110 142 81.5 207 Q53 272 53 344 Q53 416 81.5 480.5 Q110 545 159 593.5 Q208 642 272.5 670.5 Q337 699 409 699 Q481 699 545.5 670.5 Q610 642 658.5 593.5 Q707 545 735.5 480.5 Q764 416 764 344 Q764 272 735.5 207 Q707 142 658.5 93.5 Q610 45 545.5 16.5 Q481 -12 409 -12 Z M153 344 Q153 290 173.5 241.5 Q194 193 229 156.5 Q264 120 310.5 98.5 Q357 77 409 77 Q461 77 507.5 98.5 Q554 120 589 156.5 Q624 193 644.5 241.5 Q665 290 665 344 Q665 398 644.5 446.5 Q624 495 589 531 Q554 567 507.5 588.5 Q461 610 409 610 Q357 610 310.5 588.5 Q264 567 229 531 Q194 495 173.5 446.5 Q153 398 153 344 Z " />
<glyph glyph-name="P" unicode="P" horiz-adv-x="643" d="M103 687 L345 687 Q399 687 445.5 670.5 Q492 654 526.5 624.5 Q561 595 580.5 554 Q600 513 600 464 Q600 415 580.5 374 Q561 333 526.5 303 Q492 273 445.5 256.5 Q399 240 345 240 L200 240 L200 0 L103 0 L103 687 Z M331 331 Q407 331 454 366 Q501 401 501 464 Q501 527 454 561.5 Q407 596 331 596 L200 596 L200 331 L331 331 Z " />
<glyph glyph-name="Q" unicode="Q" horiz-adv-x="829" d="M409 -12 Q337 -12 272.5 16.5 Q208 45 159 93.5 Q110 142 81.5 207 Q53 272 53 344 Q53 416 81.5 480.5 Q110 545 159 593.5 Q208 642 272.5 670.5 Q337 699 409 699 Q481 699 545.5 670.5 Q610 642 658.5 593.5 Q707 545 735.5 480.5 Q764 416 764 344 Q764 275 738.5 213.5 Q713 152 668 104 L754 -1 L642 -1 L387 312 L499 312 L606 180 Q634 214 649.5 255.5 Q665 297 665 344 Q665 398 644.5 446.5 Q624 495 589 531 Q554 567 507.5 588.5 Q461 610 409 610 Q357 610 310.5 588.5 Q264 567 229 531 Q194 495 173.5 446.5 Q153 398 153 344 Q153 290 173.5 241.5 Q194 193 229 156.5 Q264 120 310.5 98.5 Q357 77 409 77 Q451 77 493 94 L552 19 Q484 -12 409 -12 Z " />
<glyph glyph-name="R" unicode="R" horiz-adv-x="658" d="M335 240 L200 240 L200 0 L103 0 L103 687 L345 687 Q399 687 445.5 670.5 Q492 654 526.5 624.5 Q561 595 580.5 554 Q600 513 600 464 Q600 388 555 332.5 Q510 277 437 254 L615 0 L504 0 L335 240 Z M331 331 Q407 331 454 366 Q501 401 501 464 Q501 527 454 561.5 Q407 596 331 596 L200 596 L200 331 L331 331 Z " />
<glyph glyph-name="S" unicode="S" horiz-adv-x="623" d="M324 -11 Q237 -11 167 18 Q97 47 43 99 L102 171 Q147 128 202 101.5 Q257 75 327 75 Q401 75 437.5 107.5 Q474 140 474 183 Q474 233 430.5 257 Q387 281 300 301 Q248 313 205 328.5 Q162 344 132 366.5 Q102 389 85.5 421 Q69 453 69 499 Q69 542 86.5 578.5 Q104 615 135.5 642 Q167 669 210.5 684 Q254 699 306 699 Q384 699 444.5 672.5 Q505 646 554 602 L498 528 Q454 569 404.5 591 Q355 613 301 613 Q272 613 247.5 604.5 Q223 596 205 581.5 Q187 567 177 547.5 Q167 528 167 507 Q167 483 178.5 466 Q190 449 212 436 Q234 423 266.5 413 Q299 403 342 393 Q393 381 435.5 365.5 Q478 350 508.5 326.5 Q539 303 556 270.5 Q573 238 573 192 Q573 149 557 112 Q541 75 509.5 47.5 Q478 20 431.5 4.5 Q385 -11 324 -11 Z " />
<glyph glyph-name="T" unicode="T" horiz-adv-x="604" d="M253 597 L27 597 L27 687 L577 687 L577 597 L351 597 L351 0 L253 0 L253 597 Z " />
<glyph glyph-name="U" unicode="U" horiz-adv-x="759" d="M379 -12 Q315 -12 261 10 Q207 32 168 72 Q129 112 107.5 167 Q86 222 86 288 L86 687 L183 687 L183 290 Q183 243 197.5 204 Q212 165 238 136.5 Q264 108 300 92.5 Q336 77 379 77 Q422 77 458 92.5 Q494 108 520.5 136.5 Q547 165 561.5 204 Q576 243 576 290 L576 687 L673 687 L673 288 Q673 222 651.5 167 Q630 112 591 72 Q552 32 498 10 Q444 -12 379 -12 Z " />
<glyph glyph-name="V" unicode="V" horiz-adv-x="751" d="M25 687 L133 687 L376 124 L618 687 L726 687 L429 0 L322 0 L25 687 Z " />
<glyph glyph-name="W" unicode="W" horiz-adv-x="1067" d="M25 687 L133 687 L378 118 L483 361 L342 687 L444 687 L534 480 L623 687 L726 687 L585 361 L690 119 L935 687 L1042 687 L746 0 L638 0 L534 242 L429 0 L322 0 L25 687 Z " />
<glyph glyph-name="X" unicode="X" horiz-adv-x="692" d="M546 0 L287 343 L347 421 L405 344 L144 0 L28 0 L287 343 L28 687 L146 687 L347 421 L548 687 L664 687 L405 344 L664 0 L546 0 Z " />
<glyph glyph-name="Y" unicode="Y" horiz-adv-x="689" d="M295 271 L20 687 L138 687 L345 363 L556 687 L669 687 L396 271 L396 0 L295 0 L295 271 Z " />
<glyph glyph-name="Z" unicode="Z" horiz-adv-x="626" d="M45 76 L444 597 L52 597 L52 687 L577 687 L577 611 L178 91 L582 91 L582 0 L45 0 L45 76 Z " />
<glyph glyph-name="bracketleft" unicode="&#x5b;" horiz-adv-x="375" d="M99 727 L345 727 L345 659 L179 659 L179 -55 L345 -55 L345 -123 L99 -123 L99 727 Z " />
<glyph glyph-name="backslash" unicode="&#x5c;" horiz-adv-x="457" d="M2 743 L106 743 L455 -74 L351 -74 L2 743 Z " />
<glyph glyph-name="bracketright" unicode="&#x5d;" horiz-adv-x="375" d="M30 -55 L197 -55 L197 659 L30 659 L30 727 L276 727 L276 -123 L30 -123 L30 -55 Z " />
<glyph glyph-name="asciicircum" unicode="&#x5e;" horiz-adv-x="508" d="M219 687 L290 687 L448 413 L372 413 L254 622 L135 413 L60 413 L219 687 Z " />
<glyph glyph-name="underscore" unicode="&#x5f;" horiz-adv-x="759" d="M82 -73 L678 -73 L678 -145 L82 -145 L82 -73 Z " />
<glyph glyph-name="grave" unicode="&#x60;" horiz-adv-x="269" d="M28 703 L121 723 L241 576 L171 576 L28 703 Z " />
<glyph glyph-name="a" unicode="a" horiz-adv-x="562" d="M398 72 Q369 30 321 9 Q273 -12 224 -12 Q136 -12 85 29.5 Q34 71 34 143 Q34 211 89 255 Q144 299 240 307 Q278 311 319 313 Q360 315 398 320 Q397 344 390 367.5 Q383 391 367.5 409.5 Q352 428 327 439.5 Q302 451 264 451 Q226 451 189 437.5 Q152 424 117 407 L82 477 Q138 505 186 517 Q234 529 277 529 Q329 529 369 513.5 Q409 498 436 469.5 Q463 441 477 401 Q491 361 491 313 L491 0 L398 0 L398 72 Z M125 146 Q125 108 157 86 Q189 64 243 64 Q267 64 292 70 Q317 76 338.5 88 Q360 100 376 118.5 Q392 137 398 162 L398 249 Q363 245 327.5 243.5 Q292 242 254 237 Q194 229 159.5 205 Q125 181 125 146 Z " />
<glyph glyph-name="b" unicode="b" horiz-adv-x="645" d="M82 699 L177 699 L177 424 Q207 473 254.5 501 Q302 529 363 529 Q414 529 458 509 Q502 489 533.5 453 Q565 417 583 367.5 Q601 318 601 259 Q601 199 583 149.5 Q565 100 533.5 64 Q502 28 458 8 Q414 -12 363 -12 Q302 -12 254.5 16 Q207 44 177 93 L177 0 L82 0 L82 699 Z M179 259 Q179 218 191 183.5 Q203 149 224.5 124 Q246 99 276 85 Q306 71 342 71 Q378 71 407.5 85 Q437 99 459 124 Q481 149 493 183.5 Q505 218 505 259 Q505 300 493 334.5 Q481 369 459 394 Q437 419 407.5 433 Q378 447 342 447 Q306 447 276 433 Q246 419 224.5 394 Q203 369 191 334.5 Q179 300 179 259 Z " />
<glyph glyph-name="c" unicode="c" horiz-adv-x="525" d="M311 -12 Q256 -12 206.5 9.5 Q157 31 120 68 Q83 105 61 154.5 Q39 204 39 259 Q39 314 61 363 Q83 412 120 449 Q157 486 206.5 507.5 Q256 529 311 529 Q367 529 415 508 Q463 487 500 450 L436 390 Q412 416 379.5 431.5 Q347 447 311 447 Q275 447 243 432 Q211 417 187 391.5 Q163 366 149 331.5 Q135 297 135 259 Q135 221 149 186.5 Q163 152 187 126.5 Q211 101 243 86 Q275 71 311 71 Q348 71 381 86.5 Q414 102 439 130 L503 70 Q466 32 417 10 Q368 -12 311 -12 Z " />
<glyph glyph-name="d" unicode="d" horiz-adv-x="644" d="M466 89 Q436 41 389.5 14.5 Q343 -12 283 -12 Q232 -12 188 8 Q144 28 112.5 64 Q81 100 63 149.5 Q45 199 45 259 Q45 318 63 367.5 Q81 417 112.5 453 Q144 489 188 509 Q232 529 283 529 Q343 529 389.5 502.5 Q436 476 466 429 L466 699 L561 699 L561 0 L466 0 L466 89 Z M141 259 Q141 218 153 183.5 Q165 149 187 124 Q209 99 238.5 85 Q268 71 304 71 Q371 71 415 116.5 Q459 162 466 236 L466 282 Q459 356 415 401.5 Q371 447 304 447 Q268 447 238.5 433 Q209 419 187 394 Q165 369 153 334.5 Q141 300 141 259 Z " />
<glyph glyph-name="e" unicode="e" horiz-adv-x="586" d="M308 -12 Q254 -12 206 8 Q158 28 121.5 64 Q85 100 63.5 150 Q42 200 42 260 Q42 318 62.5 367.5 Q83 417 118 453 Q153 489 200 509 Q247 529 301 529 Q385 529 442.5 487 Q500 445 526 370 Q537 339 543.5 303.5 Q550 268 550 227 L135 227 Q140 193 154 163.5 Q168 134 190.5 113 Q213 92 242 80 Q271 68 306 68 Q349 68 392.5 84.5 Q436 101 461 127 L517 68 Q500 50 475.5 35 Q451 20 423 9.5 Q395 -1 365 -6.5 Q335 -12 308 -12 Z M457 300 Q455 312 453 324 Q451 336 446 347 Q430 392 395 420.5 Q360 449 303 449 Q240 449 194 408.5 Q148 368 136 300 L457 300 Z " />
<glyph glyph-name="f" unicode="f" horiz-adv-x="331" d="M103 581 Q103 642 140 681 Q177 720 237 720 Q265 720 291.5 710.5 Q318 701 339 684 L303 619 Q285 639 250 639 Q227 639 211.5 621.5 Q196 604 196 576 L196 517 L319 517 L319 436 L196 436 L196 0 L103 0 L103 436 L24 436 L24 517 L103 517 L103 581 Z " />
<glyph glyph-name="g" unicode="g" horiz-adv-x="576" d="M296 -174 Q244 -174 200.5 -162.5 Q157 -151 125.5 -131 Q94 -111 77 -82.5 Q60 -54 60 -20 Q60 3 71 23.5 Q82 44 101.5 61 Q121 78 148 91 Q175 104 206 110 L238 81 Q202 71 174 46 Q146 21 146 -12 Q146 -54 189.5 -79 Q233 -104 304 -105 Q367 -105 405.5 -82.5 Q444 -60 444 -22 Q444 1 416.5 20.5 Q389 40 334 48 Q308 52 291.5 54 Q275 56 260 58 Q245 60 227.5 63 Q210 66 181 70 Q128 78 99 105.5 Q70 133 70 175 Q70 198 86 222.5 Q102 247 126 262 L176 226 Q156 211 156 194 Q156 158 230 148 Q255 144 294.5 138.5 Q334 133 379 127 Q451 116 491 76 Q531 36 531 -19 Q531 -54 514.5 -83 Q498 -112 467 -132 Q436 -152 393 -163 Q350 -174 296 -174 Z M284 189 Q239 189 201 201.5 Q163 214 135.5 236.5 Q108 259 92.5 290.5 Q77 322 77 359 Q77 397 92.5 428 Q108 459 135.5 481.5 Q163 504 201 516.5 Q239 529 284 529 Q330 529 368 516.5 Q406 504 433.5 481.5 Q461 459 476 428 Q491 397 491 359 Q491 322 476 290.5 Q461 259 433.5 236.5 Q406 214 368 201.5 Q330 189 284 189 Z M284 256 Q336 256 369 285 Q402 314 402 359 Q402 405 369 433.5 Q336 462 284 462 Q232 462 199.5 433.5 Q167 405 167 359 Q167 314 199.5 285 Q232 256 284 256 Z M419 439 L351 520 Q370 516 387 515 Q404 514 419 514 Q430 514 445.5 514.5 Q461 515 477.5 515.5 Q494 516 510 516.5 Q526 517 536 517 L536 436 L419 439 Z " />
<glyph glyph-name="h" unicode="h" horiz-adv-x="607" d="M82 699 L177 699 L177 441 Q200 480 244.5 504.5 Q289 529 343 529 Q386 529 421.5 514.5 Q457 500 482.5 473.5 Q508 447 522 410.5 Q536 374 536 329 L536 0 L443 0 L443 313 Q443 373 410 410 Q377 447 323 447 Q293 447 266 437 Q239 427 219.5 410.5 Q200 394 188.5 371.5 Q177 349 177 323 L177 0 L82 0 L82 699 Z " />
<glyph glyph-name="i" unicode="i" horiz-adv-x="259" d="M82 517 L177 517 L177 0 L82 0 L82 517 Z M72 663 Q72 686 89 703 Q106 720 131 720 Q154 720 171 703 Q188 686 188 663 Q188 639 171 622 Q154 605 131 605 Q106 605 89 622 Q72 639 72 663 Z " />
<glyph glyph-name="j" unicode="j" horiz-adv-x="248" d="M36 -178 Q13 -178 -11 -173.5 Q-35 -169 -52 -161 L-39 -86 Q-27 -91 -9.5 -93.5 Q8 -96 23 -96 Q47 -96 62 -78.5 Q77 -61 77 -33 L77 517 L171 517 L171 -37 Q171 -100 133.5 -139 Q96 -178 36 -178 Z M65 663 Q65 686 82 703 Q99 720 124 720 Q147 720 164 703 Q181 686 181 663 Q181 639 164 622 Q147 605 124 605 Q99 605 82 622 Q65 639 65 663 Z " />
<glyph glyph-name="k" unicode="k" horiz-adv-x="561" d="M82 699 L177 699 L177 248 L435 517 L551 517 L327 282 L541 0 L427 0 L262 219 L177 134 L177 0 L82 0 L82 699 Z " />
<glyph glyph-name="l" unicode="l" horiz-adv-x="259" d="M218 -12 Q188 -12 163 -1.5 Q138 9 120 28 Q102 47 92 72.5 Q82 98 82 129 L82 699 L177 699 L177 133 Q177 105 192 87.5 Q207 70 231 70 L218 -12 Z " />
<glyph glyph-name="m" unicode="m" horiz-adv-x="914" d="M82 517 L177 517 L177 444 Q197 483 235.5 506 Q274 529 324 529 Q386 529 432 496 Q478 463 498 406 Q509 461 552.5 495 Q596 529 658 529 Q699 529 733 514 Q767 499 791.5 472.5 Q816 446 830 409.5 Q844 373 844 329 L844 0 L751 0 L751 315 Q751 373 720 410 Q689 447 640 447 Q583 447 547 412.5 Q511 378 511 324 L510 327 L510 0 L417 0 L417 315 Q417 373 386 410 Q355 447 306 447 Q249 447 213 412.5 Q177 378 177 324 L177 0 L82 0 L82 517 Z " />
<glyph glyph-name="n" unicode="n" horiz-adv-x="607" d="M82 517 L177 517 L177 441 Q200 480 244.5 504.5 Q289 529 343 529 Q386 529 421.5 514.5 Q457 500 482.5 473.5 Q508 447 522 410.5 Q536 374 536 329 L536 0 L443 0 L443 313 Q443 373 410 410 Q377 447 323 447 Q293 447 266 437 Q239 427 219.5 410.5 Q200 394 188.5 371.5 Q177 349 177 323 L177 0 L82 0 L82 517 Z " />
<glyph glyph-name="o" unicode="o" horiz-adv-x="621" d="M311 -12 Q255 -12 205.5 9.5 Q156 31 119.5 67.5 Q83 104 61.5 153.5 Q40 203 40 259 Q40 315 61.5 364 Q83 413 119.5 450 Q156 487 205.5 508 Q255 529 311 529 Q367 529 416 508 Q465 487 502 450 Q539 413 560 364 Q581 315 581 259 Q581 203 560 153.5 Q539 104 502 67.5 Q465 31 416 9.5 Q367 -12 311 -12 Z M135 259 Q135 220 149 186 Q163 152 187 126.5 Q211 101 243 86 Q275 71 311 71 Q347 71 379 86 Q411 101 434.5 126.5 Q458 152 472 186 Q486 220 486 259 Q486 298 472 332.5 Q458 367 434.5 392.5 Q411 418 379 432.5 Q347 447 311 447 Q275 447 243 432.5 Q211 418 187 392.5 Q163 367 149 332.5 Q135 298 135 259 Z " />
<glyph glyph-name="p" unicode="p" horiz-adv-x="643" d="M82 517 L177 517 L177 427 Q207 475 254 502 Q301 529 361 529 Q412 529 456 509 Q500 489 531.5 453 Q563 417 581 367.5 Q599 318 599 259 Q599 199 581 149.5 Q563 100 531.5 64 Q500 28 456 8 Q412 -12 361 -12 Q301 -12 254 15 Q207 42 177 90 L177 -172 L82 -172 L82 517 Z M177 259 Q177 218 189 183.5 Q201 149 222.5 124 Q244 99 274 85 Q304 71 340 71 Q376 71 405.5 85 Q435 99 457 124 Q479 149 491 183.5 Q503 218 503 259 Q503 300 491 334.5 Q479 369 457 394 Q435 419 405.5 433 Q376 447 340 447 Q304 447 274 433 Q244 419 222.5 394 Q201 369 189 334.5 Q177 300 177 259 Z " />
<glyph glyph-name="q" unicode="q" horiz-adv-x="646" d="M468 92 Q438 43 390.5 15.5 Q343 -12 283 -12 Q232 -12 188 8 Q144 28 112.5 64 Q81 100 63 149.5 Q45 199 45 259 Q45 318 63 367.5 Q81 417 112.5 453 Q144 489 188 509 Q232 529 283 529 Q343 529 390.5 501.5 Q438 474 468 425 L468 517 L563 517 L563 -172 L468 -172 L468 92 Z M141 259 Q141 218 153 183.5 Q165 149 187 124 Q209 99 238.5 85 Q268 71 304 71 Q340 71 370 85 Q400 99 421.5 124 Q443 149 455 183.5 Q467 218 467 259 Q467 300 455 334.5 Q443 369 421.5 394 Q400 419 370 433 Q340 447 304 447 Q268 447 238.5 433 Q209 419 187 394 Q165 369 153 334.5 Q141 300 141 259 Z " />
<glyph glyph-name="r" unicode="r" horiz-adv-x="405" d="M82 517 L177 517 L177 415 Q201 468 251.5 498.5 Q302 529 371 529 L371 447 Q328 447 292.5 434.5 Q257 422 231.5 399.5 Q206 377 192 346 Q178 315 178 277 L177 280 L177 0 L82 0 L82 517 Z " />
<glyph glyph-name="s" unicode="s" horiz-adv-x="485" d="M250 -12 Q193 -12 135.5 7.5 Q78 27 31 65 L76 131 Q119 99 164 82.5 Q209 66 251 66 Q299 66 326.5 85.5 Q354 105 354 138 Q354 157 344.5 170 Q335 183 318.5 192.5 Q302 202 280 209 Q258 216 233 223 Q188 235 154.5 248.5 Q121 262 99.5 279.5 Q78 297 67 319.5 Q56 342 56 373 Q56 409 70 437.5 Q84 466 108.5 486.5 Q133 507 167.5 518 Q202 529 243 529 Q293 529 342 513 Q391 497 433 469 L392 401 Q315 451 243 451 Q203 451 175 433.5 Q147 416 147 383 Q147 368 154 357.5 Q161 347 176 338.5 Q191 330 214.5 322 Q238 314 271 303 Q303 294 334 282.5 Q365 271 390 254 Q415 237 430 211 Q445 185 445 147 Q445 111 430.5 81.5 Q416 52 390 31 Q364 10 328 -1 Q292 -12 250 -12 Z " />
<glyph glyph-name="t" unicode="t" horiz-adv-x="358" d="M234 -12 Q174 -12 137 27 Q100 66 100 127 L100 436 L22 436 L22 517 L100 517 L100 659 L193 659 L193 517 L316 517 L316 436 L193 436 L193 134 Q193 104 209 87.5 Q225 71 247 71 Q282 71 300 91 L336 24 Q315 7 288.5 -2.5 Q262 -12 234 -12 Z " />
<glyph glyph-name="u" unicode="u" horiz-adv-x="607" d="M525 0 L430 0 L430 76 Q407 37 362.5 12.5 Q318 -12 264 -12 Q221 -12 185.5 2.5 Q150 17 124.5 43.5 Q99 70 85 106.5 Q71 143 71 188 L71 517 L164 517 L164 204 Q164 144 197 107 Q230 70 284 70 Q314 70 341 80 Q368 90 387.5 106.5 Q407 123 418.5 146 Q430 169 430 194 L430 517 L525 517 L525 0 Z " />
<glyph glyph-name="v" unicode="v" horiz-adv-x="550" d="M11 517 L114 517 L276 110 L436 517 L539 517 L321 0 L232 0 L11 517 Z " />
<glyph glyph-name="w" unicode="w" horiz-adv-x="808" d="M16 517 L113 517 L234 127 L364 517 L444 517 L575 127 L695 517 L792 517 L618 0 L530 0 L405 389 L277 0 L190 0 L16 517 Z " />
<glyph glyph-name="x" unicode="x" horiz-adv-x="525" d="M263 192 L119 0 L12 0 L209 264 L20 517 L128 517 L263 336 L398 517 L505 517 L316 264 L513 0 L406 0 L263 192 Z " />
<glyph glyph-name="y" unicode="y" horiz-adv-x="551" d="M145 -180 Q119 -180 94.5 -174.5 Q70 -169 50 -159 L71 -85 Q103 -101 134 -101 Q158 -101 175 -92 Q192 -83 206 -60 L232 -3 L10 517 L112 517 L280 106 L440 517 L539 517 L310 -49 Q282 -118 241.5 -148.5 Q201 -179 145 -180 Z " />
<glyph glyph-name="z" unicode="z" horiz-adv-x="489" d="M34 71 L326 431 L40 431 L40 517 L452 517 L452 446 L159 86 L454 86 L454 0 L34 0 L34 71 Z " />
<glyph glyph-name="braceleft" unicode="&#x7b;" horiz-adv-x="365" d="M330 -166 Q270 -160 229.5 -147.5 Q189 -135 165 -114 Q141 -93 130.5 -63.5 Q120 -34 120 6 L120 142 Q120 191 98 212.5 Q76 234 23 234 L23 298 Q77 298 99 320 Q121 342 120 390 L120 525 Q120 565 130.5 594.5 Q141 624 165.5 645 Q190 666 230 678.5 Q270 691 330 697 L337 634 Q294 628 266.5 619.5 Q239 611 224 598.5 Q209 586 204 567 Q199 548 199 519 L200 380 Q200 333 181 306 Q162 279 124 266 Q162 252 181 225.5 Q200 199 200 151 Q200 131 200 109 Q200 87 199.5 67.5 Q199 48 199 33.5 Q199 19 199 13 Q199 -16 204.5 -35.5 Q210 -55 225 -68 Q240 -81 267 -89 Q294 -97 337 -103 L330 -166 Z " />
<glyph glyph-name="bar" unicode="&#x7c;" horiz-adv-x="319" d="M124 743 L195 743 L195 -74 L124 -74 L124 743 Z " />
<glyph glyph-name="braceright" unicode="&#x7d;" horiz-adv-x="365" d="M28 -103 Q71 -97 98 -89 Q125 -81 140.5 -68 Q156 -55 161.5 -35.5 Q167 -16 167 13 L166 151 Q166 199 184.5 225.5 Q203 252 241 266 Q204 279 185 306 Q166 333 166 380 Q166 413 166.5 447.5 Q167 482 167 519 Q167 548 161.5 567 Q156 586 141 598.5 Q126 611 99 619.5 Q72 628 28 634 L36 697 Q95 691 135 678.5 Q175 666 199.5 645 Q224 624 234.5 594.5 Q245 565 245 525 L245 390 Q245 342 266.5 320 Q288 298 342 298 L342 234 Q289 234 267 212.5 Q245 191 245 142 L245 6 Q245 -34 234.5 -63.5 Q224 -93 200 -114 Q176 -135 136 -147.5 Q96 -160 36 -166 L28 -103 Z " />
<glyph glyph-name="asciitilde" unicode="&#x7e;" horiz-adv-x="535" d="M333 298 Q311 298 293.5 307.5 Q276 317 261 329 Q246 341 232 350.5 Q218 360 204 360 Q185 360 173 345 Q161 330 156 297 L102 305 Q110 365 134.5 396 Q159 427 203 427 Q225 427 242.5 417.5 Q260 408 275 396 Q290 384 304 374.5 Q318 365 332 365 Q351 365 362.5 380 Q374 395 380 429 L433 421 Q425 361 401 329.5 Q377 298 333 298 Z " />
<glyph glyph-name="exclamdown" unicode="&#xa1;" horiz-adv-x="321" d="M215 -170 L103 -170 L127 310 L192 310 L215 -170 Z M96 463 Q96 490 114.5 509.5 Q133 529 159 529 Q187 529 206 509.5 Q225 490 225 463 Q225 438 206 419 Q187 400 159 400 Q133 400 114.5 419 Q96 438 96 463 Z " />
<glyph glyph-name="cent" unicode="&#xa2;" horiz-adv-x="607" d="M314 -10 Q265 -3 222 21 Q179 45 146.5 81 Q114 117 95.5 162.5 Q77 208 77 259 Q77 310 95.5 355.5 Q114 401 146.5 437 Q179 473 222 496.5 Q265 520 314 527 L314 589 L374 589 L374 528 Q422 523 464 502.5 Q506 482 538 450 L474 390 Q454 412 428.5 426 Q403 440 374 445 L374 73 Q403 78 430 92.5 Q457 107 477 130 L541 70 Q508 37 466 15.5 Q424 -6 374 -11 L374 -74 L314 -74 L314 -10 Z M173 259 Q173 226 184 195.5 Q195 165 213.5 140.5 Q232 116 258 99 Q284 82 314 75 L314 443 Q284 436 258 419 Q232 402 213.5 377.5 Q195 353 184 322.5 Q173 292 173 259 Z " />
<glyph glyph-name="sterling" unicode="&#xa3;" horiz-adv-x="677" d="M80 44 L151 86 L151 259 L87 259 L87 330 L151 330 L151 463 Q151 515 167.5 558 Q184 601 213.5 632.5 Q243 664 283.5 681.5 Q324 699 373 699 Q408 699 441 690.5 Q474 682 502.5 667 Q531 652 553.5 631 Q576 610 589 585 L521 518 Q508 559 468 585 Q428 611 377 611 Q349 611 325.5 600 Q302 589 284.5 568.5 Q267 548 257.5 520.5 Q248 493 248 460 L248 330 L439 330 L439 259 L248 259 L248 86 L614 86 L614 0 L80 0 L80 44 Z " />
<glyph glyph-name="yen" unicode="&#xa5;" horiz-adv-x="763" d="M134 181 L331 181 L331 257 L134 257 L134 327 L294 327 L56 687 L174 687 L381 363 L592 687 L705 687 L469 327 L630 327 L630 257 L432 257 L432 181 L630 181 L630 111 L432 111 L432 0 L331 0 L331 111 L134 111 L134 181 Z " />
<glyph glyph-name="dieresis" unicode="&#xa8;" horiz-adv-x="441" d="M122 593 Q99 593 84.5 608.5 Q70 624 70 646 Q70 667 84.5 683 Q99 699 122 699 Q144 699 159.5 683 Q175 667 175 646 Q175 624 159.5 608.5 Q144 593 122 593 Z M267 646 Q267 667 282 683 Q297 699 320 699 Q342 699 357.5 683 Q373 667 373 646 Q373 624 357.5 608.5 Q342 593 320 593 Q297 593 282 608.5 Q267 624 267 646 Z " />
<glyph glyph-name="copyright" unicode="&#xa9;" horiz-adv-x="934" d="M468 -116 Q386 -116 313.5 -85 Q241 -54 187 0 Q133 54 102 126 Q71 198 71 280 Q71 361 102 433 Q133 505 187 559 Q241 613 313.5 644 Q386 675 468 675 Q550 675 622 644 Q694 613 748 559 Q802 505 833 433 Q864 361 864 280 Q864 198 833 126 Q802 54 748 0 Q694 -54 622 -85 Q550 -116 468 -116 Z M108 280 Q108 206 136.5 140.5 Q165 75 213.5 26.5 Q262 -22 327.5 -50.5 Q393 -79 468 -79 Q542 -79 607 -50.5 Q672 -22 721 26.5 Q770 75 798 140.5 Q826 206 826 280 Q826 354 798 419 Q770 484 721 533 Q672 582 607 610 Q542 638 468 638 Q393 638 327.5 610 Q262 582 213.5 533 Q165 484 136.5 419 Q108 354 108 280 Z M197 280 Q197 335 219 384 Q241 433 278 470 Q315 507 365 528.5 Q415 550 470 550 Q525 550 573.5 529 Q622 508 659 471 L594 411 Q571 437 538 452.5 Q505 468 469 468 Q433 468 401.5 453 Q370 438 346 412.5 Q322 387 308 352.5 Q294 318 294 280 Q294 242 308 207.5 Q322 173 346 147.5 Q370 122 401.5 107 Q433 92 469 92 Q506 92 539.5 107.5 Q573 123 597 151 L662 91 Q624 53 575 31 Q526 9 469 9 Q414 9 364.5 30.5 Q315 52 278 89 Q241 126 219 175.5 Q197 225 197 280 Z " />
<glyph glyph-name="guillemotleft" unicode="&#xab;" horiz-adv-x="532" d="M33 252 L195 450 L281 432 L135 253 L281 71 L195 51 L33 252 Z M403 450 L489 432 L343 253 L489 71 L403 51 L241 252 L403 450 Z " />
<glyph glyph-name="registered" unicode="&#xae;" horiz-adv-x="652" d="M327 184 Q276 184 231 203.5 Q186 223 152.5 256.5 Q119 290 99.5 334.5 Q80 379 80 430 Q80 481 99.5 525.5 Q119 570 152.5 603 Q186 636 231 655.5 Q276 675 327 675 Q378 675 422.5 655.5 Q467 636 500.5 603 Q534 570 553.5 525.5 Q573 481 573 430 Q573 379 553.5 334.5 Q534 290 500.5 256.5 Q467 223 422.5 203.5 Q378 184 327 184 Z M117 430 Q117 387 133.5 349 Q150 311 178.5 282.5 Q207 254 245.5 237.5 Q284 221 327 221 Q370 221 408 237.5 Q446 254 474.5 282.5 Q503 311 519.5 349 Q536 387 536 430 Q536 473 519.5 511 Q503 549 474.5 577 Q446 605 408 621.5 Q370 638 327 638 Q284 638 245.5 621.5 Q207 605 178.5 577 Q150 549 133.5 511 Q117 473 117 430 Z M204 579 L344 579 Q395 579 427 550.5 Q459 522 459 475 Q459 441 441.5 415.5 Q424 390 394 379 L464 279 L386 279 L322 370 L281 370 L281 279 L204 279 L204 579 Z M337 446 Q354 446 365.5 454 Q377 462 377 475 Q377 488 365.5 495.5 Q354 503 337 503 L281 503 L281 446 L337 446 Z " />
<glyph glyph-name="macron" unicode="&#xaf;" horiz-adv-x="483" d="M82 654 L401 654 L401 591 L82 591 L82 654 Z " />
<glyph glyph-name="acute" unicode="&#xb4;" horiz-adv-x="272" d="M148 723 L241 703 L98 576 L28 576 L148 723 Z " />
<glyph glyph-name="paragraph" unicode="&#xb6;" horiz-adv-x="683" d="M292 293 Q239 293 196 307.5 Q153 322 122.5 347.5 Q92 373 75.5 409.5 Q59 446 59 489 Q59 533 75.5 569.5 Q92 606 121 632 Q150 658 190.5 672.5 Q231 687 279 687 L559 687 L559 -50 L485 -50 L485 617 L367 617 L367 -50 L292 -50 L292 293 Z " />
<glyph glyph-name="periodcentered" unicode="&#xb7;" horiz-adv-x="323" d="M162 214 Q136 214 118.5 231 Q101 248 101 274 Q101 300 118.5 317 Q136 334 162 334 Q186 334 203.5 317 Q221 300 221 274 Q221 248 203.5 231 Q186 214 162 214 Z " />
<glyph glyph-name="cedilla" unicode="&#xb8;" horiz-adv-x="290" d="M134 -193 Q108 -193 84 -185 Q60 -177 44 -165 L65 -119 Q96 -142 129 -142 Q149 -142 163 -132 Q177 -122 177 -106 Q177 -92 168 -83 Q159 -74 140 -74 Q122 -74 107 -84 L89 -66 L122 11 L180 11 L156 -45 L164 -45 Q195 -45 215 -63.5 Q235 -82 235 -111 Q235 -149 206 -171 Q177 -193 134 -193 Z " />
<glyph glyph-name="guillemotright" unicode="&#xbb;" horiz-adv-x="531" d="M42 71 L188 253 L42 432 L128 450 L290 252 L128 51 L42 71 Z M396 253 L250 432 L336 450 L498 252 L336 51 L250 71 L396 253 Z " />
<glyph glyph-name="questiondown" unicode="&#xbf;" horiz-adv-x="526" d="M336 131 Q295 128 260.5 118 Q226 108 201 92 Q176 76 162 56.5 Q148 37 148 14 Q148 -7 156.5 -26.5 Q165 -46 181.5 -61 Q198 -76 221 -85 Q244 -94 273 -94 Q324 -94 362.5 -69.5 Q401 -45 432 -8 L492 -69 Q451 -118 395 -150 Q339 -182 263 -182 Q215 -182 175.5 -167.5 Q136 -153 108 -128 Q80 -103 64.5 -68.5 Q49 -34 49 5 Q49 38 63.5 69.5 Q78 101 103.5 126.5 Q129 152 165 171 Q201 190 243 199 L243 312 L336 312 L336 131 Z M227 463 Q227 490 245.5 509.5 Q264 529 290 529 Q318 529 337 509.5 Q356 490 356 463 Q356 438 337 419 Q318 400 290 400 Q264 400 245.5 419 Q227 438 227 463 Z " />
<glyph glyph-name="Agrave" unicode="&#xc0;" horiz-adv-x="750" d="M726 0 L618 0 L556 145 L195 145 L133 0 L25 0 L322 687 L429 687 L726 0 Z M291 893 L411 746 L341 746 L198 873 L291 893 Z M518 231 L376 563 L233 231 L518 231 Z " />
<glyph glyph-name="Aacute" unicode="&#xc1;" horiz-adv-x="750" d="M726 0 L618 0 L556 145 L195 145 L133 0 L25 0 L322 687 L429 687 L726 0 Z M518 231 L376 563 L233 231 L518 231 Z M461 893 L554 873 L411 746 L341 746 L461 893 Z " />
<glyph glyph-name="Acircumflex" unicode="&#xc2;" horiz-adv-x="750" d="M726 0 L618 0 L556 145 L195 145 L133 0 L25 0 L322 687 L429 687 L726 0 Z M333 886 L418 886 L521 746 L454 746 L375 829 L298 746 L232 746 L333 886 Z M518 231 L376 563 L233 231 L518 231 Z " />
<glyph glyph-name="Atilde" unicode="&#xc3;" horiz-adv-x="750" d="M726 0 L618 0 L556 145 L195 145 L133 0 L25 0 L322 687 L429 687 L726 0 Z M209 751 Q217 811 241.5 842 Q266 873 310 873 Q332 873 349.5 863.5 Q367 854 382 842 Q397 830 411 820.5 Q425 811 439 811 Q458 811 469.5 826 Q481 841 487 875 L540 867 Q532 807 508 775.5 Q484 744 440 744 Q418 744 400.5 753.5 Q383 763 368 775 Q353 787 339 796.5 Q325 806 311 806 Q292 806 280 791 Q268 776 263 743 L209 751 Z M518 231 L376 563 L233 231 L518 231 Z " />
<glyph glyph-name="Adieresis" unicode="&#xc4;" horiz-adv-x="750" d="M726 0 L618 0 L556 145 L195 145 L133 0 L25 0 L322 687 L429 687 L726 0 Z M225 816 Q225 837 239.5 853 Q254 869 277 869 Q299 869 314.5 853 Q330 837 330 816 Q330 794 314.5 778.5 Q299 763 277 763 Q254 763 239.5 778.5 Q225 794 225 816 Z M518 231 L376 563 L233 231 L518 231 Z M422 816 Q422 837 437 853 Q452 869 475 869 Q497 869 512.5 853 Q528 837 528 816 Q528 794 512.5 778.5 Q497 763 475 763 Q452 763 437 778.5 Q422 794 422 816 Z " />
<glyph glyph-name="Aring" unicode="&#xc5;" horiz-adv-x="750" d="M726 0 L618 0 L556 145 L195 145 L133 0 L25 0 L322 687 L429 687 L726 0 Z M518 231 L376 563 L233 231 L518 231 Z M270 863 Q270 885 278.5 904 Q287 923 301 937.5 Q315 952 334.5 960.5 Q354 969 376 969 Q398 969 417 960.5 Q436 952 450.5 937.5 Q465 923 473.5 904 Q482 885 482 863 Q482 841 473.5 821.5 Q465 802 450.5 788 Q436 774 417 765.5 Q398 757 376 757 Q354 757 334.5 765.5 Q315 774 301 788 Q287 802 278.5 821.5 Q270 841 270 863 Z M318 863 Q318 840 335.5 822.5 Q353 805 376 805 Q399 805 416 822.5 Q433 840 433 863 Q433 886 416 903 Q399 920 376 920 Q353 920 335.5 903 Q318 886 318 863 Z " />
<glyph glyph-name="AE" unicode="&#xc6;" horiz-adv-x="1038" d="M418 687 L982 687 L982 597 L577 597 L577 395 L942 395 L942 305 L577 305 L577 91 L982 91 L982 0 L479 0 L479 145 L218 145 L134 0 L22 0 L418 687 Z M479 231 L479 597 L268 231 L479 231 Z " />
<glyph glyph-name="Ccedilla" unicode="&#xc7;" horiz-adv-x="697" d="M396 -193 Q370 -193 346 -185 Q322 -177 306 -165 L327 -119 Q358 -142 391 -142 Q411 -142 425 -132 Q439 -122 439 -106 Q439 -92 430 -83 Q421 -74 402 -74 Q384 -74 369 -84 L351 -66 L375 -10 Q309 -3 250 27.5 Q191 58 147.5 106 Q104 154 78.5 215 Q53 276 53 344 Q53 416 81.5 480.5 Q110 545 159 593.5 Q208 642 272.5 670.5 Q337 699 409 699 Q483 699 548 670.5 Q613 642 661 591 L593 526 Q558 564 510.5 587 Q463 610 409 610 Q357 610 310.5 588.5 Q264 567 229 531 Q194 495 173.5 446.5 Q153 398 153 344 Q153 290 173.5 241.5 Q194 193 229 156.5 Q264 120 310.5 98.5 Q357 77 409 77 Q463 77 510.5 100 Q558 123 594 162 L661 96 Q616 50 557.5 22 Q499 -6 432 -11 L418 -45 L426 -45 Q457 -45 477 -63.5 Q497 -82 497 -111 Q497 -149 468 -171 Q439 -193 396 -193 Z " />
<glyph glyph-name="Egrave" unicode="&#xc8;" horiz-adv-x="662" d="M103 687 L606 687 L606 597 L201 597 L201 395 L567 395 L567 305 L201 305 L201 91 L606 91 L606 0 L103 0 L103 687 Z M271 893 L391 746 L321 746 L178 873 L271 893 Z " />
<glyph glyph-name="Eacute" unicode="&#xc9;" horiz-adv-x="662" d="M103 687 L606 687 L606 597 L201 597 L201 395 L567 395 L567 305 L201 305 L201 91 L606 91 L606 0 L103 0 L103 687 Z M440 893 L533 873 L390 746 L320 746 L440 893 Z " />
<glyph glyph-name="Ecircumflex" unicode="&#xca;" horiz-adv-x="662" d="M103 687 L606 687 L606 597 L201 597 L201 395 L567 395 L567 305 L201 305 L201 91 L606 91 L606 0 L103 0 L103 687 Z M313 886 L398 886 L501 746 L434 746 L355 829 L278 746 L212 746 L313 886 Z " />
<glyph glyph-name="Edieresis" unicode="&#xcb;" horiz-adv-x="662" d="M103 687 L606 687 L606 597 L201 597 L201 395 L567 395 L567 305 L201 305 L201 91 L606 91 L606 0 L103 0 L103 687 Z M204 816 Q204 837 218.5 853 Q233 869 256 869 Q278 869 293.5 853 Q309 837 309 816 Q309 794 293.5 778.5 Q278 763 256 763 Q233 763 218.5 778.5 Q204 794 204 816 Z M401 816 Q401 837 416 853 Q431 869 454 869 Q476 869 491.5 853 Q507 837 507 816 Q507 794 491.5 778.5 Q476 763 454 763 Q431 763 416 778.5 Q401 794 401 816 Z " />
<glyph glyph-name="Igrave" unicode="&#xcc;" horiz-adv-x="372" d="M48 94 L137 94 L137 593 L48 593 L48 687 L323 687 L323 593 L235 593 L235 94 L323 94 L323 0 L48 0 L48 94 Z M101 893 L221 746 L151 746 L8 873 L101 893 Z " />
<glyph glyph-name="Iacute" unicode="&#xcd;" horiz-adv-x="372" d="M48 94 L137 94 L137 593 L48 593 L48 687 L323 687 L323 593 L235 593 L235 94 L323 94 L323 0 L48 0 L48 94 Z M271 893 L364 873 L221 746 L151 746 L271 893 Z " />
<glyph glyph-name="Icircumflex" unicode="&#xce;" horiz-adv-x="372" d="M48 94 L137 94 L137 593 L48 593 L48 687 L323 687 L323 593 L235 593 L235 94 L323 94 L323 0 L48 0 L48 94 Z M144 886 L229 886 L332 746 L265 746 L186 829 L109 746 L43 746 L144 886 Z " />
<glyph glyph-name="Idieresis" unicode="&#xcf;" horiz-adv-x="372" d="M48 94 L137 94 L137 593 L48 593 L48 687 L323 687 L323 593 L235 593 L235 94 L323 94 L323 0 L48 0 L48 94 Z M35 816 Q35 837 49.5 853 Q64 869 87 869 Q109 869 124.5 853 Q140 837 140 816 Q140 794 124.5 778.5 Q109 763 87 763 Q64 763 49.5 778.5 Q35 794 35 816 Z M232 816 Q232 837 247 853 Q262 869 285 869 Q307 869 322.5 853 Q338 837 338 816 Q338 794 322.5 778.5 Q307 763 285 763 Q262 763 247 778.5 Q232 794 232 816 Z " />
<glyph glyph-name="Eth" unicode="&#xd0;" horiz-adv-x="796" d="M43 394 L128 394 L128 687 L364 687 Q447 687 516.5 661.5 Q586 636 636 590.5 Q686 545 714 482 Q742 419 742 344 Q742 269 714 205.5 Q686 142 636 96.5 Q586 51 516.5 25.5 Q447 0 364 0 L128 0 L128 304 L43 304 L43 394 Z M369 89 Q429 89 479.5 108 Q530 127 566.5 160.5 Q603 194 623 241 Q643 288 643 344 Q643 400 623 447 Q603 494 566.5 527.5 Q530 561 479.5 580 Q429 599 369 599 L225 599 L225 394 L400 394 L399 304 L225 304 L225 89 L369 89 Z " />
<glyph glyph-name="Ntilde" unicode="&#xd1;" horiz-adv-x="800" d="M103 687 L200 687 L600 160 L600 687 L697 687 L697 0 L600 0 L200 527 L200 0 L103 0 L103 687 Z M234 751 Q242 811 266.5 842 Q291 873 335 873 Q357 873 374.5 863.5 Q392 854 407 842 Q422 830 436 820.5 Q450 811 464 811 Q483 811 494.5 826 Q506 841 512 875 L565 867 Q557 807 533 775.5 Q509 744 465 744 Q443 744 425.5 753.5 Q408 763 393 775 Q378 787 364 796.5 Q350 806 336 806 Q317 806 305 791 Q293 776 288 743 L234 751 Z " />
<glyph glyph-name="Ograve" unicode="&#xd2;" horiz-adv-x="818" d="M409 -12 Q337 -12 272.5 16.5 Q208 45 159 93.5 Q110 142 81.5 207 Q53 272 53 344 Q53 416 81.5 480.5 Q110 545 159 593.5 Q208 642 272.5 670.5 Q337 699 409 699 Q481 699 545.5 670.5 Q610 642 658.5 593.5 Q707 545 735.5 480.5 Q764 416 764 344 Q764 272 735.5 207 Q707 142 658.5 93.5 Q610 45 545.5 16.5 Q481 -12 409 -12 Z M153 344 Q153 290 173.5 241.5 Q194 193 229 156.5 Q264 120 310.5 98.5 Q357 77 409 77 Q461 77 507.5 98.5 Q554 120 589 156.5 Q624 193 644.5 241.5 Q665 290 665 344 Q665 398 644.5 446.5 Q624 495 589 531 Q554 567 507.5 588.5 Q461 610 409 610 Q357 610 310.5 588.5 Q264 567 229 531 Q194 495 173.5 446.5 Q153 398 153 344 Z M325 893 L445 746 L375 746 L232 873 L325 893 Z " />
<glyph glyph-name="Oacute" unicode="&#xd3;" horiz-adv-x="818" d="M409 -12 Q337 -12 272.5 16.5 Q208 45 159 93.5 Q110 142 81.5 207 Q53 272 53 344 Q53 416 81.5 480.5 Q110 545 159 593.5 Q208 642 272.5 670.5 Q337 699 409 699 Q481 699 545.5 670.5 Q610 642 658.5 593.5 Q707 545 735.5 480.5 Q764 416 764 344 Q764 272 735.5 207 Q707 142 658.5 93.5 Q610 45 545.5 16.5 Q481 -12 409 -12 Z M153 344 Q153 290 173.5 241.5 Q194 193 229 156.5 Q264 120 310.5 98.5 Q357 77 409 77 Q461 77 507.5 98.5 Q554 120 589 156.5 Q624 193 644.5 241.5 Q665 290 665 344 Q665 398 644.5 446.5 Q624 495 589 531 Q554 567 507.5 588.5 Q461 610 409 610 Q357 610 310.5 588.5 Q264 567 229 531 Q194 495 173.5 446.5 Q153 398 153 344 Z M494 893 L587 873 L444 746 L374 746 L494 893 Z " />
<glyph glyph-name="Ocircumflex" unicode="&#xd4;" horiz-adv-x="818" d="M409 -12 Q337 -12 272.5 16.5 Q208 45 159 93.5 Q110 142 81.5 207 Q53 272 53 344 Q53 416 81.5 480.5 Q110 545 159 593.5 Q208 642 272.5 670.5 Q337 699 409 699 Q481 699 545.5 670.5 Q610 642 658.5 593.5 Q707 545 735.5 480.5 Q764 416 764 344 Q764 272 735.5 207 Q707 142 658.5 93.5 Q610 45 545.5 16.5 Q481 -12 409 -12 Z M153 344 Q153 290 173.5 241.5 Q194 193 229 156.5 Q264 120 310.5 98.5 Q357 77 409 77 Q461 77 507.5 98.5 Q554 120 589 156.5 Q624 193 644.5 241.5 Q665 290 665 344 Q665 398 644.5 446.5 Q624 495 589 531 Q554 567 507.5 588.5 Q461 610 409 610 Q357 610 310.5 588.5 Q264 567 229 531 Q194 495 173.5 446.5 Q153 398 153 344 Z M367 886 L452 886 L555 746 L488 746 L409 829 L332 746 L266 746 L367 886 Z " />
<glyph glyph-name="Otilde" unicode="&#xd5;" horiz-adv-x="818" d="M409 -12 Q337 -12 272.5 16.5 Q208 45 159 93.5 Q110 142 81.5 207 Q53 272 53 344 Q53 416 81.5 480.5 Q110 545 159 593.5 Q208 642 272.5 670.5 Q337 699 409 699 Q481 699 545.5 670.5 Q610 642 658.5 593.5 Q707 545 735.5 480.5 Q764 416 764 344 Q764 272 735.5 207 Q707 142 658.5 93.5 Q610 45 545.5 16.5 Q481 -12 409 -12 Z M153 344 Q153 290 173.5 241.5 Q194 193 229 156.5 Q264 120 310.5 98.5 Q357 77 409 77 Q461 77 507.5 98.5 Q554 120 589 156.5 Q624 193 644.5 241.5 Q665 290 665 344 Q665 398 644.5 446.5 Q624 495 589 531 Q554 567 507.5 588.5 Q461 610 409 610 Q357 610 310.5 588.5 Q264 567 229 531 Q194 495 173.5 446.5 Q153 398 153 344 Z M243 751 Q251 811 275.5 842 Q300 873 344 873 Q366 873 383.5 863.5 Q401 854 416 842 Q431 830 445 820.5 Q459 811 473 811 Q492 811 503.5 826 Q515 841 521 875 L574 867 Q566 807 542 775.5 Q518 744 474 744 Q452 744 434.5 753.5 Q417 763 402 775 Q387 787 373 796.5 Q359 806 345 806 Q326 806 314 791 Q302 776 297 743 L243 751 Z " />
<glyph glyph-name="Odieresis" unicode="&#xd6;" horiz-adv-x="818" d="M409 -12 Q337 -12 272.5 16.5 Q208 45 159 93.5 Q110 142 81.5 207 Q53 272 53 344 Q53 416 81.5 480.5 Q110 545 159 593.5 Q208 642 272.5 670.5 Q337 699 409 699 Q481 699 545.5 670.5 Q610 642 658.5 593.5 Q707 545 735.5 480.5 Q764 416 764 344 Q764 272 735.5 207 Q707 142 658.5 93.5 Q610 45 545.5 16.5 Q481 -12 409 -12 Z M153 344 Q153 290 173.5 241.5 Q194 193 229 156.5 Q264 120 310.5 98.5 Q357 77 409 77 Q461 77 507.5 98.5 Q554 120 589 156.5 Q624 193 644.5 241.5 Q665 290 665 344 Q665 398 644.5 446.5 Q624 495 589 531 Q554 567 507.5 588.5 Q461 610 409 610 Q357 610 310.5 588.5 Q264 567 229 531 Q194 495 173.5 446.5 Q153 398 153 344 Z M258 816 Q258 837 272.5 853 Q287 869 310 869 Q332 869 347.5 853 Q363 837 363 816 Q363 794 347.5 778.5 Q332 763 310 763 Q287 763 272.5 778.5 Q258 794 258 816 Z M455 816 Q455 837 470 853 Q485 869 508 869 Q530 869 545.5 853 Q561 837 561 816 Q561 794 545.5 778.5 Q530 763 508 763 Q485 763 470 778.5 Q455 794 455 816 Z " />
<glyph glyph-name="multiply" unicode="&#xd7;" horiz-adv-x="539" d="M74 200 L207 333 L73 467 L136 530 L270 397 L403 530 L464 468 L331 335 L465 202 L402 139 L268 272 L135 139 L74 200 Z " />
<glyph glyph-name="Oslash" unicode="&#xd8;" horiz-adv-x="832" d="M157 104 Q112 152 86.5 213.5 Q61 275 61 344 Q61 416 89.5 480.5 Q118 545 167 593.5 Q216 642 280.5 670.5 Q345 699 417 699 Q473 699 523.5 682 Q574 665 617 635 L662 687 L759 687 L673 588 Q719 540 745.5 477 Q772 414 772 344 Q772 272 743.5 207 Q715 142 666.5 93.5 Q618 45 553.5 16.5 Q489 -12 417 -12 Q360 -12 308 6 Q256 24 211 56 L163 0 L66 0 L157 104 Z M161 344 Q161 296 176.5 254 Q192 212 219 177 L557 566 Q526 587 490.5 598.5 Q455 610 417 610 Q365 610 318.5 588.5 Q272 567 237 531 Q202 495 181.5 446.5 Q161 398 161 344 Z M272 125 Q303 102 340 89.5 Q377 77 417 77 Q469 77 515.5 98.5 Q562 120 597 156.5 Q632 193 652.5 241.5 Q673 290 673 344 Q673 393 656.5 437 Q640 481 611 516 L272 125 Z " />
<glyph glyph-name="Ugrave" unicode="&#xd9;" horiz-adv-x="759" d="M379 -12 Q315 -12 261 10 Q207 32 168 72 Q129 112 107.5 167 Q86 222 86 288 L86 687 L183 687 L183 290 Q183 243 197.5 204 Q212 165 238 136.5 Q264 108 300 92.5 Q336 77 379 77 Q422 77 458 92.5 Q494 108 520.5 136.5 Q547 165 561.5 204 Q576 243 576 290 L576 687 L673 687 L673 288 Q673 222 651.5 167 Q630 112 591 72 Q552 32 498 10 Q444 -12 379 -12 Z M295 893 L415 746 L345 746 L202 873 L295 893 Z " />
<glyph glyph-name="Uacute" unicode="&#xda;" horiz-adv-x="759" d="M379 -12 Q315 -12 261 10 Q207 32 168 72 Q129 112 107.5 167 Q86 222 86 288 L86 687 L183 687 L183 290 Q183 243 197.5 204 Q212 165 238 136.5 Q264 108 300 92.5 Q336 77 379 77 Q422 77 458 92.5 Q494 108 520.5 136.5 Q547 165 561.5 204 Q576 243 576 290 L576 687 L673 687 L673 288 Q673 222 651.5 167 Q630 112 591 72 Q552 32 498 10 Q444 -12 379 -12 Z M465 893 L558 873 L415 746 L345 746 L465 893 Z " />
<glyph glyph-name="Ucircumflex" unicode="&#xdb;" horiz-adv-x="759" d="M379 -12 Q315 -12 261 10 Q207 32 168 72 Q129 112 107.5 167 Q86 222 86 288 L86 687 L183 687 L183 290 Q183 243 197.5 204 Q212 165 238 136.5 Q264 108 300 92.5 Q336 77 379 77 Q422 77 458 92.5 Q494 108 520.5 136.5 Q547 165 561.5 204 Q576 243 576 290 L576 687 L673 687 L673 288 Q673 222 651.5 167 Q630 112 591 72 Q552 32 498 10 Q444 -12 379 -12 Z M337 886 L422 886 L525 746 L458 746 L379 829 L302 746 L236 746 L337 886 Z " />
<glyph glyph-name="Udieresis" unicode="&#xdc;" horiz-adv-x="759" d="M379 -12 Q315 -12 261 10 Q207 32 168 72 Q129 112 107.5 167 Q86 222 86 288 L86 687 L183 687 L183 290 Q183 243 197.5 204 Q212 165 238 136.5 Q264 108 300 92.5 Q336 77 379 77 Q422 77 458 92.5 Q494 108 520.5 136.5 Q547 165 561.5 204 Q576 243 576 290 L576 687 L673 687 L673 288 Q673 222 651.5 167 Q630 112 591 72 Q552 32 498 10 Q444 -12 379 -12 Z M228 816 Q228 837 242.5 853 Q257 869 280 869 Q302 869 317.5 853 Q333 837 333 816 Q333 794 317.5 778.5 Q302 763 280 763 Q257 763 242.5 778.5 Q228 794 228 816 Z M425 816 Q425 837 440 853 Q455 869 478 869 Q500 869 515.5 853 Q531 837 531 816 Q531 794 515.5 778.5 Q500 763 478 763 Q455 763 440 778.5 Q425 794 425 816 Z " />
<glyph glyph-name="Yacute" unicode="&#xdd;" horiz-adv-x="689" d="M295 271 L20 687 L138 687 L345 363 L556 687 L669 687 L396 271 L396 0 L295 0 L295 271 Z M430 893 L523 873 L380 746 L310 746 L430 893 Z " />
<glyph glyph-name="Thorn" unicode="&#xde;" horiz-adv-x="696" d="M96 687 L194 687 L194 569 L383 569 Q437 569 483.5 552.5 Q530 536 564.5 506.5 Q599 477 618.5 436 Q638 395 638 346 Q638 297 618.5 256 Q599 215 564.5 185.5 Q530 156 483.5 139.5 Q437 123 383 123 L193 123 L193 0 L96 0 L96 687 Z M369 214 Q445 214 491.5 248.5 Q538 283 538 346 Q538 409 491.5 443.5 Q445 478 369 478 L193 478 L193 214 L369 214 Z " />
<glyph glyph-name="germandbls" unicode="&#xdf;" horiz-adv-x="591" d="M82 524 Q82 565 98 599 Q114 633 143.5 658 Q173 683 213 696.5 Q253 710 301 710 Q349 710 388.5 696.5 Q428 683 457 658 Q486 633 502 599 Q518 565 518 524 Q518 407 423 364 Q546 317 546 188 Q546 147 530.5 112.5 Q515 78 487 53 Q459 28 420.5 14 Q382 0 336 0 L253 0 L253 86 L314 86 Q373 86 410 118 Q447 150 447 201 Q447 252 410 284 Q373 316 314 316 L253 316 L253 400 L299 400 Q325 400 347 408.5 Q369 417 385 432 Q401 447 410 467 Q419 487 419 509 Q419 557 386 587 Q353 617 299 617 Q246 617 212.5 586 Q179 555 179 505 L179 0 L82 0 L82 524 Z " />
<glyph glyph-name="agrave" unicode="&#xe0;" horiz-adv-x="562" d="M398 72 Q369 30 321 9 Q273 -12 224 -12 Q136 -12 85 29.5 Q34 71 34 143 Q34 211 89 255 Q144 299 240 307 Q278 311 319 313 Q360 315 398 320 Q397 344 390 367.5 Q383 391 367.5 409.5 Q352 428 327 439.5 Q302 451 264 451 Q226 451 189 437.5 Q152 424 117 407 L82 477 Q138 505 186 517 Q234 529 277 529 Q329 529 369 513.5 Q409 498 436 469.5 Q463 441 477 401 Q491 361 491 313 L491 0 L398 0 L398 72 Z M192 723 L312 576 L242 576 L99 703 L192 723 Z M125 146 Q125 108 157 86 Q189 64 243 64 Q267 64 292 70 Q317 76 338.5 88 Q360 100 376 118.5 Q392 137 398 162 L398 249 Q363 245 327.5 243.5 Q292 242 254 237 Q194 229 159.5 205 Q125 181 125 146 Z " />
<glyph glyph-name="aacute" unicode="&#xe1;" horiz-adv-x="562" d="M398 72 Q369 30 321 9 Q273 -12 224 -12 Q136 -12 85 29.5 Q34 71 34 143 Q34 211 89 255 Q144 299 240 307 Q278 311 319 313 Q360 315 398 320 Q397 344 390 367.5 Q383 391 367.5 409.5 Q352 428 327 439.5 Q302 451 264 451 Q226 451 189 437.5 Q152 424 117 407 L82 477 Q138 505 186 517 Q234 529 277 529 Q329 529 369 513.5 Q409 498 436 469.5 Q463 441 477 401 Q491 361 491 313 L491 0 L398 0 L398 72 Z M125 146 Q125 108 157 86 Q189 64 243 64 Q267 64 292 70 Q317 76 338.5 88 Q360 100 376 118.5 Q392 137 398 162 L398 249 Q363 245 327.5 243.5 Q292 242 254 237 Q194 229 159.5 205 Q125 181 125 146 Z M362 723 L455 703 L312 576 L242 576 L362 723 Z " />
<glyph glyph-name="acircumflex" unicode="&#xe2;" horiz-adv-x="562" d="M398 72 Q369 30 321 9 Q273 -12 224 -12 Q136 -12 85 29.5 Q34 71 34 143 Q34 211 89 255 Q144 299 240 307 Q278 311 319 313 Q360 315 398 320 Q397 344 390 367.5 Q383 391 367.5 409.5 Q352 428 327 439.5 Q302 451 264 451 Q226 451 189 437.5 Q152 424 117 407 L82 477 Q138 505 186 517 Q234 529 277 529 Q329 529 369 513.5 Q409 498 436 469.5 Q463 441 477 401 Q491 361 491 313 L491 0 L398 0 L398 72 Z M125 146 Q125 108 157 86 Q189 64 243 64 Q267 64 292 70 Q317 76 338.5 88 Q360 100 376 118.5 Q392 137 398 162 L398 249 Q363 245 327.5 243.5 Q292 242 254 237 Q194 229 159.5 205 Q125 181 125 146 Z M234 716 L319 716 L422 576 L355 576 L276 659 L199 576 L133 576 L234 716 Z " />
<glyph glyph-name="atilde" unicode="&#xe3;" horiz-adv-x="562" d="M398 72 Q369 30 321 9 Q273 -12 224 -12 Q136 -12 85 29.5 Q34 71 34 143 Q34 211 89 255 Q144 299 240 307 Q278 311 319 313 Q360 315 398 320 Q397 344 390 367.5 Q383 391 367.5 409.5 Q352 428 327 439.5 Q302 451 264 451 Q226 451 189 437.5 Q152 424 117 407 L82 477 Q138 505 186 517 Q234 529 277 529 Q329 529 369 513.5 Q409 498 436 469.5 Q463 441 477 401 Q491 361 491 313 L491 0 L398 0 L398 72 Z M110 581 Q118 641 142.5 672 Q167 703 211 703 Q233 703 250.5 693.5 Q268 684 283 672 Q298 660 312 650.5 Q326 641 340 641 Q359 641 370.5 656 Q382 671 388 705 L441 697 Q433 637 409 605.5 Q385 574 341 574 Q319 574 301.5 583.5 Q284 593 269 605 Q254 617 240 626.5 Q226 636 212 636 Q193 636 181 621 Q169 606 164 573 L110 581 Z M125 146 Q125 108 157 86 Q189 64 243 64 Q267 64 292 70 Q317 76 338.5 88 Q360 100 376 118.5 Q392 137 398 162 L398 249 Q363 245 327.5 243.5 Q292 242 254 237 Q194 229 159.5 205 Q125 181 125 146 Z " />
<glyph glyph-name="adieresis" unicode="&#xe4;" horiz-adv-x="562" d="M398 72 Q369 30 321 9 Q273 -12 224 -12 Q136 -12 85 29.5 Q34 71 34 143 Q34 211 89 255 Q144 299 240 307 Q278 311 319 313 Q360 315 398 320 Q397 344 390 367.5 Q383 391 367.5 409.5 Q352 428 327 439.5 Q302 451 264 451 Q226 451 189 437.5 Q152 424 117 407 L82 477 Q138 505 186 517 Q234 529 277 529 Q329 529 369 513.5 Q409 498 436 469.5 Q463 441 477 401 Q491 361 491 313 L491 0 L398 0 L398 72 Z M125 146 Q125 108 157 86 Q189 64 243 64 Q267 64 292 70 Q317 76 338.5 88 Q360 100 376 118.5 Q392 137 398 162 L398 249 Q363 245 327.5 243.5 Q292 242 254 237 Q194 229 159.5 205 Q125 181 125 146 Z M126 646 Q126 667 140.5 683 Q155 699 178 699 Q200 699 215.5 683 Q231 667 231 646 Q231 624 215.5 608.5 Q200 593 178 593 Q155 593 140.5 608.5 Q126 624 126 646 Z M323 646 Q323 667 338 683 Q353 699 376 699 Q398 699 413.5 683 Q429 667 429 646 Q429 624 413.5 608.5 Q398 593 376 593 Q353 593 338 608.5 Q323 624 323 646 Z " />
<glyph glyph-name="aring" unicode="&#xe5;" horiz-adv-x="562" d="M398 72 Q369 30 321 9 Q273 -12 224 -12 Q136 -12 85 29.5 Q34 71 34 143 Q34 211 89 255 Q144 299 240 307 Q278 311 319 313 Q360 315 398 320 Q397 344 390 367.5 Q383 391 367.5 409.5 Q352 428 327 439.5 Q302 451 264 451 Q226 451 189 437.5 Q152 424 117 407 L82 477 Q138 505 186 517 Q234 529 277 529 Q329 529 369 513.5 Q409 498 436 469.5 Q463 441 477 401 Q491 361 491 313 L491 0 L398 0 L398 72 Z M125 146 Q125 108 157 86 Q189 64 243 64 Q267 64 292 70 Q317 76 338.5 88 Q360 100 376 118.5 Q392 137 398 162 L398 249 Q363 245 327.5 243.5 Q292 242 254 237 Q194 229 159.5 205 Q125 181 125 146 Z M171 693 Q171 715 179.5 734 Q188 753 202 767.5 Q216 782 235.5 790.5 Q255 799 277 799 Q299 799 318 790.5 Q337 782 351.5 767.5 Q366 753 374.5 734 Q383 715 383 693 Q383 671 374.5 651.5 Q366 632 351.5 618 Q337 604 318 595.5 Q299 587 277 587 Q255 587 235.5 595.5 Q216 604 202 618 Q188 632 179.5 651.5 Q171 671 171 693 Z M219 693 Q219 670 236.5 652.5 Q254 635 277 635 Q300 635 317 652.5 Q334 670 334 693 Q334 716 317 733 Q300 750 277 750 Q254 750 236.5 733 Q219 716 219 693 Z " />
<glyph glyph-name="ae" unicode="&#xe6;" horiz-adv-x="943" d="M238 -12 Q142 -12 88 31.5 Q34 75 34 153 Q34 192 50.5 223.5 Q67 255 95 277.5 Q123 300 160.5 312.5 Q198 325 240 325 Q279 325 319.5 317.5 Q360 310 398 296 L398 313 Q398 338 392 362.5 Q386 387 370.5 406.5 Q355 426 329 438 Q303 450 264 450 Q226 450 189 436.5 Q152 423 118 406 L83 477 Q138 505 184.5 517 Q231 529 274 529 Q341 529 387 503 Q433 477 457 432 Q493 477 545 503 Q597 529 658 529 Q742 529 799.5 487 Q857 445 883 370 Q894 339 900.5 303.5 Q907 268 907 227 L492 227 Q497 193 511 163.5 Q525 134 547.5 113 Q570 92 599 80 Q628 68 663 68 Q706 68 749.5 84.5 Q793 101 818 127 L874 68 Q857 50 832.5 35 Q808 20 780 9.5 Q752 -1 722 -6.5 Q692 -12 665 -12 Q599 -12 543 17 Q487 46 450 97 Q418 48 362.5 18 Q307 -12 238 -12 Z M126 156 Q126 113 159 88.5 Q192 64 252 64 Q282 64 308.5 74.5 Q335 85 355 103 Q375 121 386.5 145 Q398 169 398 196 L398 233 Q332 253 255 253 Q228 253 204.5 246 Q181 239 163.5 226 Q146 213 136 195 Q126 177 126 156 Z M814 300 Q812 312 810 324 Q808 336 803 347 Q787 392 752 420.5 Q717 449 660 449 Q597 449 551 408.5 Q505 368 493 300 L814 300 Z " />
<glyph glyph-name="ccedilla" unicode="&#xe7;" horiz-adv-x="525" d="M287 -193 Q261 -193 237 -185 Q213 -177 197 -165 L218 -119 Q249 -142 282 -142 Q302 -142 316 -132 Q330 -122 330 -106 Q330 -92 321 -83 Q312 -74 293 -74 Q275 -74 260 -84 L242 -66 L267 -8 Q219 0 177.5 24.5 Q136 49 105.5 84.5 Q75 120 57 165 Q39 210 39 259 Q39 314 61 363 Q83 412 120 449 Q157 486 206.5 507.5 Q256 529 311 529 Q367 529 415 508 Q463 487 500 450 L436 390 Q412 416 379.5 431.5 Q347 447 311 447 Q275 447 243 432 Q211 417 187 391.5 Q163 366 149 331.5 Q135 297 135 259 Q135 221 149 186.5 Q163 152 187 126.5 Q211 101 243 86 Q275 71 311 71 Q348 71 381 86.5 Q414 102 439 130 L503 70 Q468 35 422.5 13 Q377 -9 323 -12 L309 -45 L317 -45 Q348 -45 368 -63.5 Q388 -82 388 -111 Q388 -149 359 -171 Q330 -193 287 -193 Z " />
<glyph glyph-name="egrave" unicode="&#xe8;" horiz-adv-x="586" d="M308 -12 Q254 -12 206 8 Q158 28 121.5 64 Q85 100 63.5 150 Q42 200 42 260 Q42 318 62.5 367.5 Q83 417 118 453 Q153 489 200 509 Q247 529 301 529 Q385 529 442.5 487 Q500 445 526 370 Q537 339 543.5 303.5 Q550 268 550 227 L135 227 Q140 193 154 163.5 Q168 134 190.5 113 Q213 92 242 80 Q271 68 306 68 Q349 68 392.5 84.5 Q436 101 461 127 L517 68 Q500 50 475.5 35 Q451 20 423 9.5 Q395 -1 365 -6.5 Q335 -12 308 -12 Z M216 723 L336 576 L266 576 L123 703 L216 723 Z M457 300 Q455 312 453 324 Q451 336 446 347 Q430 392 395 420.5 Q360 449 303 449 Q240 449 194 408.5 Q148 368 136 300 L457 300 Z " />
<glyph glyph-name="eacute" unicode="&#xe9;" horiz-adv-x="586" d="M308 -12 Q254 -12 206 8 Q158 28 121.5 64 Q85 100 63.5 150 Q42 200 42 260 Q42 318 62.5 367.5 Q83 417 118 453 Q153 489 200 509 Q247 529 301 529 Q385 529 442.5 487 Q500 445 526 370 Q537 339 543.5 303.5 Q550 268 550 227 L135 227 Q140 193 154 163.5 Q168 134 190.5 113 Q213 92 242 80 Q271 68 306 68 Q349 68 392.5 84.5 Q436 101 461 127 L517 68 Q500 50 475.5 35 Q451 20 423 9.5 Q395 -1 365 -6.5 Q335 -12 308 -12 Z M457 300 Q455 312 453 324 Q451 336 446 347 Q430 392 395 420.5 Q360 449 303 449 Q240 449 194 408.5 Q148 368 136 300 L457 300 Z M386 723 L479 703 L336 576 L266 576 L386 723 Z " />
<glyph glyph-name="ecircumflex" unicode="&#xea;" horiz-adv-x="586" d="M308 -12 Q254 -12 206 8 Q158 28 121.5 64 Q85 100 63.5 150 Q42 200 42 260 Q42 318 62.5 367.5 Q83 417 118 453 Q153 489 200 509 Q247 529 301 529 Q385 529 442.5 487 Q500 445 526 370 Q537 339 543.5 303.5 Q550 268 550 227 L135 227 Q140 193 154 163.5 Q168 134 190.5 113 Q213 92 242 80 Q271 68 306 68 Q349 68 392.5 84.5 Q436 101 461 127 L517 68 Q500 50 475.5 35 Q451 20 423 9.5 Q395 -1 365 -6.5 Q335 -12 308 -12 Z M457 300 Q455 312 453 324 Q451 336 446 347 Q430 392 395 420.5 Q360 449 303 449 Q240 449 194 408.5 Q148 368 136 300 L457 300 Z M258 716 L343 716 L446 576 L379 576 L300 659 L223 576 L157 576 L258 716 Z " />
<glyph glyph-name="edieresis" unicode="&#xeb;" horiz-adv-x="586" d="M308 -12 Q254 -12 206 8 Q158 28 121.5 64 Q85 100 63.5 150 Q42 200 42 260 Q42 318 62.5 367.5 Q83 417 118 453 Q153 489 200 509 Q247 529 301 529 Q385 529 442.5 487 Q500 445 526 370 Q537 339 543.5 303.5 Q550 268 550 227 L135 227 Q140 193 154 163.5 Q168 134 190.5 113 Q213 92 242 80 Q271 68 306 68 Q349 68 392.5 84.5 Q436 101 461 127 L517 68 Q500 50 475.5 35 Q451 20 423 9.5 Q395 -1 365 -6.5 Q335 -12 308 -12 Z M457 300 Q455 312 453 324 Q451 336 446 347 Q430 392 395 420.5 Q360 449 303 449 Q240 449 194 408.5 Q148 368 136 300 L457 300 Z M150 646 Q150 667 164.5 683 Q179 699 202 699 Q224 699 239.5 683 Q255 667 255 646 Q255 624 239.5 608.5 Q224 593 202 593 Q179 593 164.5 608.5 Q150 624 150 646 Z M347 646 Q347 667 362 683 Q377 699 400 699 Q422 699 437.5 683 Q453 667 453 646 Q453 624 437.5 608.5 Q422 593 400 593 Q377 593 362 608.5 Q347 624 347 646 Z " />
<glyph glyph-name="igrave" unicode="&#xec;" horiz-adv-x="259" d="M82 517 L177 517 L177 0 L82 0 L82 517 Z M46 723 L166 576 L96 576 L-47 703 L46 723 Z " />
<glyph glyph-name="iacute" unicode="&#xed;" horiz-adv-x="259" d="M82 517 L177 517 L177 0 L82 0 L82 517 Z M215 723 L308 703 L165 576 L95 576 L215 723 Z " />
<glyph glyph-name="icircumflex" unicode="&#xee;" horiz-adv-x="259" d="M82 517 L177 517 L177 0 L82 0 L82 517 Z M88 716 L173 716 L276 576 L209 576 L130 659 L53 576 L-13 576 L88 716 Z " />
<glyph glyph-name="idieresis" unicode="&#xef;" horiz-adv-x="259" d="M82 517 L177 517 L177 0 L82 0 L82 517 Z M-21 646 Q-21 667 -6.5 683 Q8 699 31 699 Q53 699 68.5 683 Q84 667 84 646 Q84 624 68.5 608.5 Q53 593 31 593 Q8 593 -6.5 608.5 Q-21 624 -21 646 Z M176 646 Q176 667 191 683 Q206 699 229 699 Q251 699 266.5 683 Q282 667 282 646 Q282 624 266.5 608.5 Q251 593 229 593 Q206 593 191 608.5 Q176 624 176 646 Z " />
<glyph glyph-name="eth" unicode="&#xf0;" horiz-adv-x="606" d="M301 72 Q336 72 365.5 84.5 Q395 97 416.5 120 Q438 143 450 175 Q462 207 462 245 Q462 281 450.5 312 Q439 343 417.5 366 Q396 389 366 402.5 Q336 416 298 416 Q262 416 232.5 403.5 Q203 391 181.5 368.5 Q160 346 148 315 Q136 284 136 247 Q136 208 148 176 Q160 144 182 121 Q204 98 234.5 85 Q265 72 301 72 Z M41 249 Q41 303 58 348.5 Q75 394 106 427 Q137 460 179 478.5 Q221 497 272 497 Q323 497 363 476.5 Q403 456 435 418 Q413 460 379 499.5 Q345 539 303 575 L186 523 L157 589 L240 626 Q221 640 201.5 653.5 Q182 667 162 681 L253 719 Q272 705 289 691 Q306 677 323 663 L420 706 L449 640 L383 611 Q470 529 514 449.5 Q558 370 558 272 Q558 209 539 157 Q520 105 486 67.5 Q452 30 405 9 Q358 -12 301 -12 Q244 -12 196.5 7.5 Q149 27 114.5 61.5 Q80 96 60.5 144 Q41 192 41 249 Z " />
<glyph glyph-name="ntilde" unicode="&#xf1;" horiz-adv-x="607" d="M82 517 L177 517 L177 441 Q200 480 244.5 504.5 Q289 529 343 529 Q386 529 421.5 514.5 Q457 500 482.5 473.5 Q508 447 522 410.5 Q536 374 536 329 L536 0 L443 0 L443 313 Q443 373 410 410 Q377 447 323 447 Q293 447 266 437 Q239 427 219.5 410.5 Q200 394 188.5 371.5 Q177 349 177 323 L177 0 L82 0 L82 517 Z M141 581 Q149 641 173.5 672 Q198 703 242 703 Q264 703 281.5 693.5 Q299 684 314 672 Q329 660 343 650.5 Q357 641 371 641 Q390 641 401.5 656 Q413 671 419 705 L472 697 Q464 637 440 605.5 Q416 574 372 574 Q350 574 332.5 583.5 Q315 593 300 605 Q285 617 271 626.5 Q257 636 243 636 Q224 636 212 621 Q200 606 195 573 L141 581 Z " />
<glyph glyph-name="ograve" unicode="&#xf2;" horiz-adv-x="621" d="M311 -12 Q255 -12 205.5 9.5 Q156 31 119.5 67.5 Q83 104 61.5 153.5 Q40 203 40 259 Q40 315 61.5 364 Q83 413 119.5 450 Q156 487 205.5 508 Q255 529 311 529 Q367 529 416 508 Q465 487 502 450 Q539 413 560 364 Q581 315 581 259 Q581 203 560 153.5 Q539 104 502 67.5 Q465 31 416 9.5 Q367 -12 311 -12 Z M227 723 L347 576 L277 576 L134 703 L227 723 Z M135 259 Q135 220 149 186 Q163 152 187 126.5 Q211 101 243 86 Q275 71 311 71 Q347 71 379 86 Q411 101 434.5 126.5 Q458 152 472 186 Q486 220 486 259 Q486 298 472 332.5 Q458 367 434.5 392.5 Q411 418 379 432.5 Q347 447 311 447 Q275 447 243 432.5 Q211 418 187 392.5 Q163 367 149 332.5 Q135 298 135 259 Z " />
<glyph glyph-name="oacute" unicode="&#xf3;" horiz-adv-x="621" d="M311 -12 Q255 -12 205.5 9.5 Q156 31 119.5 67.5 Q83 104 61.5 153.5 Q40 203 40 259 Q40 315 61.5 364 Q83 413 119.5 450 Q156 487 205.5 508 Q255 529 311 529 Q367 529 416 508 Q465 487 502 450 Q539 413 560 364 Q581 315 581 259 Q581 203 560 153.5 Q539 104 502 67.5 Q465 31 416 9.5 Q367 -12 311 -12 Z M135 259 Q135 220 149 186 Q163 152 187 126.5 Q211 101 243 86 Q275 71 311 71 Q347 71 379 86 Q411 101 434.5 126.5 Q458 152 472 186 Q486 220 486 259 Q486 298 472 332.5 Q458 367 434.5 392.5 Q411 418 379 432.5 Q347 447 311 447 Q275 447 243 432.5 Q211 418 187 392.5 Q163 367 149 332.5 Q135 298 135 259 Z M396 723 L489 703 L346 576 L276 576 L396 723 Z " />
<glyph glyph-name="ocircumflex" unicode="&#xf4;" horiz-adv-x="621" d="M311 -12 Q255 -12 205.5 9.5 Q156 31 119.5 67.5 Q83 104 61.5 153.5 Q40 203 40 259 Q40 315 61.5 364 Q83 413 119.5 450 Q156 487 205.5 508 Q255 529 311 529 Q367 529 416 508 Q465 487 502 450 Q539 413 560 364 Q581 315 581 259 Q581 203 560 153.5 Q539 104 502 67.5 Q465 31 416 9.5 Q367 -12 311 -12 Z M135 259 Q135 220 149 186 Q163 152 187 126.5 Q211 101 243 86 Q275 71 311 71 Q347 71 379 86 Q411 101 434.5 126.5 Q458 152 472 186 Q486 220 486 259 Q486 298 472 332.5 Q458 367 434.5 392.5 Q411 418 379 432.5 Q347 447 311 447 Q275 447 243 432.5 Q211 418 187 392.5 Q163 367 149 332.5 Q135 298 135 259 Z M269 716 L354 716 L457 576 L390 576 L311 659 L234 576 L168 576 L269 716 Z " />
<glyph glyph-name="otilde" unicode="&#xf5;" horiz-adv-x="621" d="M311 -12 Q255 -12 205.5 9.5 Q156 31 119.5 67.5 Q83 104 61.5 153.5 Q40 203 40 259 Q40 315 61.5 364 Q83 413 119.5 450 Q156 487 205.5 508 Q255 529 311 529 Q367 529 416 508 Q465 487 502 450 Q539 413 560 364 Q581 315 581 259 Q581 203 560 153.5 Q539 104 502 67.5 Q465 31 416 9.5 Q367 -12 311 -12 Z M135 259 Q135 220 149 186 Q163 152 187 126.5 Q211 101 243 86 Q275 71 311 71 Q347 71 379 86 Q411 101 434.5 126.5 Q458 152 472 186 Q486 220 486 259 Q486 298 472 332.5 Q458 367 434.5 392.5 Q411 418 379 432.5 Q347 447 311 447 Q275 447 243 432.5 Q211 418 187 392.5 Q163 367 149 332.5 Q135 298 135 259 Z M145 581 Q153 641 177.5 672 Q202 703 246 703 Q268 703 285.5 693.5 Q303 684 318 672 Q333 660 347 650.5 Q361 641 375 641 Q394 641 405.5 656 Q417 671 423 705 L476 697 Q468 637 444 605.5 Q420 574 376 574 Q354 574 336.5 583.5 Q319 593 304 605 Q289 617 275 626.5 Q261 636 247 636 Q228 636 216 621 Q204 606 199 573 L145 581 Z " />
<glyph glyph-name="odieresis" unicode="&#xf6;" horiz-adv-x="621" d="M311 -12 Q255 -12 205.5 9.5 Q156 31 119.5 67.5 Q83 104 61.5 153.5 Q40 203 40 259 Q40 315 61.5 364 Q83 413 119.5 450 Q156 487 205.5 508 Q255 529 311 529 Q367 529 416 508 Q465 487 502 450 Q539 413 560 364 Q581 315 581 259 Q581 203 560 153.5 Q539 104 502 67.5 Q465 31 416 9.5 Q367 -12 311 -12 Z M135 259 Q135 220 149 186 Q163 152 187 126.5 Q211 101 243 86 Q275 71 311 71 Q347 71 379 86 Q411 101 434.5 126.5 Q458 152 472 186 Q486 220 486 259 Q486 298 472 332.5 Q458 367 434.5 392.5 Q411 418 379 432.5 Q347 447 311 447 Q275 447 243 432.5 Q211 418 187 392.5 Q163 367 149 332.5 Q135 298 135 259 Z M160 646 Q160 667 174.5 683 Q189 699 212 699 Q234 699 249.5 683 Q265 667 265 646 Q265 624 249.5 608.5 Q234 593 212 593 Q189 593 174.5 608.5 Q160 624 160 646 Z M357 646 Q357 667 372 683 Q387 699 410 699 Q432 699 447.5 683 Q463 667 463 646 Q463 624 447.5 608.5 Q432 593 410 593 Q387 593 372 608.5 Q357 624 357 646 Z " />
<glyph glyph-name="divide" unicode="&#xf7;" horiz-adv-x="597" d="M66 377 L531 377 L531 291 L66 291 L66 377 Z M238 166 Q238 190 256 208 Q274 226 300 226 Q325 226 342.5 208 Q360 190 360 166 Q360 140 342.5 121.5 Q325 103 300 103 Q274 103 256 121.5 Q238 140 238 166 Z M238 505 Q238 528 256 546.5 Q274 565 300 565 Q325 565 342.5 546.5 Q360 528 360 505 Q360 479 342.5 460.5 Q325 442 300 442 Q274 442 256 460.5 Q238 479 238 505 Z " />
<glyph glyph-name="oslash" unicode="&#xf8;" horiz-adv-x="642" d="M122 74 Q87 110 67.5 157.5 Q48 205 48 259 Q48 315 69.5 364 Q91 413 127.5 450 Q164 487 213.5 508 Q263 529 319 529 Q361 529 400 517 Q439 505 471 482 L501 517 L592 517 L523 436 Q554 401 571.5 355.5 Q589 310 589 259 Q589 203 568 153.5 Q547 104 510 67.5 Q473 31 424 9.5 Q375 -12 319 -12 Q240 -12 175 30 L149 0 L59 0 L122 74 Z M143 259 Q143 226 153 196.5 Q163 167 181 143 L415 416 Q372 447 319 447 Q283 447 251 432.5 Q219 418 195 392.5 Q171 367 157 332.5 Q143 298 143 259 Z M231 96 Q272 71 319 71 Q355 71 387 86 Q419 101 442.5 126.5 Q466 152 480 186 Q494 220 494 259 Q494 289 485.5 316 Q477 343 463 366 L231 96 Z " />
<glyph glyph-name="ugrave" unicode="&#xf9;" horiz-adv-x="607" d="M525 0 L430 0 L430 76 Q407 37 362.5 12.5 Q318 -12 264 -12 Q221 -12 185.5 2.5 Q150 17 124.5 43.5 Q99 70 85 106.5 Q71 143 71 188 L71 517 L164 517 L164 204 Q164 144 197 107 Q230 70 284 70 Q314 70 341 80 Q368 90 387.5 106.5 Q407 123 418.5 146 Q430 169 430 194 L430 517 L525 517 L525 0 Z M206 723 L326 576 L256 576 L113 703 L206 723 Z " />
<glyph glyph-name="uacute" unicode="&#xfa;" horiz-adv-x="607" d="M525 0 L430 0 L430 76 Q407 37 362.5 12.5 Q318 -12 264 -12 Q221 -12 185.5 2.5 Q150 17 124.5 43.5 Q99 70 85 106.5 Q71 143 71 188 L71 517 L164 517 L164 204 Q164 144 197 107 Q230 70 284 70 Q314 70 341 80 Q368 90 387.5 106.5 Q407 123 418.5 146 Q430 169 430 194 L430 517 L525 517 L525 0 Z M376 723 L469 703 L326 576 L256 576 L376 723 Z " />
<glyph glyph-name="ucircumflex" unicode="&#xfb;" horiz-adv-x="607" d="M525 0 L430 0 L430 76 Q407 37 362.5 12.5 Q318 -12 264 -12 Q221 -12 185.5 2.5 Q150 17 124.5 43.5 Q99 70 85 106.5 Q71 143 71 188 L71 517 L164 517 L164 204 Q164 144 197 107 Q230 70 284 70 Q314 70 341 80 Q368 90 387.5 106.5 Q407 123 418.5 146 Q430 169 430 194 L430 517 L525 517 L525 0 Z M248 716 L333 716 L436 576 L369 576 L290 659 L213 576 L147 576 L248 716 Z " />
<glyph glyph-name="udieresis" unicode="&#xfc;" horiz-adv-x="607" d="M525 0 L430 0 L430 76 Q407 37 362.5 12.5 Q318 -12 264 -12 Q221 -12 185.5 2.5 Q150 17 124.5 43.5 Q99 70 85 106.5 Q71 143 71 188 L71 517 L164 517 L164 204 Q164 144 197 107 Q230 70 284 70 Q314 70 341 80 Q368 90 387.5 106.5 Q407 123 418.5 146 Q430 169 430 194 L430 517 L525 517 L525 0 Z M140 646 Q140 667 154.5 683 Q169 699 192 699 Q214 699 229.5 683 Q245 667 245 646 Q245 624 229.5 608.5 Q214 593 192 593 Q169 593 154.5 608.5 Q140 624 140 646 Z M337 646 Q337 667 352 683 Q367 699 390 699 Q412 699 427.5 683 Q443 667 443 646 Q443 624 427.5 608.5 Q412 593 390 593 Q367 593 352 608.5 Q337 624 337 646 Z " />
<glyph glyph-name="yacute" unicode="&#xfd;" horiz-adv-x="551" d="M145 -180 Q119 -180 94.5 -174.5 Q70 -169 50 -159 L71 -85 Q103 -101 134 -101 Q158 -101 175 -92 Q192 -83 206 -60 L232 -3 L10 517 L112 517 L280 106 L440 517 L539 517 L310 -49 Q282 -118 241.5 -148.5 Q201 -179 145 -180 Z M365 723 L458 703 L315 576 L245 576 L365 723 Z " />
<glyph glyph-name="thorn" unicode="&#xfe;" horiz-adv-x="644" d="M83 699 L178 699 L178 427 Q208 475 255 502 Q302 529 362 529 Q413 529 457 509 Q501 489 532.5 453 Q564 417 582 367.5 Q600 318 600 259 Q600 199 582 149.5 Q564 100 532.5 64 Q501 28 457 8 Q413 -12 362 -12 Q302 -12 255 15 Q208 42 178 90 L178 -172 L83 -172 L83 699 Z M178 259 Q178 218 190 183.5 Q202 149 223.5 124 Q245 99 275 85 Q305 71 341 71 Q377 71 406.5 85 Q436 99 458 124 Q480 149 492 183.5 Q504 218 504 259 Q504 300 492 334.5 Q480 369 458 394 Q436 419 406.5 433 Q377 447 341 447 Q305 447 275 433 Q245 419 223.5 394 Q202 369 190 334.5 Q178 300 178 259 Z " />
<glyph glyph-name="ydieresis" unicode="&#xff;" horiz-adv-x="551" d="M145 -180 Q119 -180 94.5 -174.5 Q70 -169 50 -159 L71 -85 Q103 -101 134 -101 Q158 -101 175 -92 Q192 -83 206 -60 L232 -3 L10 517 L112 517 L280 106 L440 517 L539 517 L310 -49 Q282 -118 241.5 -148.5 Q201 -179 145 -180 Z M129 646 Q129 667 143.5 683 Q158 699 181 699 Q203 699 218.5 683 Q234 667 234 646 Q234 624 218.5 608.5 Q203 593 181 593 Q158 593 143.5 608.5 Q129 624 129 646 Z M326 646 Q326 667 341 683 Q356 699 379 699 Q401 699 416.5 683 Q432 667 432 646 Q432 624 416.5 608.5 Q401 593 379 593 Q356 593 341 608.5 Q326 624 326 646 Z " />
<glyph glyph-name="Amacron" unicode="&#x100;" horiz-adv-x="750" d="M726 0 L618 0 L556 145 L195 145 L133 0 L25 0 L322 687 L429 687 L726 0 Z M216 824 L535 824 L535 761 L216 761 L216 824 Z M518 231 L376 563 L233 231 L518 231 Z " />
<glyph glyph-name="amacron" unicode="&#x101;" horiz-adv-x="562" d="M398 72 Q369 30 321 9 Q273 -12 224 -12 Q136 -12 85 29.5 Q34 71 34 143 Q34 211 89 255 Q144 299 240 307 Q278 311 319 313 Q360 315 398 320 Q397 344 390 367.5 Q383 391 367.5 409.5 Q352 428 327 439.5 Q302 451 264 451 Q226 451 189 437.5 Q152 424 117 407 L82 477 Q138 505 186 517 Q234 529 277 529 Q329 529 369 513.5 Q409 498 436 469.5 Q463 441 477 401 Q491 361 491 313 L491 0 L398 0 L398 72 Z M117 654 L436 654 L436 591 L117 591 L117 654 Z M125 146 Q125 108 157 86 Q189 64 243 64 Q267 64 292 70 Q317 76 338.5 88 Q360 100 376 118.5 Q392 137 398 162 L398 249 Q363 245 327.5 243.5 Q292 242 254 237 Q194 229 159.5 205 Q125 181 125 146 Z " />
<glyph glyph-name="Abreve" unicode="&#x102;" horiz-adv-x="750" d="M726 0 L618 0 L556 145 L195 145 L133 0 L25 0 L322 687 L429 687 L726 0 Z M277 870 Q297 850 323.5 839 Q350 828 376 828 Q402 828 428 839 Q454 850 474 870 L526 819 Q495 787 456 772 Q417 757 376 757 Q334 757 295.5 772 Q257 787 225 819 L277 870 Z M518 231 L376 563 L233 231 L518 231 Z " />
<glyph glyph-name="abreve" unicode="&#x103;" horiz-adv-x="562" d="M398 72 Q369 30 321 9 Q273 -12 224 -12 Q136 -12 85 29.5 Q34 71 34 143 Q34 211 89 255 Q144 299 240 307 Q278 311 319 313 Q360 315 398 320 Q397 344 390 367.5 Q383 391 367.5 409.5 Q352 428 327 439.5 Q302 451 264 451 Q226 451 189 437.5 Q152 424 117 407 L82 477 Q138 505 186 517 Q234 529 277 529 Q329 529 369 513.5 Q409 498 436 469.5 Q463 441 477 401 Q491 361 491 313 L491 0 L398 0 L398 72 Z M125 146 Q125 108 157 86 Q189 64 243 64 Q267 64 292 70 Q317 76 338.5 88 Q360 100 376 118.5 Q392 137 398 162 L398 249 Q363 245 327.5 243.5 Q292 242 254 237 Q194 229 159.5 205 Q125 181 125 146 Z M178 700 Q198 680 224.5 669 Q251 658 277 658 Q303 658 329 669 Q355 680 375 700 L427 649 Q396 617 357 602 Q318 587 277 587 Q235 587 196.5 602 Q158 617 126 649 L178 700 Z " />
<glyph glyph-name="Aogonek" unicode="&#x104;" horiz-adv-x="750" d="M726 0 L725 0 Q701 0 686 -15.5 Q671 -31 671 -54 Q671 -78 685 -92 Q699 -106 725 -106 Q740 -106 751 -101.5 Q762 -97 770 -89 L800 -143 Q764 -173 714 -173 Q666 -173 635.5 -144.5 Q605 -116 605 -65 Q605 -27 629 0 L618 0 L556 145 L195 145 L133 0 L25 0 L322 687 L429 687 L726 0 Z M518 231 L376 563 L233 231 L518 231 Z " />
<glyph glyph-name="aogonek" unicode="&#x105;" horiz-adv-x="562" d="M224 -12 Q136 -12 85 29.5 Q34 71 34 143 Q34 211 89 255 Q144 299 240 307 Q278 311 319 313 Q360 315 398 320 Q397 344 390 367.5 Q383 391 367.5 409.5 Q352 428 327 439.5 Q302 451 264 451 Q226 451 189 437.5 Q152 424 117 407 L82 477 Q138 505 186 517 Q234 529 277 529 Q329 529 369 513.5 Q409 498 436 469.5 Q463 441 477 401 Q491 361 491 313 L491 0 Q467 0 452 -15.5 Q437 -31 437 -54 Q437 -78 451 -92 Q465 -106 491 -106 Q506 -106 517 -101.5 Q528 -97 536 -89 L566 -143 Q530 -173 480 -173 Q432 -173 401.5 -144.5 Q371 -116 371 -65 Q371 -45 378.5 -27.5 Q386 -10 398 3 L398 72 Q369 30 321 9 Q273 -12 224 -12 Z M125 146 Q125 108 157 86 Q189 64 243 64 Q267 64 292 70 Q317 76 338.5 88 Q360 100 376 118.5 Q392 137 398 162 L398 249 Q363 245 327.5 243.5 Q292 242 254 237 Q194 229 159.5 205 Q125 181 125 146 Z " />
<glyph glyph-name="Cacute" unicode="&#x106;" horiz-adv-x="697" d="M409 -12 Q337 -12 272.5 16.5 Q208 45 159 93.5 Q110 142 81.5 207 Q53 272 53 344 Q53 416 81.5 480.5 Q110 545 159 593.5 Q208 642 272.5 670.5 Q337 699 409 699 Q483 699 548 670.5 Q613 642 661 591 L593 526 Q558 564 510.5 587 Q463 610 409 610 Q357 610 310.5 588.5 Q264 567 229 531 Q194 495 173.5 446.5 Q153 398 153 344 Q153 290 173.5 241.5 Q194 193 229 156.5 Q264 120 310.5 98.5 Q357 77 409 77 Q463 77 510.5 100 Q558 123 594 162 L661 96 Q613 46 548 17 Q483 -12 409 -12 Z M494 893 L587 873 L444 746 L374 746 L494 893 Z " />
<glyph glyph-name="cacute" unicode="&#x107;" horiz-adv-x="525" d="M311 -12 Q256 -12 206.5 9.5 Q157 31 120 68 Q83 105 61 154.5 Q39 204 39 259 Q39 314 61 363 Q83 412 120 449 Q157 486 206.5 507.5 Q256 529 311 529 Q367 529 415 508 Q463 487 500 450 L436 390 Q412 416 379.5 431.5 Q347 447 311 447 Q275 447 243 432 Q211 417 187 391.5 Q163 366 149 331.5 Q135 297 135 259 Q135 221 149 186.5 Q163 152 187 126.5 Q211 101 243 86 Q275 71 311 71 Q348 71 381 86.5 Q414 102 439 130 L503 70 Q466 32 417 10 Q368 -12 311 -12 Z M376 723 L469 703 L326 576 L256 576 L376 723 Z " />
<glyph glyph-name="Ccaron" unicode="&#x10c;" horiz-adv-x="697" d="M409 -12 Q337 -12 272.5 16.5 Q208 45 159 93.5 Q110 142 81.5 207 Q53 272 53 344 Q53 416 81.5 480.5 Q110 545 159 593.5 Q208 642 272.5 670.5 Q337 699 409 699 Q483 699 548 670.5 Q613 642 661 591 L593 526 Q558 564 510.5 587 Q463 610 409 610 Q357 610 310.5 588.5 Q264 567 229 531 Q194 495 173.5 446.5 Q153 398 153 344 Q153 290 173.5 241.5 Q194 193 229 156.5 Q264 120 310.5 98.5 Q357 77 409 77 Q463 77 510.5 100 Q558 123 594 162 L661 96 Q613 46 548 17 Q483 -12 409 -12 Z M332 886 L410 803 L488 886 L555 886 L452 746 L368 746 L266 886 L332 886 Z " />
<glyph glyph-name="ccaron" unicode="&#x10d;" horiz-adv-x="525" d="M311 -12 Q256 -12 206.5 9.5 Q157 31 120 68 Q83 105 61 154.5 Q39 204 39 259 Q39 314 61 363 Q83 412 120 449 Q157 486 206.5 507.5 Q256 529 311 529 Q367 529 415 508 Q463 487 500 450 L436 390 Q412 416 379.5 431.5 Q347 447 311 447 Q275 447 243 432 Q211 417 187 391.5 Q163 366 149 331.5 Q135 297 135 259 Q135 221 149 186.5 Q163 152 187 126.5 Q211 101 243 86 Q275 71 311 71 Q348 71 381 86.5 Q414 102 439 130 L503 70 Q466 32 417 10 Q368 -12 311 -12 Z M213 716 L291 633 L369 716 L436 716 L333 576 L249 576 L147 716 L213 716 Z " />
<glyph glyph-name="Dcaron" unicode="&#x10e;" horiz-adv-x="771" d="M103 687 L339 687 Q422 687 491.5 661.5 Q561 636 611 590.5 Q661 545 689 482 Q717 419 717 344 Q717 269 689 205.5 Q661 142 611 96.5 Q561 51 491.5 25.5 Q422 0 339 0 L103 0 L103 687 Z M262 886 L340 803 L418 886 L485 886 L382 746 L298 746 L196 886 L262 886 Z M344 89 Q404 89 454.5 108 Q505 127 541.5 160.5 Q578 194 598 241 Q618 288 618 344 Q618 400 598 447 Q578 494 541.5 527.5 Q505 561 454.5 580 Q404 599 344 599 L200 599 L200 89 L344 89 Z " />
<glyph glyph-name="dcaron" unicode="&#x10f;" horiz-adv-x="706" d="M466 89 Q436 41 389.5 14.5 Q343 -12 283 -12 Q232 -12 188 8 Q144 28 112.5 64 Q81 100 63 149.5 Q45 199 45 259 Q45 318 63 367.5 Q81 417 112.5 453 Q144 489 188 509 Q232 529 283 529 Q343 529 389.5 502.5 Q436 476 466 429 L466 699 L561 699 L561 0 L466 0 L466 89 Z M141 259 Q141 218 153 183.5 Q165 149 187 124 Q209 99 238.5 85 Q268 71 304 71 Q371 71 415 116.5 Q459 162 466 236 L466 282 Q459 356 415 401.5 Q371 447 304 447 Q268 447 238.5 433 Q209 419 187 394 Q165 369 153 334.5 Q141 300 141 259 Z M644 647 Q644 668 659 683.5 Q674 699 696 699 Q722 699 738 677.5 Q754 656 754 623 Q754 595 738.5 566.5 Q723 538 684 492 L650 517 Q686 557 695 594 Q673 594 658.5 609.5 Q644 625 644 647 Z " />
<glyph glyph-name="Dcroat" unicode="&#x110;" horiz-adv-x="796" d="M43 394 L128 394 L128 687 L364 687 Q447 687 516.5 661.5 Q586 636 636 590.5 Q686 545 714 482 Q742 419 742 344 Q742 269 714 205.5 Q686 142 636 96.5 Q586 51 516.5 25.5 Q447 0 364 0 L128 0 L128 304 L43 304 L43 394 Z M369 89 Q429 89 479.5 108 Q530 127 566.5 160.5 Q603 194 623 241 Q643 288 643 344 Q643 400 623 447 Q603 494 566.5 527.5 Q530 561 479.5 580 Q429 599 369 599 L225 599 L225 394 L400 394 L399 304 L225 304 L225 89 L369 89 Z " />
<glyph glyph-name="dcroat" unicode="&#x111;" horiz-adv-x="644" d="M307 638 L466 638 L466 699 L561 699 L561 638 L630 638 L630 582 L561 582 L561 0 L466 0 L466 89 Q436 41 389.5 14.5 Q343 -12 283 -12 Q232 -12 188 8 Q144 28 112.5 64 Q81 100 63 149.5 Q45 199 45 259 Q45 318 63 367.5 Q81 417 112.5 453 Q144 489 188 509 Q232 529 283 529 Q343 529 389.5 502.5 Q436 476 466 429 L466 582 L307 582 L307 638 Z M141 259 Q141 218 153 183.5 Q165 149 187 124 Q209 99 238.5 85 Q268 71 304 71 Q371 71 415 116.5 Q459 162 466 236 L466 282 Q459 356 415 401.5 Q371 447 304 447 Q268 447 238.5 433 Q209 419 187 394 Q165 369 153 334.5 Q141 300 141 259 Z " />
<glyph glyph-name="Emacron" unicode="&#x112;" horiz-adv-x="662" d="M103 687 L606 687 L606 597 L201 597 L201 395 L567 395 L567 305 L201 305 L201 91 L606 91 L606 0 L103 0 L103 687 Z M196 824 L515 824 L515 761 L196 761 L196 824 Z " />
<glyph glyph-name="emacron" unicode="&#x113;" horiz-adv-x="586" d="M308 -12 Q254 -12 206 8 Q158 28 121.5 64 Q85 100 63.5 150 Q42 200 42 260 Q42 318 62.5 367.5 Q83 417 118 453 Q153 489 200 509 Q247 529 301 529 Q385 529 442.5 487 Q500 445 526 370 Q537 339 543.5 303.5 Q550 268 550 227 L135 227 Q140 193 154 163.5 Q168 134 190.5 113 Q213 92 242 80 Q271 68 306 68 Q349 68 392.5 84.5 Q436 101 461 127 L517 68 Q500 50 475.5 35 Q451 20 423 9.5 Q395 -1 365 -6.5 Q335 -12 308 -12 Z M457 300 Q455 312 453 324 Q451 336 446 347 Q430 392 395 420.5 Q360 449 303 449 Q240 449 194 408.5 Q148 368 136 300 L457 300 Z M141 654 L460 654 L460 591 L141 591 L141 654 Z " />
<glyph glyph-name="Edotaccent" unicode="&#x116;" horiz-adv-x="662" d="M103 687 L606 687 L606 597 L201 597 L201 395 L567 395 L567 305 L201 305 L201 91 L606 91 L606 0 L103 0 L103 687 Z M303 816 Q303 837 317.5 853 Q332 869 355 869 Q377 869 392.5 853 Q408 837 408 816 Q408 794 392.5 778.5 Q377 763 355 763 Q332 763 317.5 778.5 Q303 794 303 816 Z " />
<glyph glyph-name="edotaccent" unicode="&#x117;" horiz-adv-x="586" d="M308 -12 Q254 -12 206 8 Q158 28 121.5 64 Q85 100 63.5 150 Q42 200 42 260 Q42 318 62.5 367.5 Q83 417 118 453 Q153 489 200 509 Q247 529 301 529 Q385 529 442.5 487 Q500 445 526 370 Q537 339 543.5 303.5 Q550 268 550 227 L135 227 Q140 193 154 163.5 Q168 134 190.5 113 Q213 92 242 80 Q271 68 306 68 Q349 68 392.5 84.5 Q436 101 461 127 L517 68 Q500 50 475.5 35 Q451 20 423 9.5 Q395 -1 365 -6.5 Q335 -12 308 -12 Z M457 300 Q455 312 453 324 Q451 336 446 347 Q430 392 395 420.5 Q360 449 303 449 Q240 449 194 408.5 Q148 368 136 300 L457 300 Z M248 646 Q248 667 262.5 683 Q277 699 300 699 Q322 699 337.5 683 Q353 667 353 646 Q353 624 337.5 608.5 Q322 593 300 593 Q277 593 262.5 608.5 Q248 624 248 646 Z " />
<glyph glyph-name="Eogonek" unicode="&#x118;" horiz-adv-x="661" d="M103 687 L606 687 L606 597 L201 597 L201 395 L567 395 L567 305 L201 305 L201 91 L606 91 L606 0 L504 0 Q480 0 465 -15.5 Q450 -31 450 -54 Q450 -78 464 -92 Q478 -106 504 -106 Q519 -106 530 -101.5 Q541 -97 549 -89 L579 -143 Q543 -173 493 -173 Q445 -173 414.5 -144.5 Q384 -116 384 -65 Q384 -27 408 0 L103 0 L103 687 Z " />
<glyph glyph-name="eogonek" unicode="&#x119;" horiz-adv-x="596" d="M308 -12 Q254 -12 206 8 Q158 28 121.5 64 Q85 100 63.5 150 Q42 200 42 260 Q42 318 62.5 367.5 Q83 417 118 453 Q153 489 200 509 Q247 529 301 529 Q385 529 442.5 487 Q500 445 526 370 Q537 339 543.5 303.5 Q550 268 550 227 L135 227 Q140 193 154 163.5 Q168 134 190.5 113 Q213 92 242 80 Q271 68 306 68 Q349 68 392.5 84.5 Q436 101 461 127 L517 68 Q490 39 446 19 L449 18 L442 18 Q435 15 428.5 12 Q422 9 415 7 Q395 -8 395 -36 Q395 -60 409 -74 Q423 -88 449 -88 Q464 -88 475 -83.5 Q486 -79 494 -71 L524 -125 Q488 -155 438 -155 Q390 -155 359.5 -126.5 Q329 -98 329 -47 Q329 -26 336 -11 Q328 -12 321.5 -12 Q315 -12 308 -12 Z M457 300 Q455 312 453 324 Q451 336 446 347 Q430 392 395 420.5 Q360 449 303 449 Q240 449 194 408.5 Q148 368 136 300 L457 300 Z " />
<glyph glyph-name="Ecaron" unicode="&#x11a;" horiz-adv-x="662" d="M103 687 L606 687 L606 597 L201 597 L201 395 L567 395 L567 305 L201 305 L201 91 L606 91 L606 0 L103 0 L103 687 Z M278 886 L356 803 L434 886 L501 886 L398 746 L314 746 L212 886 L278 886 Z " />
<glyph glyph-name="ecaron" unicode="&#x11b;" horiz-adv-x="586" d="M308 -12 Q254 -12 206 8 Q158 28 121.5 64 Q85 100 63.5 150 Q42 200 42 260 Q42 318 62.5 367.5 Q83 417 118 453 Q153 489 200 509 Q247 529 301 529 Q385 529 442.5 487 Q500 445 526 370 Q537 339 543.5 303.5 Q550 268 550 227 L135 227 Q140 193 154 163.5 Q168 134 190.5 113 Q213 92 242 80 Q271 68 306 68 Q349 68 392.5 84.5 Q436 101 461 127 L517 68 Q500 50 475.5 35 Q451 20 423 9.5 Q395 -1 365 -6.5 Q335 -12 308 -12 Z M457 300 Q455 312 453 324 Q451 336 446 347 Q430 392 395 420.5 Q360 449 303 449 Q240 449 194 408.5 Q148 368 136 300 L457 300 Z M223 716 L301 633 L379 716 L446 716 L343 576 L259 576 L157 716 L223 716 Z " />
<glyph glyph-name="Gbreve" unicode="&#x11e;" horiz-adv-x="751" d="M410 -12 Q338 -12 273 16.5 Q208 45 159 93.5 Q110 142 81.5 207 Q53 272 53 344 Q53 416 81.5 480.5 Q110 545 159 593.5 Q208 642 273 670.5 Q338 699 410 699 Q446 699 484 691.5 Q522 684 557 670 Q592 656 624 636 Q656 616 680 591 L612 526 Q576 564 520 587 Q464 610 410 610 Q358 610 311 588.5 Q264 567 229 531 Q194 495 173.5 446.5 Q153 398 153 344 Q153 290 173.5 241.5 Q194 193 229 156.5 Q264 120 311 98.5 Q358 77 410 77 Q455 77 501 92.5 Q547 108 583 136 L583 283 L397 283 L397 369 L680 369 L680 96 Q656 71 624 51 Q592 31 557 17 Q522 3 484 -4.5 Q446 -12 410 -12 Z M311 870 Q331 850 357.5 839 Q384 828 410 828 Q436 828 462 839 Q488 850 508 870 L560 819 Q529 787 490 772 Q451 757 410 757 Q368 757 329.5 772 Q291 787 259 819 L311 870 Z " />
<glyph glyph-name="gbreve" unicode="&#x11f;" horiz-adv-x="576" d="M296 -174 Q244 -174 200.5 -162.5 Q157 -151 125.5 -131 Q94 -111 77 -82.5 Q60 -54 60 -20 Q60 3 71 23.5 Q82 44 101.5 61 Q121 78 148 91 Q175 104 206 110 L238 81 Q202 71 174 46 Q146 21 146 -12 Q146 -54 189.5 -79 Q233 -104 304 -105 Q367 -105 405.5 -82.5 Q444 -60 444 -22 Q444 1 416.5 20.5 Q389 40 334 48 Q308 52 291.5 54 Q275 56 260 58 Q245 60 227.5 63 Q210 66 181 70 Q128 78 99 105.5 Q70 133 70 175 Q70 198 86 222.5 Q102 247 126 262 L176 226 Q156 211 156 194 Q156 158 230 148 Q255 144 294.5 138.5 Q334 133 379 127 Q451 116 491 76 Q531 36 531 -19 Q531 -54 514.5 -83 Q498 -112 467 -132 Q436 -152 393 -163 Q350 -174 296 -174 Z M284 189 Q239 189 201 201.5 Q163 214 135.5 236.5 Q108 259 92.5 290.5 Q77 322 77 359 Q77 397 92.5 428 Q108 459 135.5 481.5 Q163 504 201 516.5 Q239 529 284 529 Q330 529 368 516.5 Q406 504 433.5 481.5 Q461 459 476 428 Q491 397 491 359 Q491 322 476 290.5 Q461 259 433.5 236.5 Q406 214 368 201.5 Q330 189 284 189 Z M284 256 Q336 256 369 285 Q402 314 402 359 Q402 405 369 433.5 Q336 462 284 462 Q232 462 199.5 433.5 Q167 405 167 359 Q167 314 199.5 285 Q232 256 284 256 Z M419 439 L351 520 Q370 516 387 515 Q404 514 419 514 Q430 514 445.5 514.5 Q461 515 477.5 515.5 Q494 516 510 516.5 Q526 517 536 517 L536 436 L419 439 Z M289 587 Q247 587 208.5 602 Q170 617 138 649 L190 700 Q210 680 236.5 669 Q263 658 289 658 Q315 658 341 669 Q367 680 387 700 L439 649 Q408 617 369 602 Q330 587 289 587 Z " />
<glyph glyph-name="uni0122" unicode="&#x122;" horiz-adv-x="751" d="M410 -12 Q338 -12 273 16.5 Q208 45 159 93.5 Q110 142 81.5 207 Q53 272 53 344 Q53 416 81.5 480.5 Q110 545 159 593.5 Q208 642 273 670.5 Q338 699 410 699 Q446 699 484 691.5 Q522 684 557 670 Q592 656 624 636 Q656 616 680 591 L612 526 Q576 564 520 587 Q464 610 410 610 Q358 610 311 588.5 Q264 567 229 531 Q194 495 173.5 446.5 Q153 398 153 344 Q153 290 173.5 241.5 Q194 193 229 156.5 Q264 120 311 98.5 Q358 77 410 77 Q455 77 501 92.5 Q547 108 583 136 L583 283 L397 283 L397 369 L680 369 L680 96 Q656 71 624 51 Q592 31 557 17 Q522 3 484 -4.5 Q446 -12 410 -12 Z M358 -124 Q358 -103 373 -87.5 Q388 -72 410 -72 Q436 -72 452 -93.5 Q468 -115 468 -148 Q468 -176 452.5 -204.5 Q437 -233 398 -279 L364 -254 Q400 -214 409 -177 Q387 -177 372.5 -161.5 Q358 -146 358 -124 Z " />
<glyph glyph-name="uni0123" unicode="&#x123;" horiz-adv-x="575" d="M296 -174 Q244 -174 200.5 -162.5 Q157 -151 125.5 -131 Q94 -111 77 -82.5 Q60 -54 60 -20 Q60 3 71 23.5 Q82 44 101.5 61 Q121 78 148 91 Q175 104 206 110 L238 81 Q202 71 174 46 Q146 21 146 -12 Q146 -54 189.5 -79 Q233 -104 304 -105 Q367 -105 405.5 -82.5 Q444 -60 444 -22 Q444 1 416.5 20.5 Q389 40 334 48 Q308 52 291.5 54 Q275 56 260 58 Q245 60 227.5 63 Q210 66 181 70 Q128 78 99 105.5 Q70 133 70 175 Q70 198 86 222.5 Q102 247 126 262 L176 226 Q156 211 156 194 Q156 158 230 148 Q255 144 294.5 138.5 Q334 133 379 127 Q451 116 491 76 Q531 36 531 -19 Q531 -54 514.5 -83 Q498 -112 467 -132 Q436 -152 393 -163 Q350 -174 296 -174 Z M284 189 Q239 189 201 201.5 Q163 214 135.5 236.5 Q108 259 92.5 290.5 Q77 322 77 359 Q77 397 92.5 428 Q108 459 135.5 481.5 Q163 504 201 516.5 Q239 529 284 529 Q330 529 368 516.5 Q406 504 433.5 481.5 Q461 459 476 428 Q491 397 491 359 Q491 322 476 290.5 Q461 259 433.5 236.5 Q406 214 368 201.5 Q330 189 284 189 Z M284 256 Q336 256 369 285 Q402 314 402 359 Q402 405 369 433.5 Q336 462 284 462 Q232 462 199.5 433.5 Q167 405 167 359 Q167 314 199.5 285 Q232 256 284 256 Z M419 439 L351 520 Q370 516 387 515 Q404 514 419 514 Q430 514 445.5 514.5 Q461 515 477.5 515.5 Q494 516 510 516.5 Q526 517 536 517 L536 436 L419 439 Z M332 777 Q296 737 287 700 Q309 700 323.5 684.5 Q338 669 338 647 Q338 626 323 610.5 Q308 595 286 595 Q260 595 244 616.5 Q228 638 228 671 Q228 699 243.5 727.5 Q259 756 298 802 L332 777 Z " />
<glyph glyph-name="Imacron" unicode="&#x12a;" horiz-adv-x="372" d="M48 94 L137 94 L137 593 L48 593 L48 687 L323 687 L323 593 L235 593 L235 94 L323 94 L323 0 L48 0 L48 94 Z M26 824 L345 824 L345 761 L26 761 L26 824 Z " />
<glyph glyph-name="imacron" unicode="&#x12b;" horiz-adv-x="259" d="M82 517 L177 517 L177 0 L82 0 L82 517 Z M-29 654 L290 654 L290 591 L-29 591 L-29 654 Z " />
<glyph glyph-name="Iogonek" unicode="&#x12e;" horiz-adv-x="372" d="M48 94 L137 94 L137 593 L48 593 L48 687 L323 687 L323 593 L235 593 L235 94 L323 94 L323 0 L234 0 Q210 0 195 -15.5 Q180 -31 180 -54 Q180 -78 194 -92 Q208 -106 234 -106 Q249 -106 260 -101.5 Q271 -97 279 -89 L309 -143 Q273 -173 223 -173 Q175 -173 144.5 -144.5 Q114 -116 114 -65 Q114 -27 138 0 L48 0 L48 94 Z " />
<glyph glyph-name="iogonek" unicode="&#x12f;" horiz-adv-x="259" d="M166 -173 Q118 -173 87.5 -144.5 Q57 -116 57 -65 Q57 -45 64 -28.5 Q71 -12 82 1 L82 517 L177 517 L177 0 Q153 0 138 -15.5 Q123 -31 123 -54 Q123 -78 137 -92 Q151 -106 177 -106 Q192 -106 203 -101.5 Q214 -97 222 -89 L252 -143 Q216 -173 166 -173 Z M78 646 Q78 667 92.5 683 Q107 699 130 699 Q152 699 167.5 683 Q183 667 183 646 Q183 624 167.5 608.5 Q152 593 130 593 Q107 593 92.5 608.5 Q78 624 78 646 Z " />
<glyph glyph-name="Idotaccent" unicode="&#x130;" horiz-adv-x="372" d="M48 94 L137 94 L137 593 L48 593 L48 687 L323 687 L323 593 L235 593 L235 94 L323 94 L323 0 L48 0 L48 94 Z M134 816 Q134 837 148.5 853 Q163 869 186 869 Q208 869 223.5 853 Q239 837 239 816 Q239 794 223.5 778.5 Q208 763 186 763 Q163 763 148.5 778.5 Q134 794 134 816 Z " />
<glyph glyph-name="dotlessi" unicode="&#x131;" horiz-adv-x="259" d="M82 517 L177 517 L177 0 L82 0 L82 517 Z " />
<glyph glyph-name="uni0136" unicode="&#x136;" horiz-adv-x="695" d="M103 687 L200 687 L200 325 L529 687 L653 687 L370 378 L672 0 L549 0 L302 310 L200 202 L200 0 L103 0 L103 687 Z M336 -124 Q336 -103 351 -87.5 Q366 -72 388 -72 Q414 -72 430 -93.5 Q446 -115 446 -148 Q446 -176 430.5 -204.5 Q415 -233 376 -279 L342 -254 Q378 -214 387 -177 Q365 -177 350.5 -161.5 Q336 -146 336 -124 Z " />
<glyph glyph-name="uni0137" unicode="&#x137;" horiz-adv-x="561" d="M82 699 L177 699 L177 248 L435 517 L551 517 L327 282 L541 0 L427 0 L262 219 L177 134 L177 0 L82 0 L82 699 Z M229 -124 Q229 -103 244 -87.5 Q259 -72 281 -72 Q307 -72 323 -93.5 Q339 -115 339 -148 Q339 -176 323.5 -204.5 Q308 -233 269 -279 L235 -254 Q271 -214 280 -177 Q258 -177 243.5 -161.5 Q229 -146 229 -124 Z " />
<glyph glyph-name="Lacute" unicode="&#x139;" horiz-adv-x="593" d="M103 687 L200 687 L200 91 L566 91 L566 0 L103 0 L103 687 Z M239 893 L332 873 L189 746 L119 746 L239 893 Z " />
<glyph glyph-name="lacute" unicode="&#x13a;" horiz-adv-x="259" d="M218 -12 Q188 -12 163 -1.5 Q138 9 120 28 Q102 47 92 72.5 Q82 98 82 129 L82 699 L177 699 L177 133 Q177 105 192 87.5 Q207 70 231 70 L218 -12 Z M215 905 L308 885 L165 758 L95 758 L215 905 Z " />
<glyph glyph-name="Lcaron" unicode="&#x13d;" horiz-adv-x="593" d="M103 687 L200 687 L200 91 L566 91 L566 0 L103 0 L103 687 Z M271 647 Q271 668 286 683.5 Q301 699 323 699 Q349 699 365 677.5 Q381 656 381 623 Q381 595 365.5 566.5 Q350 538 311 492 L277 517 Q313 557 322 594 Q300 594 285.5 609.5 Q271 625 271 647 Z " />
<glyph glyph-name="lcaron" unicode="&#x13e;" horiz-adv-x="311" d="M218 -12 Q188 -12 163 -1.5 Q138 9 120 28 Q102 47 92 72.5 Q82 98 82 129 L82 699 L177 699 L177 133 Q177 105 192 87.5 Q207 70 231 70 L218 -12 Z M249 647 Q249 668 264 683.5 Q279 699 301 699 Q327 699 343 677.5 Q359 656 359 623 Q359 595 343.5 566.5 Q328 538 289 492 L255 517 Q291 557 300 594 Q278 594 263.5 609.5 Q249 625 249 647 Z " />
<glyph glyph-name="Lslash" unicode="&#x141;" horiz-adv-x="629" d="M33 315 L139 369 L139 687 L236 687 L236 418 L343 473 L343 383 L236 328 L236 91 L602 91 L602 0 L139 0 L139 279 L33 225 L33 315 Z " />
<glyph glyph-name="lslash" unicode="&#x142;" horiz-adv-x="313" d="M28 315 L113 359 L113 699 L208 699 L208 407 L280 444 L280 353 L208 316 L208 133 Q208 105 223 87.5 Q238 70 262 70 L249 -12 Q219 -12 194 -1.5 Q169 9 151 28 Q133 47 123 72.5 Q113 98 113 129 L113 268 L28 225 L28 315 Z " />
<glyph glyph-name="Nacute" unicode="&#x143;" horiz-adv-x="800" d="M103 687 L200 687 L600 160 L600 687 L697 687 L697 0 L600 0 L200 527 L200 0 L103 0 L103 687 Z M485 893 L578 873 L435 746 L365 746 L485 893 Z " />
<glyph glyph-name="nacute" unicode="&#x144;" horiz-adv-x="607" d="M82 517 L177 517 L177 441 Q200 480 244.5 504.5 Q289 529 343 529 Q386 529 421.5 514.5 Q457 500 482.5 473.5 Q508 447 522 410.5 Q536 374 536 329 L536 0 L443 0 L443 313 Q443 373 410 410 Q377 447 323 447 Q293 447 266 437 Q239 427 219.5 410.5 Q200 394 188.5 371.5 Q177 349 177 323 L177 0 L82 0 L82 517 Z M393 723 L486 703 L343 576 L273 576 L393 723 Z " />
<glyph glyph-name="uni0145" unicode="&#x145;" horiz-adv-x="800" d="M103 687 L200 687 L600 160 L600 687 L697 687 L697 0 L600 0 L200 527 L200 0 L103 0 L103 687 Z M348 -124 Q348 -103 363 -87.5 Q378 -72 400 -72 Q426 -72 442 -93.5 Q458 -115 458 -148 Q458 -176 442.5 -204.5 Q427 -233 388 -279 L354 -254 Q390 -214 399 -177 Q377 -177 362.5 -161.5 Q348 -146 348 -124 Z " />
<glyph glyph-name="uni0146" unicode="&#x146;" horiz-adv-x="607" d="M82 517 L177 517 L177 441 Q200 480 244.5 504.5 Q289 529 343 529 Q386 529 421.5 514.5 Q457 500 482.5 473.5 Q508 447 522 410.5 Q536 374 536 329 L536 0 L443 0 L443 313 Q443 373 410 410 Q377 447 323 447 Q293 447 266 437 Q239 427 219.5 410.5 Q200 394 188.5 371.5 Q177 349 177 323 L177 0 L82 0 L82 517 Z M256 -124 Q256 -103 271 -87.5 Q286 -72 308 -72 Q334 -72 350 -93.5 Q366 -115 366 -148 Q366 -176 350.5 -204.5 Q335 -233 296 -279 L262 -254 Q298 -214 307 -177 Q285 -177 270.5 -161.5 Q256 -146 256 -124 Z " />
<glyph glyph-name="Ncaron" unicode="&#x147;" horiz-adv-x="800" d="M103 687 L200 687 L600 160 L600 687 L697 687 L697 0 L600 0 L200 527 L200 0 L103 0 L103 687 Z M323 886 L401 803 L479 886 L546 886 L443 746 L359 746 L257 886 L323 886 Z " />
<glyph glyph-name="ncaron" unicode="&#x148;" horiz-adv-x="607" d="M82 517 L177 517 L177 441 Q200 480 244.5 504.5 Q289 529 343 529 Q386 529 421.5 514.5 Q457 500 482.5 473.5 Q508 447 522 410.5 Q536 374 536 329 L536 0 L443 0 L443 313 Q443 373 410 410 Q377 447 323 447 Q293 447 266 437 Q239 427 219.5 410.5 Q200 394 188.5 371.5 Q177 349 177 323 L177 0 L82 0 L82 517 Z M230 716 L308 633 L386 716 L453 716 L350 576 L266 576 L164 716 L230 716 Z " />
<glyph glyph-name="Omacron" unicode="&#x14c;" horiz-adv-x="818" d="M409 -12 Q337 -12 272.5 16.5 Q208 45 159 93.5 Q110 142 81.5 207 Q53 272 53 344 Q53 416 81.5 480.5 Q110 545 159 593.5 Q208 642 272.5 670.5 Q337 699 409 699 Q481 699 545.5 670.5 Q610 642 658.5 593.5 Q707 545 735.5 480.5 Q764 416 764 344 Q764 272 735.5 207 Q707 142 658.5 93.5 Q610 45 545.5 16.5 Q481 -12 409 -12 Z M153 344 Q153 290 173.5 241.5 Q194 193 229 156.5 Q264 120 310.5 98.5 Q357 77 409 77 Q461 77 507.5 98.5 Q554 120 589 156.5 Q624 193 644.5 241.5 Q665 290 665 344 Q665 398 644.5 446.5 Q624 495 589 531 Q554 567 507.5 588.5 Q461 610 409 610 Q357 610 310.5 588.5 Q264 567 229 531 Q194 495 173.5 446.5 Q153 398 153 344 Z M250 824 L569 824 L569 761 L250 761 L250 824 Z " />
<glyph glyph-name="omacron" unicode="&#x14d;" horiz-adv-x="621" d="M311 -12 Q255 -12 205.5 9.5 Q156 31 119.5 67.5 Q83 104 61.5 153.5 Q40 203 40 259 Q40 315 61.5 364 Q83 413 119.5 450 Q156 487 205.5 508 Q255 529 311 529 Q367 529 416 508 Q465 487 502 450 Q539 413 560 364 Q581 315 581 259 Q581 203 560 153.5 Q539 104 502 67.5 Q465 31 416 9.5 Q367 -12 311 -12 Z M135 259 Q135 220 149 186 Q163 152 187 126.5 Q211 101 243 86 Q275 71 311 71 Q347 71 379 86 Q411 101 434.5 126.5 Q458 152 472 186 Q486 220 486 259 Q486 298 472 332.5 Q458 367 434.5 392.5 Q411 418 379 432.5 Q347 447 311 447 Q275 447 243 432.5 Q211 418 187 392.5 Q163 367 149 332.5 Q135 298 135 259 Z M152 654 L471 654 L471 591 L152 591 L152 654 Z " />
<glyph glyph-name="Ohungarumlaut" unicode="&#x150;" horiz-adv-x="818" d="M409 -12 Q337 -12 272.5 16.5 Q208 45 159 93.5 Q110 142 81.5 207 Q53 272 53 344 Q53 416 81.5 480.5 Q110 545 159 593.5 Q208 642 272.5 670.5 Q337 699 409 699 Q481 699 545.5 670.5 Q610 642 658.5 593.5 Q707 545 735.5 480.5 Q764 416 764 344 Q764 272 735.5 207 Q707 142 658.5 93.5 Q610 45 545.5 16.5 Q481 -12 409 -12 Z M153 344 Q153 290 173.5 241.5 Q194 193 229 156.5 Q264 120 310.5 98.5 Q357 77 409 77 Q461 77 507.5 98.5 Q554 120 589 156.5 Q624 193 644.5 241.5 Q665 290 665 344 Q665 398 644.5 446.5 Q624 495 589 531 Q554 567 507.5 588.5 Q461 610 409 610 Q357 610 310.5 588.5 Q264 567 229 531 Q194 495 173.5 446.5 Q153 398 153 344 Z M388 893 L481 873 L338 745 L268 745 L388 893 Z M598 891 L691 872 L547 745 L478 745 L598 891 Z " />
<glyph glyph-name="ohungarumlaut" unicode="&#x151;" horiz-adv-x="621" d="M311 -12 Q255 -12 205.5 9.5 Q156 31 119.5 67.5 Q83 104 61.5 153.5 Q40 203 40 259 Q40 315 61.5 364 Q83 413 119.5 450 Q156 487 205.5 508 Q255 529 311 529 Q367 529 416 508 Q465 487 502 450 Q539 413 560 364 Q581 315 581 259 Q581 203 560 153.5 Q539 104 502 67.5 Q465 31 416 9.5 Q367 -12 311 -12 Z M135 259 Q135 220 149 186 Q163 152 187 126.5 Q211 101 243 86 Q275 71 311 71 Q347 71 379 86 Q411 101 434.5 126.5 Q458 152 472 186 Q486 220 486 259 Q486 298 472 332.5 Q458 367 434.5 392.5 Q411 418 379 432.5 Q347 447 311 447 Q275 447 243 432.5 Q211 418 187 392.5 Q163 367 149 332.5 Q135 298 135 259 Z M290 723 L383 703 L240 575 L170 575 L290 723 Z M500 721 L593 702 L449 575 L380 575 L500 721 Z " />
<glyph glyph-name="OE" unicode="&#x152;" horiz-adv-x="1042" d="M52 336 Q52 408 80.5 472 Q109 536 158 584 Q207 632 271.5 659.5 Q336 687 408 687 L986 687 L986 597 L581 597 L581 395 L946 395 L946 305 L581 305 L581 91 L986 91 L986 0 L408 0 Q336 0 271.5 25.5 Q207 51 158 96 Q109 141 80.5 202.5 Q52 264 52 336 Z M152 336 Q152 282 172.5 236.5 Q193 191 228 158 Q263 125 309.5 107 Q356 89 408 89 L483 89 L483 598 L408 598 Q356 598 309.5 577 Q263 556 228 520.5 Q193 485 172.5 437.5 Q152 390 152 336 Z " />
<glyph glyph-name="oe" unicode="&#x153;" horiz-adv-x="1043" d="M311 -12 Q255 -12 205.5 9.5 Q156 31 119.5 67.5 Q83 104 61.5 153.5 Q40 203 40 259 Q40 315 61.5 364 Q83 413 119.5 450 Q156 487 205.5 508 Q255 529 311 529 Q380 529 438.5 497.5 Q497 466 533 412 Q568 466 624.5 497.5 Q681 529 749 529 Q833 529 890.5 487 Q948 445 974 370 Q985 339 991.5 303.5 Q998 268 998 227 L583 227 Q588 193 602 163.5 Q616 134 638.5 113 Q661 92 690 80 Q719 68 754 68 Q797 68 840.5 84.5 Q884 101 909 127 L965 68 Q948 50 923.5 35 Q899 20 871 9.5 Q843 -1 813 -6.5 Q783 -12 756 -12 Q687 -12 629 19.5 Q571 51 534 107 Q498 53 439.5 20.5 Q381 -12 311 -12 Z M135 259 Q135 220 149 186 Q163 152 187 126.5 Q211 101 243 86 Q275 71 311 71 Q347 71 379 86 Q411 101 434.5 126.5 Q458 152 472 186 Q486 220 486 259 Q486 298 472 332.5 Q458 367 434.5 392.5 Q411 418 379 432.5 Q347 447 311 447 Q275 447 243 432.5 Q211 418 187 392.5 Q163 367 149 332.5 Q135 298 135 259 Z M905 300 Q903 312 901 324 Q899 336 894 347 Q878 392 843 420.5 Q808 449 751 449 Q688 449 642 408.5 Q596 368 584 300 L905 300 Z " />
<glyph glyph-name="Racute" unicode="&#x154;" horiz-adv-x="658" d="M335 240 L200 240 L200 0 L103 0 L103 687 L345 687 Q399 687 445.5 670.5 Q492 654 526.5 624.5 Q561 595 580.5 554 Q600 513 600 464 Q600 388 555 332.5 Q510 277 437 254 L615 0 L504 0 L335 240 Z M331 331 Q407 331 454 366 Q501 401 501 464 Q501 527 454 561.5 Q407 596 331 596 L200 596 L200 331 L331 331 Z M421 893 L514 873 L371 746 L301 746 L421 893 Z " />
<glyph glyph-name="racute" unicode="&#x155;" horiz-adv-x="405" d="M82 517 L177 517 L177 415 Q201 468 251.5 498.5 Q302 529 371 529 L371 447 Q328 447 292.5 434.5 Q257 422 231.5 399.5 Q206 377 192 346 Q178 315 178 277 L177 280 L177 0 L82 0 L82 517 Z M306 723 L399 703 L256 576 L186 576 L306 723 Z " />
<glyph glyph-name="uni0156" unicode="&#x156;" horiz-adv-x="658" d="M335 240 L200 240 L200 0 L103 0 L103 687 L345 687 Q399 687 445.5 670.5 Q492 654 526.5 624.5 Q561 595 580.5 554 Q600 513 600 464 Q600 388 555 332.5 Q510 277 437 254 L615 0 L504 0 L335 240 Z M331 331 Q407 331 454 366 Q501 401 501 464 Q501 527 454 561.5 Q407 596 331 596 L200 596 L200 331 L331 331 Z M285 -124 Q285 -103 300 -87.5 Q315 -72 337 -72 Q363 -72 379 -93.5 Q395 -115 395 -148 Q395 -176 379.5 -204.5 Q364 -233 325 -279 L291 -254 Q327 -214 336 -177 Q314 -177 299.5 -161.5 Q285 -146 285 -124 Z " />
<glyph glyph-name="uni0157" unicode="&#x157;" horiz-adv-x="405" d="M82 517 L177 517 L177 415 Q201 468 251.5 498.5 Q302 529 371 529 L371 447 Q328 447 292.5 434.5 Q257 422 231.5 399.5 Q206 377 192 346 Q178 315 178 277 L177 280 L177 0 L82 0 L82 517 Z M169 -124 Q169 -103 184 -87.5 Q199 -72 221 -72 Q247 -72 263 -93.5 Q279 -115 279 -148 Q279 -176 263.5 -204.5 Q248 -233 209 -279 L175 -254 Q211 -214 220 -177 Q198 -177 183.5 -161.5 Q169 -146 169 -124 Z " />
<glyph glyph-name="Rcaron" unicode="&#x158;" horiz-adv-x="658" d="M335 240 L200 240 L200 0 L103 0 L103 687 L345 687 Q399 687 445.5 670.5 Q492 654 526.5 624.5 Q561 595 580.5 554 Q600 513 600 464 Q600 388 555 332.5 Q510 277 437 254 L615 0 L504 0 L335 240 Z M258 886 L336 803 L414 886 L481 886 L378 746 L294 746 L192 886 L258 886 Z M331 331 Q407 331 454 366 Q501 401 501 464 Q501 527 454 561.5 Q407 596 331 596 L200 596 L200 331 L331 331 Z " />
<glyph glyph-name="rcaron" unicode="&#x159;" horiz-adv-x="405" d="M82 517 L177 517 L177 415 Q201 468 251.5 498.5 Q302 529 371 529 L371 447 Q328 447 292.5 434.5 Q257 422 231.5 399.5 Q206 377 192 346 Q178 315 178 277 L177 280 L177 0 L82 0 L82 517 Z M144 716 L222 633 L300 716 L367 716 L264 576 L180 576 L78 716 L144 716 Z " />
<glyph glyph-name="Sacute" unicode="&#x15a;" horiz-adv-x="623" d="M324 -11 Q237 -11 167 18 Q97 47 43 99 L102 171 Q147 128 202 101.5 Q257 75 327 75 Q401 75 437.5 107.5 Q474 140 474 183 Q474 233 430.5 257 Q387 281 300 301 Q248 313 205 328.5 Q162 344 132 366.5 Q102 389 85.5 421 Q69 453 69 499 Q69 542 86.5 578.5 Q104 615 135.5 642 Q167 669 210.5 684 Q254 699 306 699 Q384 699 444.5 672.5 Q505 646 554 602 L498 528 Q454 569 404.5 591 Q355 613 301 613 Q272 613 247.5 604.5 Q223 596 205 581.5 Q187 567 177 547.5 Q167 528 167 507 Q167 483 178.5 466 Q190 449 212 436 Q234 423 266.5 413 Q299 403 342 393 Q393 381 435.5 365.5 Q478 350 508.5 326.5 Q539 303 556 270.5 Q573 238 573 192 Q573 149 557 112 Q541 75 509.5 47.5 Q478 20 431.5 4.5 Q385 -11 324 -11 Z M397 893 L490 873 L347 746 L277 746 L397 893 Z " />
<glyph glyph-name="sacute" unicode="&#x15b;" horiz-adv-x="485" d="M250 -12 Q193 -12 135.5 7.5 Q78 27 31 65 L76 131 Q119 99 164 82.5 Q209 66 251 66 Q299 66 326.5 85.5 Q354 105 354 138 Q354 157 344.5 170 Q335 183 318.5 192.5 Q302 202 280 209 Q258 216 233 223 Q188 235 154.5 248.5 Q121 262 99.5 279.5 Q78 297 67 319.5 Q56 342 56 373 Q56 409 70 437.5 Q84 466 108.5 486.5 Q133 507 167.5 518 Q202 529 243 529 Q293 529 342 513 Q391 497 433 469 L392 401 Q315 451 243 451 Q203 451 175 433.5 Q147 416 147 383 Q147 368 154 357.5 Q161 347 176 338.5 Q191 330 214.5 322 Q238 314 271 303 Q303 294 334 282.5 Q365 271 390 254 Q415 237 430 211 Q445 185 445 147 Q445 111 430.5 81.5 Q416 52 390 31 Q364 10 328 -1 Q292 -12 250 -12 Z M328 723 L421 703 L278 576 L208 576 L328 723 Z " />
<glyph glyph-name="Scedilla" unicode="&#x15e;" horiz-adv-x="623" d="M299 -193 Q273 -193 249 -185 Q225 -177 209 -165 L230 -119 Q261 -142 294 -142 Q314 -142 328 -132 Q342 -122 342 -106 Q342 -92 333 -83 Q324 -74 305 -74 Q287 -74 272 -84 L254 -66 L279 -9 Q207 -1 148.5 26.5 Q90 54 43 99 L102 171 Q147 128 202 101.5 Q257 75 327 75 Q401 75 437.5 107.5 Q474 140 474 183 Q474 233 430.5 257 Q387 281 300 301 Q248 313 205 328.5 Q162 344 132 366.5 Q102 389 85.5 421 Q69 453 69 499 Q69 542 86.5 578.5 Q104 615 135.5 642 Q167 669 210.5 684 Q254 699 306 699 Q384 699 444.5 672.5 Q505 646 554 602 L498 528 Q454 569 404.5 591 Q355 613 301 613 Q272 613 247.5 604.5 Q223 596 205 581.5 Q187 567 177 547.5 Q167 528 167 507 Q167 483 178.5 466 Q190 449 212 436 Q234 423 266.5 413 Q299 403 342 393 Q393 381 435.5 365.5 Q478 350 508.5 326.5 Q539 303 556 270.5 Q573 238 573 192 Q573 150 557.5 113.5 Q542 77 512 50 Q482 23 438 6.5 Q394 -10 336 -11 L321 -45 L329 -45 Q360 -45 380 -63.5 Q400 -82 400 -111 Q400 -149 371 -171 Q342 -193 299 -193 Z " />
<glyph glyph-name="scedilla" unicode="&#x15f;" horiz-adv-x="485" d="M227 -193 Q201 -193 177 -185 Q153 -177 137 -165 L158 -119 Q189 -142 222 -142 Q242 -142 256 -132 Q270 -122 270 -106 Q270 -92 261 -83 Q252 -74 233 -74 Q215 -74 200 -84 L182 -66 L206 -9 Q159 -3 114 16 Q69 35 31 65 L76 131 Q119 99 164 82.5 Q209 66 251 66 Q299 66 326.5 85.5 Q354 105 354 138 Q354 157 344.5 170 Q335 183 318.5 192.5 Q302 202 280 209 Q258 216 233 223 Q188 235 154.5 248.5 Q121 262 99.5 279.5 Q78 297 67 319.5 Q56 342 56 373 Q56 409 70 437.5 Q84 466 108.5 486.5 Q133 507 167.5 518 Q202 529 243 529 Q293 529 342 513 Q391 497 433 469 L392 401 Q315 451 243 451 Q203 451 175 433.5 Q147 416 147 383 Q147 368 154 357.5 Q161 347 176 338.5 Q191 330 214.5 322 Q238 314 271 303 Q303 294 334 282.5 Q365 271 390 254 Q415 237 430 211 Q445 185 445 147 Q445 112 431.5 83.5 Q418 55 394 34.5 Q370 14 336.5 2 Q303 -10 263 -12 L249 -45 L257 -45 Q288 -45 308 -63.5 Q328 -82 328 -111 Q328 -149 299 -171 Q270 -193 227 -193 Z " />
<glyph glyph-name="Scaron" unicode="&#x160;" horiz-adv-x="623" d="M324 -11 Q237 -11 167 18 Q97 47 43 99 L102 171 Q147 128 202 101.5 Q257 75 327 75 Q401 75 437.5 107.5 Q474 140 474 183 Q474 233 430.5 257 Q387 281 300 301 Q248 313 205 328.5 Q162 344 132 366.5 Q102 389 85.5 421 Q69 453 69 499 Q69 542 86.5 578.5 Q104 615 135.5 642 Q167 669 210.5 684 Q254 699 306 699 Q384 699 444.5 672.5 Q505 646 554 602 L498 528 Q454 569 404.5 591 Q355 613 301 613 Q272 613 247.5 604.5 Q223 596 205 581.5 Q187 567 177 547.5 Q167 528 167 507 Q167 483 178.5 466 Q190 449 212 436 Q234 423 266.5 413 Q299 403 342 393 Q393 381 435.5 365.5 Q478 350 508.5 326.5 Q539 303 556 270.5 Q573 238 573 192 Q573 149 557 112 Q541 75 509.5 47.5 Q478 20 431.5 4.5 Q385 -11 324 -11 Z M235 886 L313 803 L391 886 L458 886 L355 746 L271 746 L169 886 L235 886 Z " />
<glyph glyph-name="scaron" unicode="&#x161;" horiz-adv-x="485" d="M250 -12 Q193 -12 135.5 7.5 Q78 27 31 65 L76 131 Q119 99 164 82.5 Q209 66 251 66 Q299 66 326.5 85.5 Q354 105 354 138 Q354 157 344.5 170 Q335 183 318.5 192.5 Q302 202 280 209 Q258 216 233 223 Q188 235 154.5 248.5 Q121 262 99.5 279.5 Q78 297 67 319.5 Q56 342 56 373 Q56 409 70 437.5 Q84 466 108.5 486.5 Q133 507 167.5 518 Q202 529 243 529 Q293 529 342 513 Q391 497 433 469 L392 401 Q315 451 243 451 Q203 451 175 433.5 Q147 416 147 383 Q147 368 154 357.5 Q161 347 176 338.5 Q191 330 214.5 322 Q238 314 271 303 Q303 294 334 282.5 Q365 271 390 254 Q415 237 430 211 Q445 185 445 147 Q445 111 430.5 81.5 Q416 52 390 31 Q364 10 328 -1 Q292 -12 250 -12 Z M165 716 L243 633 L321 716 L388 716 L285 576 L201 576 L99 716 L165 716 Z " />
<glyph glyph-name="uni0162" unicode="&#x162;" horiz-adv-x="604" d="M253 597 L27 597 L27 687 L577 687 L577 597 L351 597 L351 0 L329 0 L310 -45 L318 -45 Q349 -45 369 -63.5 Q389 -82 389 -111 Q389 -149 360 -171 Q331 -193 288 -193 Q262 -193 238 -185 Q214 -177 198 -165 L219 -119 Q250 -142 283 -142 Q303 -142 317 -132 Q331 -122 331 -106 Q331 -92 322 -83 Q313 -74 294 -74 Q276 -74 261 -84 L243 -66 L271 0 L253 0 L253 597 Z " />
<glyph glyph-name="uni0163" unicode="&#x163;" horiz-adv-x="358" d="M22 517 L100 517 L100 659 L193 659 L193 517 L316 517 L316 436 L193 436 L193 134 Q193 104 209 87.5 Q225 71 247 71 Q282 71 300 91 L336 24 Q304 -2 260 -10 L245 -45 L253 -45 Q284 -45 304 -63.5 Q324 -82 324 -111 Q324 -149 295 -171 Q266 -193 223 -193 Q197 -193 173 -185 Q149 -177 133 -165 L154 -119 Q185 -142 218 -142 Q238 -142 252 -132 Q266 -122 266 -106 Q266 -92 257 -83 Q248 -74 229 -74 Q211 -74 196 -84 L178 -66 L203 -9 Q156 2 128 38 Q100 74 100 127 L100 436 L22 436 L22 517 Z " />
<glyph glyph-name="Tcaron" unicode="&#x164;" horiz-adv-x="604" d="M253 597 L27 597 L27 687 L577 687 L577 597 L351 597 L351 0 L253 0 L253 597 Z M224 886 L302 803 L380 886 L447 886 L344 746 L260 746 L158 886 L224 886 Z " />
<glyph glyph-name="tcaron" unicode="&#x165;" horiz-adv-x="467" d="M234 -12 Q174 -12 137 27 Q100 66 100 127 L100 436 L22 436 L22 517 L100 517 L100 659 L193 659 L193 517 L316 517 L316 436 L193 436 L193 134 Q193 104 209 87.5 Q225 71 247 71 Q282 71 300 91 L336 24 Q315 7 288.5 -2.5 Q262 -12 234 -12 Z M405 647 Q405 668 420 683.5 Q435 699 457 699 Q483 699 499 677.5 Q515 656 515 623 Q515 595 499.5 566.5 Q484 538 445 492 L411 517 Q447 557 456 594 Q434 594 419.5 609.5 Q405 625 405 647 Z " />
<glyph glyph-name="Umacron" unicode="&#x16a;" horiz-adv-x="759" d="M379 -12 Q315 -12 261 10 Q207 32 168 72 Q129 112 107.5 167 Q86 222 86 288 L86 687 L183 687 L183 290 Q183 243 197.5 204 Q212 165 238 136.5 Q264 108 300 92.5 Q336 77 379 77 Q422 77 458 92.5 Q494 108 520.5 136.5 Q547 165 561.5 204 Q576 243 576 290 L576 687 L673 687 L673 288 Q673 222 651.5 167 Q630 112 591 72 Q552 32 498 10 Q444 -12 379 -12 Z M220 824 L539 824 L539 761 L220 761 L220 824 Z " />
<glyph glyph-name="umacron" unicode="&#x16b;" horiz-adv-x="607" d="M525 0 L430 0 L430 76 Q407 37 362.5 12.5 Q318 -12 264 -12 Q221 -12 185.5 2.5 Q150 17 124.5 43.5 Q99 70 85 106.5 Q71 143 71 188 L71 517 L164 517 L164 204 Q164 144 197 107 Q230 70 284 70 Q314 70 341 80 Q368 90 387.5 106.5 Q407 123 418.5 146 Q430 169 430 194 L430 517 L525 517 L525 0 Z M131 654 L450 654 L450 591 L131 591 L131 654 Z " />
<glyph glyph-name="Uring" unicode="&#x16e;" horiz-adv-x="759" d="M379 -12 Q315 -12 261 10 Q207 32 168 72 Q129 112 107.5 167 Q86 222 86 288 L86 687 L183 687 L183 290 Q183 243 197.5 204 Q212 165 238 136.5 Q264 108 300 92.5 Q336 77 379 77 Q422 77 458 92.5 Q494 108 520.5 136.5 Q547 165 561.5 204 Q576 243 576 290 L576 687 L673 687 L673 288 Q673 222 651.5 167 Q630 112 591 72 Q552 32 498 10 Q444 -12 379 -12 Z M274 863 Q274 885 282.5 904 Q291 923 305 937.5 Q319 952 338.5 960.5 Q358 969 380 969 Q402 969 421 960.5 Q440 952 454.5 937.5 Q469 923 477.5 904 Q486 885 486 863 Q486 841 477.5 821.5 Q469 802 454.5 788 Q440 774 421 765.5 Q402 757 380 757 Q358 757 338.5 765.5 Q319 774 305 788 Q291 802 282.5 821.5 Q274 841 274 863 Z M322 863 Q322 840 339.5 822.5 Q357 805 380 805 Q403 805 420 822.5 Q437 840 437 863 Q437 886 420 903 Q403 920 380 920 Q357 920 339.5 903 Q322 886 322 863 Z " />
<glyph glyph-name="uring" unicode="&#x16f;" horiz-adv-x="607" d="M525 0 L430 0 L430 76 Q407 37 362.5 12.5 Q318 -12 264 -12 Q221 -12 185.5 2.5 Q150 17 124.5 43.5 Q99 70 85 106.5 Q71 143 71 188 L71 517 L164 517 L164 204 Q164 144 197 107 Q230 70 284 70 Q314 70 341 80 Q368 90 387.5 106.5 Q407 123 418.5 146 Q430 169 430 194 L430 517 L525 517 L525 0 Z M185 693 Q185 715 193.5 734 Q202 753 216 767.5 Q230 782 249.5 790.5 Q269 799 291 799 Q313 799 332 790.5 Q351 782 365.5 767.5 Q380 753 388.5 734 Q397 715 397 693 Q397 671 388.5 651.5 Q380 632 365.5 618 Q351 604 332 595.5 Q313 587 291 587 Q269 587 249.5 595.5 Q230 604 216 618 Q202 632 193.5 651.5 Q185 671 185 693 Z M233 693 Q233 670 250.5 652.5 Q268 635 291 635 Q314 635 331 652.5 Q348 670 348 693 Q348 716 331 733 Q314 750 291 750 Q268 750 250.5 733 Q233 716 233 693 Z " />
<glyph glyph-name="Uhungarumlaut" unicode="&#x170;" horiz-adv-x="759" d="M379 -12 Q315 -12 261 10 Q207 32 168 72 Q129 112 107.5 167 Q86 222 86 288 L86 687 L183 687 L183 290 Q183 243 197.5 204 Q212 165 238 136.5 Q264 108 300 92.5 Q336 77 379 77 Q422 77 458 92.5 Q494 108 520.5 136.5 Q547 165 561.5 204 Q576 243 576 290 L576 687 L673 687 L673 288 Q673 222 651.5 167 Q630 112 591 72 Q552 32 498 10 Q444 -12 379 -12 Z M358 893 L451 873 L308 745 L238 745 L358 893 Z M568 891 L661 872 L517 745 L448 745 L568 891 Z " />
<glyph glyph-name="uhungarumlaut" unicode="&#x171;" horiz-adv-x="607" d="M525 0 L430 0 L430 76 Q407 37 362.5 12.5 Q318 -12 264 -12 Q221 -12 185.5 2.5 Q150 17 124.5 43.5 Q99 70 85 106.5 Q71 143 71 188 L71 517 L164 517 L164 204 Q164 144 197 107 Q230 70 284 70 Q314 70 341 80 Q368 90 387.5 106.5 Q407 123 418.5 146 Q430 169 430 194 L430 517 L525 517 L525 0 Z M269 723 L362 703 L219 575 L149 575 L269 723 Z M479 721 L572 702 L428 575 L359 575 L479 721 Z " />
<glyph glyph-name="Uogonek" unicode="&#x172;" horiz-adv-x="759" d="M379 -12 Q355 -12 340 -27.5 Q325 -43 325 -66 Q325 -90 339 -104 Q353 -118 379 -118 Q394 -118 405 -113.5 Q416 -109 424 -101 L454 -155 Q418 -185 368 -185 Q320 -185 289.5 -156.5 Q259 -128 259 -77 Q259 -53 268.5 -33.5 Q278 -14 294 -1 Q247 12 208.5 38 Q170 64 143 101.5 Q116 139 101 186.5 Q86 234 86 288 L86 687 L183 687 L183 290 Q183 243 197.5 204 Q212 165 238 136.5 Q264 108 300 92.5 Q336 77 379 77 Q422 77 458 92.5 Q494 108 520.5 136.5 Q547 165 561.5 204 Q576 243 576 290 L576 687 L673 687 L673 288 Q673 222 651.5 167 Q630 112 591 72 Q552 32 498 10 Q444 -12 379 -12 Z " />
<glyph glyph-name="uogonek" unicode="&#x173;" horiz-adv-x="607" d="M525 0 L503 0 Q479 0 464 -15.5 Q449 -31 449 -54 Q449 -78 463 -92 Q477 -106 503 -106 Q518 -106 529 -101.5 Q540 -97 548 -89 L578 -143 Q542 -173 492 -173 Q444 -173 413.5 -144.5 Q383 -116 383 -65 Q383 -37 396.5 -15 Q410 7 430 19 L430 76 Q407 37 362.5 12.5 Q318 -12 264 -12 Q221 -12 185.5 2.5 Q150 17 124.5 43.5 Q99 70 85 106.5 Q71 143 71 188 L71 517 L164 517 L164 204 Q164 144 197 107 Q230 70 284 70 Q314 70 341 80 Q368 90 387.5 106.5 Q407 123 418.5 146 Q430 169 430 194 L430 517 L525 517 L525 0 Z " />
<glyph glyph-name="Wcircumflex" unicode="&#x174;" horiz-adv-x="1067" d="M25 687 L133 687 L378 118 L483 361 L342 687 L444 687 L534 480 L623 687 L726 687 L585 361 L690 119 L935 687 L1042 687 L746 0 L638 0 L534 242 L429 0 L322 0 L25 687 Z M494 886 L579 886 L682 746 L615 746 L536 829 L459 746 L393 746 L494 886 Z " />
<glyph glyph-name="wcircumflex" unicode="&#x175;" horiz-adv-x="808" d="M16 517 L113 517 L234 127 L364 517 L444 517 L575 127 L695 517 L792 517 L618 0 L530 0 L405 389 L277 0 L190 0 L16 517 Z M362 716 L447 716 L550 576 L483 576 L404 659 L327 576 L261 576 L362 716 Z " />
<glyph glyph-name="Ycircumflex" unicode="&#x176;" horiz-adv-x="689" d="M295 271 L20 687 L138 687 L345 363 L556 687 L669 687 L396 271 L396 0 L295 0 L295 271 Z M303 886 L388 886 L491 746 L424 746 L345 829 L268 746 L202 746 L303 886 Z " />
<glyph glyph-name="ycircumflex" unicode="&#x177;" horiz-adv-x="551" d="M145 -180 Q119 -180 94.5 -174.5 Q70 -169 50 -159 L71 -85 Q103 -101 134 -101 Q158 -101 175 -92 Q192 -83 206 -60 L232 -3 L10 517 L112 517 L280 106 L440 517 L539 517 L310 -49 Q282 -118 241.5 -148.5 Q201 -179 145 -180 Z M238 716 L323 716 L426 576 L359 576 L280 659 L203 576 L137 576 L238 716 Z " />
<glyph glyph-name="Ydieresis" unicode="&#x178;" horiz-adv-x="689" d="M295 271 L20 687 L138 687 L345 363 L556 687 L669 687 L396 271 L396 0 L295 0 L295 271 Z M194 816 Q194 837 208.5 853 Q223 869 246 869 Q268 869 283.5 853 Q299 837 299 816 Q299 794 283.5 778.5 Q268 763 246 763 Q223 763 208.5 778.5 Q194 794 194 816 Z M391 816 Q391 837 406 853 Q421 869 444 869 Q466 869 481.5 853 Q497 837 497 816 Q497 794 481.5 778.5 Q466 763 444 763 Q421 763 406 778.5 Q391 794 391 816 Z " />
<glyph glyph-name="Zacute" unicode="&#x179;" horiz-adv-x="626" d="M45 76 L444 597 L52 597 L52 687 L577 687 L577 611 L178 91 L582 91 L582 0 L45 0 L45 76 Z M400 893 L493 873 L350 746 L280 746 L400 893 Z " />
<glyph glyph-name="zacute" unicode="&#x17a;" horiz-adv-x="489" d="M34 71 L326 431 L40 431 L40 517 L452 517 L452 446 L159 86 L454 86 L454 0 L34 0 L34 71 Z M335 723 L428 703 L285 576 L215 576 L335 723 Z " />
<glyph glyph-name="Zdotaccent" unicode="&#x17b;" horiz-adv-x="626" d="M45 76 L444 597 L52 597 L52 687 L577 687 L577 611 L178 91 L582 91 L582 0 L45 0 L45 76 Z M263 816 Q263 837 277.5 853 Q292 869 315 869 Q337 869 352.5 853 Q368 837 368 816 Q368 794 352.5 778.5 Q337 763 315 763 Q292 763 277.5 778.5 Q263 794 263 816 Z " />
<glyph glyph-name="zdotaccent" unicode="&#x17c;" horiz-adv-x="489" d="M34 71 L326 431 L40 431 L40 517 L452 517 L452 446 L159 86 L454 86 L454 0 L34 0 L34 71 Z M197 646 Q197 667 211.5 683 Q226 699 249 699 Q271 699 286.5 683 Q302 667 302 646 Q302 624 286.5 608.5 Q271 593 249 593 Q226 593 211.5 608.5 Q197 624 197 646 Z " />
<glyph glyph-name="Zcaron" unicode="&#x17d;" horiz-adv-x="626" d="M45 76 L444 597 L52 597 L52 687 L577 687 L577 611 L178 91 L582 91 L582 0 L45 0 L45 76 Z M238 886 L316 803 L394 886 L461 886 L358 746 L274 746 L172 886 L238 886 Z " />
<glyph glyph-name="zcaron" unicode="&#x17e;" horiz-adv-x="489" d="M34 71 L326 431 L40 431 L40 517 L452 517 L452 446 L159 86 L454 86 L454 0 L34 0 L34 71 Z M172 716 L250 633 L328 716 L395 716 L292 576 L208 576 L106 716 L172 716 Z " />
<glyph glyph-name="uni0237" unicode="&#x237;" horiz-adv-x="248" d="M36 -178 Q13 -178 -11 -173.5 Q-35 -169 -52 -161 L-39 -86 Q-27 -91 -9.5 -93.5 Q8 -96 23 -96 Q47 -96 62 -78.5 Q77 -61 77 -33 L77 517 L171 517 L171 -37 Q171 -100 133.5 -139 Q96 -178 36 -178 Z " />
<glyph glyph-name="circumflex" unicode="&#x2c6;" horiz-adv-x="358" d="M136 716 L221 716 L324 576 L257 576 L178 659 L101 576 L35 576 L136 716 Z " />
<glyph glyph-name="caron" unicode="&#x2c7;" horiz-adv-x="358" d="M35 716 L101 716 L179 633 L257 716 L324 716 L221 576 L137 576 L35 716 Z " />
<glyph glyph-name="breve" unicode="&#x2d8;" horiz-adv-x="400" d="M199 587 Q157 587 118.5 602 Q80 617 48 649 L100 700 Q120 680 146.5 669 Q173 658 199 658 Q225 658 251 669 Q277 680 297 700 L349 649 Q318 617 279 602 Q240 587 199 587 Z " />
<glyph glyph-name="dotaccent" unicode="&#x2d9;" horiz-adv-x="244" d="M122 593 Q99 593 84.5 608.5 Q70 624 70 646 Q70 667 84.5 683 Q99 699 122 699 Q144 699 159.5 683 Q175 667 175 646 Q175 624 159.5 608.5 Q144 593 122 593 Z " />
<glyph glyph-name="ring" unicode="&#x2da;" horiz-adv-x="330" d="M165 587 Q143 587 123.5 595.5 Q104 604 90 618 Q76 632 67.5 651.5 Q59 671 59 693 Q59 715 67.5 734 Q76 753 90 767.5 Q104 782 123.5 790.5 Q143 799 165 799 Q187 799 206 790.5 Q225 782 239.5 767.5 Q254 753 262.5 734 Q271 715 271 693 Q271 671 262.5 651.5 Q254 632 239.5 618 Q225 604 206 595.5 Q187 587 165 587 Z M107 693 Q107 670 124.5 652.5 Q142 635 165 635 Q188 635 205 652.5 Q222 670 222 693 Q222 716 205 733 Q188 750 165 750 Q142 750 124.5 733 Q107 716 107 693 Z " />
<glyph glyph-name="ogonek" unicode="&#x2db;" horiz-adv-x="291" d="M172 -173 Q124 -173 93.5 -144.5 Q63 -116 63 -65 Q63 -35 78 -12 Q93 11 116 22 L183 0 Q159 0 144 -15.5 Q129 -31 129 -54 Q129 -78 143 -92 Q157 -106 183 -106 Q198 -106 209 -101.5 Q220 -97 228 -89 L258 -143 Q222 -173 172 -173 Z " />
<glyph glyph-name="tilde" unicode="&#x2dc;" horiz-adv-x="453" d="M292 574 Q270 574 252.5 583.5 Q235 593 220 605 Q205 617 191 626.5 Q177 636 163 636 Q144 636 132 621 Q120 606 115 573 L61 581 Q69 641 93.5 672 Q118 703 162 703 Q184 703 201.5 693.5 Q219 684 234 672 Q249 660 263 650.5 Q277 641 291 641 Q310 641 321.5 656 Q333 671 339 705 L392 697 Q384 637 360 605.5 Q336 574 292 574 Z " />
<glyph glyph-name="hungarumlaut" unicode="&#x2dd;" horiz-adv-x="481" d="M147 723 L240 703 L97 575 L27 575 L147 723 Z M357 721 L450 702 L306 575 L237 575 L357 721 Z " />
<glyph glyph-name="uni0307" unicode="&#x307;" d="M127 605 Q102 605 85 622 Q68 639 68 663 Q68 686 85 703 Q102 720 127 720 Q150 720 167 703 Q184 686 184 663 Q184 639 167 622 Q150 605 127 605 Z " />
<glyph glyph-name="uni0326" unicode="&#x326;" d="M69 -254 Q105 -214 114 -177 Q92 -177 77.5 -161.5 Q63 -146 63 -124 Q63 -103 78 -87.5 Q93 -72 115 -72 Q141 -72 157 -93.5 Q173 -115 173 -148 Q173 -176 157.5 -204.5 Q142 -233 103 -279 L69 -254 Z " />
<glyph glyph-name="Wgrave" unicode="&#x1e80;" horiz-adv-x="1067" d="M25 687 L133 687 L378 118 L483 361 L342 687 L444 687 L534 480 L623 687 L726 687 L585 361 L690 119 L935 687 L1042 687 L746 0 L638 0 L534 242 L429 0 L322 0 L25 687 Z M452 893 L572 746 L502 746 L359 873 L452 893 Z " />
<glyph glyph-name="wgrave" unicode="&#x1e81;" horiz-adv-x="808" d="M16 517 L113 517 L234 127 L364 517 L444 517 L575 127 L695 517 L792 517 L618 0 L530 0 L405 389 L277 0 L190 0 L16 517 Z M320 723 L440 576 L370 576 L227 703 L320 723 Z " />
<glyph glyph-name="Wacute" unicode="&#x1e82;" horiz-adv-x="1067" d="M25 687 L133 687 L378 118 L483 361 L342 687 L444 687 L534 480 L623 687 L726 687 L585 361 L690 119 L935 687 L1042 687 L746 0 L638 0 L534 242 L429 0 L322 0 L25 687 Z M622 893 L715 873 L572 746 L502 746 L622 893 Z " />
<glyph glyph-name="wacute" unicode="&#x1e83;" horiz-adv-x="808" d="M16 517 L113 517 L234 127 L364 517 L444 517 L575 127 L695 517 L792 517 L618 0 L530 0 L405 389 L277 0 L190 0 L16 517 Z M490 723 L583 703 L440 576 L370 576 L490 723 Z " />
<glyph glyph-name="Wdieresis" unicode="&#x1e84;" horiz-adv-x="1067" d="M25 687 L133 687 L378 118 L483 361 L342 687 L444 687 L534 480 L623 687 L726 687 L585 361 L690 119 L935 687 L1042 687 L746 0 L638 0 L534 242 L429 0 L322 0 L25 687 Z M385 816 Q385 837 399.5 853 Q414 869 437 869 Q459 869 474.5 853 Q490 837 490 816 Q490 794 474.5 778.5 Q459 763 437 763 Q414 763 399.5 778.5 Q385 794 385 816 Z M582 816 Q582 837 597 853 Q612 869 635 869 Q657 869 672.5 853 Q688 837 688 816 Q688 794 672.5 778.5 Q657 763 635 763 Q612 763 597 778.5 Q582 794 582 816 Z " />
<glyph glyph-name="wdieresis" unicode="&#x1e85;" horiz-adv-x="808" d="M16 517 L113 517 L234 127 L364 517 L444 517 L575 127 L695 517 L792 517 L618 0 L530 0 L405 389 L277 0 L190 0 L16 517 Z M254 646 Q254 667 268.5 683 Q283 699 306 699 Q328 699 343.5 683 Q359 667 359 646 Q359 624 343.5 608.5 Q328 593 306 593 Q283 593 268.5 608.5 Q254 624 254 646 Z M451 646 Q451 667 466 683 Q481 699 504 699 Q526 699 541.5 683 Q557 667 557 646 Q557 624 541.5 608.5 Q526 593 504 593 Q481 593 466 608.5 Q451 624 451 646 Z " />
<glyph glyph-name="uni1EB8" unicode="&#x1eb8;" horiz-adv-x="665" d="M103 687 L606 687 L606 597 L201 597 L201 395 L567 395 L567 305 L201 305 L201 91 L606 91 L606 0 L103 0 L103 687 Z M294 -130 Q294 -109 308.5 -93 Q323 -77 346 -77 Q368 -77 383.5 -93 Q399 -109 399 -130 Q399 -152 383.5 -167.5 Q368 -183 346 -183 Q323 -183 308.5 -167.5 Q294 -152 294 -130 Z " />
<glyph glyph-name="uni1EB9" unicode="&#x1eb9;" horiz-adv-x="596" d="M308 -12 Q254 -12 206 8 Q158 28 121.5 64 Q85 100 63.5 150 Q42 200 42 260 Q42 318 62.5 367.5 Q83 417 118 453 Q153 489 200 509 Q247 529 301 529 Q385 529 442.5 487 Q500 445 526 370 Q537 339 543.5 303.5 Q550 268 550 227 L135 227 Q140 193 154 163.5 Q168 134 190.5 113 Q213 92 242 80 Q271 68 306 68 Q349 68 392.5 84.5 Q436 101 461 127 L517 68 Q500 50 475.5 35 Q451 20 423 9.5 Q395 -1 365 -6.5 Q335 -12 308 -12 Z M457 300 Q455 312 453 324 Q451 336 446 347 Q430 392 395 420.5 Q360 449 303 449 Q240 449 194 408.5 Q148 368 136 300 L457 300 Z M256 -131 Q256 -110 270.5 -94 Q285 -78 308 -78 Q330 -78 345.5 -94 Q361 -110 361 -131 Q361 -153 345.5 -168.5 Q330 -184 308 -184 Q285 -184 270.5 -168.5 Q256 -153 256 -131 Z " />
<glyph glyph-name="uni1EBC" unicode="&#x1ebc;" horiz-adv-x="662" d="M103 687 L606 687 L606 597 L201 597 L201 395 L567 395 L567 305 L201 305 L201 91 L606 91 L606 0 L103 0 L103 687 Z M189 751 Q197 811 221.5 842 Q246 873 290 873 Q312 873 329.5 863.5 Q347 854 362 842 Q377 830 391 820.5 Q405 811 419 811 Q438 811 449.5 826 Q461 841 467 875 L520 867 Q512 807 488 775.5 Q464 744 420 744 Q398 744 380.5 753.5 Q363 763 348 775 Q333 787 319 796.5 Q305 806 291 806 Q272 806 260 791 Q248 776 243 743 L189 751 Z " />
<glyph glyph-name="uni1EBD" unicode="&#x1ebd;" horiz-adv-x="586" d="M308 -12 Q254 -12 206 8 Q158 28 121.5 64 Q85 100 63.5 150 Q42 200 42 260 Q42 318 62.5 367.5 Q83 417 118 453 Q153 489 200 509 Q247 529 301 529 Q385 529 442.5 487 Q500 445 526 370 Q537 339 543.5 303.5 Q550 268 550 227 L135 227 Q140 193 154 163.5 Q168 134 190.5 113 Q213 92 242 80 Q271 68 306 68 Q349 68 392.5 84.5 Q436 101 461 127 L517 68 Q500 50 475.5 35 Q451 20 423 9.5 Q395 -1 365 -6.5 Q335 -12 308 -12 Z M134 581 Q142 641 166.5 672 Q191 703 235 703 Q257 703 274.5 693.5 Q292 684 307 672 Q322 660 336 650.5 Q350 641 364 641 Q383 641 394.5 656 Q406 671 412 705 L465 697 Q457 637 433 605.5 Q409 574 365 574 Q343 574 325.5 583.5 Q308 593 293 605 Q278 617 264 626.5 Q250 636 236 636 Q217 636 205 621 Q193 606 188 573 L134 581 Z M457 300 Q455 312 453 324 Q451 336 446 347 Q430 392 395 420.5 Q360 449 303 449 Q240 449 194 408.5 Q148 368 136 300 L457 300 Z " />
<glyph glyph-name="Ygrave" unicode="&#x1ef2;" horiz-adv-x="689" d="M295 271 L20 687 L138 687 L345 363 L556 687 L669 687 L396 271 L396 0 L295 0 L295 271 Z M261 893 L381 746 L311 746 L168 873 L261 893 Z " />
<glyph glyph-name="ygrave" unicode="&#x1ef3;" horiz-adv-x="551" d="M145 -180 Q119 -180 94.5 -174.5 Q70 -169 50 -159 L71 -85 Q103 -101 134 -101 Q158 -101 175 -92 Q192 -83 206 -60 L232 -3 L10 517 L112 517 L280 106 L440 517 L539 517 L310 -49 Q282 -118 241.5 -148.5 Q201 -179 145 -180 Z M196 723 L316 576 L246 576 L103 703 L196 723 Z " />
<glyph glyph-name="uni2002" unicode="&#x2002;" horiz-adv-x="500" d="" />
<glyph glyph-name="uni2003" unicode="&#x2003;" horiz-adv-x="1000" d="" />
<glyph glyph-name="uni2004" unicode="&#x2004;" horiz-adv-x="333" d="" />
<glyph glyph-name="uni2005" unicode="&#x2005;" horiz-adv-x="250" d="" />
<glyph glyph-name="uni2006" unicode="&#x2006;" horiz-adv-x="166" d="" />
<glyph glyph-name="endash" unicode="&#x2013;" horiz-adv-x="632" d="M82 315 L551 315 L551 230 L82 230 L82 315 Z " />
<glyph glyph-name="emdash" unicode="&#x2014;" horiz-adv-x="937" d="M82 315 L856 315 L856 230 L82 230 L82 315 Z " />
<glyph glyph-name="quoteleft" unicode="&#x2018;" horiz-adv-x="286" d="M201 647 Q158 601 146 554 Q172 554 191 534.5 Q210 515 210 489 Q210 463 191.5 444 Q173 425 145 425 Q113 425 93.5 451 Q74 477 74 518 Q74 552 93 588 Q112 624 159 679 L201 647 Z " />
<glyph glyph-name="quoteright" unicode="&#x2019;" horiz-adv-x="286" d="M85 459 Q128 505 140 552 Q114 552 95 571.5 Q76 591 76 617 Q76 643 94.5 662 Q113 681 141 681 Q173 681 192.5 655 Q212 629 212 588 Q212 554 193 518.5 Q174 483 127 427 L85 459 Z " />
<glyph glyph-name="quotedblleft" unicode="&#x201c;" horiz-adv-x="502" d="M201 647 Q158 601 146 554 Q172 554 191 534.5 Q210 515 210 489 Q210 463 191.5 444 Q173 425 145 425 Q113 425 93.5 451 Q74 477 74 518 Q74 552 93 588 Q112 624 159 679 L201 647 Z M290 518 Q290 552 309 588 Q328 624 375 679 L417 647 Q374 601 362 554 Q388 554 407 534.5 Q426 515 426 489 Q426 463 407.5 444 Q389 425 361 425 Q329 425 309.5 451 Q290 477 290 518 Z " />
<glyph glyph-name="quotedblright" unicode="&#x201d;" horiz-adv-x="502" d="M85 459 Q128 505 140 552 Q114 552 95 571.5 Q76 591 76 617 Q76 643 94.5 662 Q113 681 141 681 Q173 681 192.5 655 Q212 629 212 588 Q212 554 193 518.5 Q174 483 127 427 L85 459 Z M293 617 Q293 643 311.5 662 Q330 681 358 681 Q390 681 409.5 655 Q429 629 429 588 Q429 554 410 518.5 Q391 483 344 427 L302 459 Q345 505 357 552 Q331 552 312 571.5 Q293 591 293 617 Z " />
<glyph glyph-name="quotedblbase" unicode="&#x201e;" horiz-adv-x="502" d="M85 -105 Q128 -59 140 -12 Q114 -12 95 7.5 Q76 27 76 53 Q76 79 94.5 98 Q113 117 141 117 Q173 117 192.5 91 Q212 65 212 24 Q212 -10 193 -46 Q174 -82 127 -137 L85 -105 Z M293 53 Q293 79 311.5 98 Q330 117 358 117 Q390 117 409.5 91 Q429 65 429 24 Q429 -10 410 -46 Q391 -82 344 -137 L302 -105 Q345 -59 357 -12 Q331 -12 312 7.5 Q293 27 293 53 Z " />
<glyph glyph-name="bullet" unicode="&#x2022;" horiz-adv-x="428" d="M214 173 Q188 173 165.5 183 Q143 193 126 210 Q109 227 99 249.5 Q89 272 89 298 Q89 324 99 346.5 Q109 369 126 385.5 Q143 402 165.5 412 Q188 422 214 422 Q240 422 262.5 412 Q285 402 301.5 385.5 Q318 369 328 346.5 Q338 324 338 298 Q338 272 328 249.5 Q318 227 301.5 210 Q285 193 262.5 183 Q240 173 214 173 Z " />
<glyph glyph-name="ellipsis" unicode="&#x2026;" horiz-adv-x="762" d="M166 -12 Q138 -12 119 7.5 Q100 27 100 54 Q100 79 119 98 Q138 117 166 117 Q192 117 210.5 98 Q229 79 229 54 Q229 27 210.5 7.5 Q192 -12 166 -12 Z M317 54 Q317 79 336 98 Q355 117 383 117 Q409 117 427.5 98 Q446 79 446 54 Q446 27 427.5 7.5 Q409 -12 383 -12 Q355 -12 336 7.5 Q317 27 317 54 Z M533 54 Q533 79 552 98 Q571 117 599 117 Q625 117 643.5 98 Q662 79 662 54 Q662 27 643.5 7.5 Q625 -12 599 -12 Q571 -12 552 7.5 Q533 27 533 54 Z " />
<glyph glyph-name="uni202F" unicode="&#x202f;" horiz-adv-x="274" d="" />
<glyph glyph-name="perthousand" unicode="&#x2030;" horiz-adv-x="1225" d="M619 687 L706 687 L233 0 L146 0 L619 687 Z M61 519 Q61 556 73 587.5 Q85 619 106.5 642.5 Q128 666 158 679.5 Q188 693 224 693 Q260 693 290 679.5 Q320 666 341.5 642.5 Q363 619 374.5 587.5 Q386 556 386 520 Q386 484 374 452 Q362 420 340.5 397 Q319 374 289 360.5 Q259 347 223 347 Q187 347 157 360.5 Q127 374 105.5 397.5 Q84 421 72.5 452 Q61 483 61 519 Z M134 519 Q134 472 160 441 Q186 410 224 410 Q263 410 288.5 440.5 Q314 471 314 519 Q314 567 288 598.5 Q262 630 223 630 Q184 630 159 599 Q134 568 134 519 Z M463 163 Q463 199 475 230.5 Q487 262 508.5 285.5 Q530 309 560 322.5 Q590 336 626 336 Q663 336 693 322.5 Q723 309 744.5 285.5 Q766 262 777.5 230.5 Q789 199 789 164 Q789 127 777 95 Q765 63 743 40 Q721 17 691 3.5 Q661 -10 625 -10 Q590 -10 560 3.5 Q530 17 508.5 40 Q487 63 475 94.5 Q463 126 463 163 Z M536 164 Q536 116 561 84.5 Q586 53 626 53 Q666 53 691 84 Q716 115 716 163 Q716 211 690 242 Q664 273 625 273 Q585 273 560.5 242 Q536 211 536 164 Z M839 163 Q839 199 851 230.5 Q863 262 884.5 285.5 Q906 309 936 322.5 Q966 336 1002 336 Q1038 336 1068 322.5 Q1098 309 1119.5 285.5 Q1141 262 1152.5 230.5 Q1164 199 1164 164 Q1164 127 1152 95 Q1140 63 1118 40 Q1096 17 1066.5 3.5 Q1037 -10 1001 -10 Q965 -10 935.5 3.5 Q906 17 884.5 40 Q863 63 851 94.5 Q839 126 839 163 Z M912 164 Q912 116 937 84.5 Q962 53 1002 53 Q1042 53 1067 84 Q1092 115 1092 163 Q1092 211 1066 242 Q1040 273 1001 273 Q961 273 936.5 242 Q912 211 912 164 Z " />
<glyph glyph-name="guilsinglleft" unicode="&#x2039;" horiz-adv-x="324" d="M33 252 L195 450 L281 432 L135 253 L281 71 L195 51 L33 252 Z " />
<glyph glyph-name="guilsinglright" unicode="&#x203a;" horiz-adv-x="323" d="M42 71 L188 253 L42 432 L128 450 L290 252 L128 51 L42 71 Z " />
<glyph glyph-name="Euro" unicode="&#x20ac;" horiz-adv-x="823" d="M77 307 L153 307 Q152 316 151.5 325.5 Q151 335 151 344 Q151 358 152 371 Q153 384 155 398 L77 398 L77 467 L174 467 Q194 517 227.5 559.5 Q261 602 304.5 633 Q348 664 399.5 681.5 Q451 699 507 699 Q581 699 646 670.5 Q711 642 759 591 L691 526 Q656 564 608.5 587 Q561 610 507 610 Q434 610 374 570 Q314 530 281 467 L568 467 L568 398 L257 398 Q251 373 251 344 Q251 325 254 307 L568 307 L568 238 L273 238 Q288 203 312 173.5 Q336 144 366.5 122.5 Q397 101 432.5 89 Q468 77 507 77 Q561 77 608.5 100 Q656 123 692 162 L759 96 Q711 46 646 17 Q581 -12 507 -12 Q449 -12 395 7 Q341 26 296.5 59.5 Q252 93 218.5 138.5 Q185 184 168 238 L77 238 L77 307 Z " />
<glyph glyph-name="trademark" unicode="&#x2122;" horiz-adv-x="824" d="M157 503 L78 503 L78 579 L319 579 L319 503 L238 503 L238 279 L157 279 L157 503 Z M364 579 L445 579 L532 435 L619 579 L700 579 L700 279 L619 279 L619 442 L532 296 L445 442 L445 279 L364 279 L364 579 Z " />
<glyph glyph-name="minus" unicode="&#x2212;" horiz-adv-x="712" d="M123 377 L589 377 L589 291 L123 291 L123 377 Z " />
<glyph glyph-name="uniF000" unicode="&#xf000;" horiz-adv-x="956" d="M60 234 Q46 242 51 258 L208 736 Q209 741 213.5 744.5 Q218 748 223 750 L228 751 Q232 753 236.5 750 Q241 747 243 743 L475 472 Q476 470 478 470 Q480 470 481 472 L713 743 Q715 747 719.5 750 Q724 753 728 751 L733 750 Q738 748 742.5 744.5 Q747 741 748 736 L905 258 Q910 242 896 234 L490 -67 Q478 -76 466 -67 L60 234 Z " />
<glyph glyph-name="uniF001" unicode="&#xf001;" horiz-adv-x="2828" d="M987 -113 Q948 -113 935.5 -104.5 Q923 -96 923 -91 Q923 -87 926 -84.5 Q929 -82 935.5 -80 Q942 -78 952.5 -73.5 Q963 -69 979 -60 Q994 -53 1011.5 -43.5 Q1029 -34 1050.5 -17.5 Q1072 -1 1099 24 Q1126 49 1160 86 Q1193 123 1218.5 155.5 Q1244 188 1262 212.5 Q1280 237 1290.5 252.5 Q1301 268 1303 271 L1115 534 L1189 534 Q1221 534 1240 533 Q1259 532 1272.5 526 Q1286 520 1298 507 Q1310 494 1327 470 L1384 387 Q1389 390 1400.5 404 Q1412 418 1430 439 Q1448 460 1471 485 Q1494 510 1521 534 Q1560 567 1598.5 589.5 Q1637 612 1671.5 625.5 Q1706 639 1735 645 Q1764 651 1784 651 Q1824 651 1836 642 Q1848 633 1848 628 Q1848 619 1834 617.5 Q1820 616 1792 602 Q1778 595 1760.5 584.5 Q1743 574 1721 557 Q1699 540 1672 514.5 Q1645 489 1612 451 Q1580 417 1554.5 386 Q1529 355 1510.5 331 Q1492 307 1481 291.5 Q1470 276 1467 271 L1667 -8 L1554 -8 Q1534 -8 1519 -2 Q1504 4 1493 13.5 Q1482 23 1473 34.5 Q1464 46 1456 57 L1384 154 Q1383 152 1372.5 137.5 Q1362 123 1344.5 101.5 Q1327 80 1303.5 54.5 Q1280 29 1251 3 Q1211 -31 1172.5 -53 Q1134 -75 1099.5 -88.5 Q1065 -102 1036 -107.5 Q1007 -113 987 -113 Z M50 534 L121 534 L121 590 Q121 620 134.5 649.5 Q148 679 172 702.5 Q196 726 229.5 741 Q263 756 303 756 Q335 756 363.5 747 Q392 738 413 727 Q437 714 458 698 L427 628 Q417 632 405 636 Q394 639 381.5 641.5 Q369 644 354 644 Q323 644 297.5 628.5 Q272 613 272 582 L272 534 L389 534 L389 410 L272 410 L272 27 Q272 15 267.5 9.5 Q263 4 246 -8 Q229 -16 202.5 -27.5 Q176 -39 155 -42 Q136 -47 128.5 -45 Q121 -43 121 -23 L121 410 L50 410 L50 534 Z M465 264 Q465 331 491 384 Q517 437 559 473.5 Q601 510 654 529.5 Q707 549 761 549 Q814 549 866 529 Q918 509 960 472 Q1002 435 1028 382.5 Q1054 330 1054 264 Q1054 207 1032.5 156 Q1011 105 972.5 66 Q934 27 880 4 Q826 -19 761 -19 Q699 -19 645 2.5 Q591 24 551 62.5 Q511 101 488 152.5 Q465 204 465 264 Z M610 264 Q610 231 622.5 203 Q635 175 655.5 154 Q676 133 703.5 121 Q731 109 761 109 Q783 109 808.5 119 Q834 129 856 148.5 Q878 168 892.5 197 Q907 226 907 264 Q907 300 894.5 328.5 Q882 357 862 376.5 Q842 396 815.5 406.5 Q789 417 761 417 Q722 417 694 403.5 Q666 390 647 368 Q628 346 619 318.5 Q610 291 610 264 Z M1730 154 Q1730 198 1749 231.5 Q1768 265 1800 288 Q1832 311 1873 323 Q1914 335 1958 335 Q1992 335 2027 327 Q2062 319 2097 306 L2097 317 Q2097 367 2061.5 395.5 Q2026 424 1968 424 Q1938 424 1902 415.5 Q1866 407 1829 387 L1788 466 Q1819 500 1868.5 523 Q1918 546 2005 549 Q2064 549 2108 530 Q2152 511 2182 479 Q2212 447 2227 405 Q2242 363 2242 317 L2242 -8 L2097 -8 L2097 49 Q2065 11 2022.5 -4 Q1980 -19 1935 -19 Q1894 -19 1856.5 -7.5 Q1819 4 1791 26.5 Q1763 49 1746.5 81 Q1730 113 1730 154 Z M1878 157 Q1878 121 1905.5 103.5 Q1933 86 1968 86 Q2014 86 2049 104.5 Q2084 123 2097 166 L2097 215 Q2068 223 2040 228 Q2012 233 1980 233 Q1962 233 1944 228.5 Q1926 224 1911.5 214.5 Q1897 205 1887.5 190.5 Q1878 176 1878 157 Z M2382 534 L2536 534 L2536 443 Q2548 466 2566 485 Q2584 504 2606 518.5 Q2628 533 2653 541 Q2678 549 2703 549 Q2722 549 2741.5 545.5 Q2761 542 2778 534 L2737 410 Q2722 415 2707.5 418.5 Q2693 422 2679 422 Q2647 422 2620.5 409.5 Q2594 397 2575.5 376 Q2557 355 2546.5 326.5 Q2536 298 2536 266 L2536 -8 L2382 -8 L2382 534 Z " />
<glyph glyph-name="uniF002" unicode="&#xf002;" horiz-adv-x="3878" d="M60 234 Q46 242 51 258 L208 736 Q209 741 213.5 744.5 Q218 748 223 750 L228 751 Q232 753 236.5 750 Q241 747 243 743 L475 472 Q476 470 478 470 Q480 470 481 472 L713 743 Q715 747 719.5 750 Q724 753 728 751 L733 750 Q738 748 742.5 744.5 Q747 741 748 736 L905 258 Q910 242 896 234 L490 -67 Q478 -76 466 -67 L60 234 Z M1100 534 L1171 534 L1171 590 Q1171 620 1184.5 649.5 Q1198 679 1222 702.5 Q1246 726 1279.5 741 Q1313 756 1353 756 Q1385 756 1413.5 747 Q1442 738 1463 727 Q1487 714 1508 698 L1477 628 Q1467 632 1455 636 Q1444 639 1431.5 641.5 Q1419 644 1404 644 Q1373 644 1347.5 628.5 Q1322 613 1322 582 L1322 534 L1439 534 L1439 410 L1322 410 L1322 27 Q1322 15 1317.5 9.5 Q1313 4 1296 -8 Q1279 -16 1252.5 -27.5 Q1226 -39 1205 -42 Q1186 -47 1178.5 -45 Q1171 -43 1171 -23 L1171 410 L1100 410 L1100 534 Z M1515 264 Q1515 331 1541 384 Q1567 437 1609 473.5 Q1651 510 1704 529.5 Q1757 549 1811 549 Q1864 549 1916 529 Q1968 509 2010 472 Q2052 435 2078 382.5 Q2104 330 2104 264 Q2104 207 2082.5 156 Q2061 105 2022.5 66 Q1984 27 1930 4 Q1876 -19 1811 -19 Q1749 -19 1695 2.5 Q1641 24 1601 62.5 Q1561 101 1538 152.5 Q1515 204 1515 264 Z M1660 264 Q1660 231 1672.5 203 Q1685 175 1705.5 154 Q1726 133 1753.5 121 Q1781 109 1811 109 Q1833 109 1858.5 119 Q1884 129 1906 148.5 Q1928 168 1942.5 197 Q1957 226 1957 264 Q1957 300 1944.5 328.5 Q1932 357 1912 376.5 Q1892 396 1865.5 406.5 Q1839 417 1811 417 Q1772 417 1744 403.5 Q1716 390 1697 368 Q1678 346 1669 318.5 Q1660 291 1660 264 Z M1973 -91 Q1973 -87 1976 -84.5 Q1979 -82 1985.5 -80 Q1992 -78 2002.5 -73.5 Q2013 -69 2029 -60 Q2044 -53 2061.5 -43.5 Q2079 -34 2100.5 -17.5 Q2122 -1 2149 24 Q2176 49 2210 86 Q2243 123 2268.5 155.5 Q2294 188 2312 212.5 Q2330 237 2340.5 252.5 Q2351 268 2353 271 L2165 534 L2239 534 Q2271 534 2290 533 Q2309 532 2322.5 526 Q2336 520 2348 507 Q2360 494 2377 470 L2434 387 Q2439 390 2450.5 404 Q2462 418 2480 439 Q2498 460 2521 485 Q2544 510 2571 534 Q2610 567 2648.5 589.5 Q2687 612 2721.5 625.5 Q2756 639 2785 645 Q2814 651 2834 651 Q2874 651 2886 642 Q2898 633 2898 628 Q2898 619 2884 617.5 Q2870 616 2842 602 Q2828 595 2810.5 584.5 Q2793 574 2771 557 Q2749 540 2722 514.5 Q2695 489 2662 451 Q2630 417 2604.5 386 Q2579 355 2560.5 331 Q2542 307 2531 291.5 Q2520 276 2517 271 L2717 -8 L2604 -8 Q2584 -8 2569 -2 Q2554 4 2543 13.5 Q2532 23 2523 34.5 Q2514 46 2506 57 L2434 154 Q2433 152 2422.5 137.5 Q2412 123 2394.5 101.5 Q2377 80 2353.5 54.5 Q2330 29 2301 3 Q2261 -31 2222.5 -53 Q2184 -75 2149.5 -88.5 Q2115 -102 2086 -107.5 Q2057 -113 2037 -113 Q1998 -113 1985.5 -104.5 Q1973 -96 1973 -91 Z M2780 154 Q2780 198 2799 231.5 Q2818 265 2850 288 Q2882 311 2923 323 Q2964 335 3008 335 Q3042 335 3077 327 Q3112 319 3147 306 L3147 317 Q3147 367 3111.5 395.5 Q3076 424 3018 424 Q2988 424 2952 415.5 Q2916 407 2879 387 L2838 466 Q2869 500 2918.5 523 Q2968 546 3055 549 Q3114 549 3158 530 Q3202 511 3232 479 Q3262 447 3277 405 Q3292 363 3292 317 L3292 -8 L3147 -8 L3147 49 Q3115 11 3072.5 -4 Q3030 -19 2985 -19 Q2944 -19 2906.5 -7.5 Q2869 4 2841 26.5 Q2813 49 2796.5 81 Q2780 113 2780 154 Z M2928 157 Q2928 121 2955.5 103.5 Q2983 86 3018 86 Q3064 86 3099 104.5 Q3134 123 3147 166 L3147 215 Q3118 223 3090 228 Q3062 233 3030 233 Q3012 233 2994 228.5 Q2976 224 2961.5 214.5 Q2947 205 2937.5 190.5 Q2928 176 2928 157 Z M3432 534 L3586 534 L3586 443 Q3598 466 3616 485 Q3634 504 3656 518.5 Q3678 533 3703 541 Q3728 549 3753 549 Q3772 549 3791.5 545.5 Q3811 542 3828 534 L3787 410 Q3772 415 3757.5 418.5 Q3743 422 3729 422 Q3697 422 3670.5 409.5 Q3644 397 3625.5 376 Q3607 355 3596.5 326.5 Q3586 298 3586 266 L3586 -8 L3432 -8 L3432 534 Z " />
<glyph glyph-name="uniF003" unicode="&#xf003;" horiz-adv-x="945" d="M215 447 Q206 452 210 461 L303 744 Q304 749 312 753 L315 753 Q317 754 319.5 752.5 Q322 751 324 749 L461 588 Q463 584 465 588 L603 749 Q604 751 606.5 752.5 Q609 754 611 753 L614 753 Q623 749 623 744 L716 461 Q720 452 711 447 L470 268 Q463 263 456 268 L215 447 Z M50 168 L72 168 L72 186 Q72 204 87.5 220.5 Q103 237 129 237 Q139 237 147.5 234 Q156 231 163 228 Q170 224 177 219 L167 197 Q164 198 161 200 Q152 202 145 202 Q135 202 127 197.5 Q119 193 119 183 L119 168 L155 168 L155 130 L119 130 L119 11 Q119 7 117.5 5.5 Q116 4 111 1 Q106 -2 98 -5.5 Q90 -9 83 -10 Q77 -12 74.5 -11 Q72 -10 72 -4 L72 130 L50 130 L50 168 Z M179 85 Q179 106 187 122 Q195 138 208 149.5 Q221 161 237.5 167 Q254 173 271 173 Q287 173 303 167 Q319 161 332 149.5 Q345 138 353 121.5 Q361 105 361 85 Q361 50 336 23.5 Q311 -3 271 -3 Q232 -3 205.5 22 Q179 47 179 85 Z M224 85 Q224 65 238 51 Q252 37 271 37 Q285 37 300.5 49 Q316 61 316 85 Q316 107 302 119.5 Q288 132 271 132 Q247 132 235.5 117 Q224 102 224 85 Z M321 -25 Q321 -22 324.5 -21.5 Q328 -21 338 -16 Q347 -11 360 -2 Q373 7 394 30 Q414 53 425.5 69 Q437 85 438 87 L380 168 L403 168 Q423 168 429 166 Q435 164 446 148 L463 123 Q466 125 477.5 139 Q489 153 506 168 Q530 189 552 196.5 Q574 204 587 204 Q600 204 603.5 201.5 Q607 199 607 197 Q607 195 602.5 194.5 Q598 194 590 189 Q581 184 567.5 175 Q554 166 534 143 Q514 121 502.5 105.5 Q491 90 489 87 L551 1 L516 1 Q504 1 497.5 7.5 Q491 14 486 21 L463 51 Q462 49 451 34.5 Q440 20 422 4 Q397 -17 375 -24.5 Q353 -32 340 -32 Q328 -32 324.5 -29.5 Q321 -27 321 -25 Z M570 51 Q570 78 592 92.5 Q614 107 641 107 Q652 107 662.5 104.5 Q673 102 684 98 L684 101 Q684 117 673 125.5 Q662 134 644 134 Q635 134 623.5 131.5 Q612 129 601 123 L588 147 Q598 158 613.5 165 Q629 172 656 173 Q692 173 710.5 151.5 Q729 130 729 101 L729 1 L684 1 L684 18 Q674 7 661 2 Q648 -3 634 -3 Q608 -3 589 11 Q570 25 570 51 Z M616 52 Q616 41 624.5 35.5 Q633 30 644 30 Q658 30 669 35.5 Q680 41 684 54 L684 70 Q675 72 666.5 73.5 Q658 75 648 75 Q637 75 626.5 69 Q616 63 616 52 Z M772 168 L820 168 L820 140 Q827 154 841.5 163.5 Q856 173 872 173 Q877 173 883.5 172 Q890 171 895 168 L882 130 Q877 132 873 133 Q869 134 864 134 Q844 134 832 119.5 Q820 105 820 85 L820 1 L772 1 L772 168 Z " />
</font>
</svg>
