<?xml version="1.0" encoding="UTF-8"?>
<svg xmlns="http://www.w3.org/2000/svg" xmlns:xlink="http://www.w3.org/1999/xlink" version="1.2" >
<font id="Avenue Regular Italic">
<font-face  font-family="Avenue" units-per-em="1000" ascent="795" descent="-205" font-style="italic" font-weight="400" font-stretch="normal" slope="-12" cap-height="687" x-height="517" underline-position="-133" underline-thickness="20" />
<missing-glyph  horiz-adv-x="500" d="M410 -210 L93 -210 L93 790 L410 790 L410 -210 Z M333 -141 L333 -108 L231 -108 L301 -61 L333 -61 L333 -28 L167 -28 L167 -61 L237 -61 L167 -108 L167 -141 L333 -141 Z M333 -5 L333 108 L167 108 L167 -5 L333 -5 Z M333 168 L333 281 L233 281 L233 225 L267 225 L267 248 L300 248 L300 201 L200 201 L200 281 L167 281 L167 168 L333 168 Z M333 303 L333 403 L300 403 L300 337 L167 337 L167 303 L333 303 Z M267 360 L267 430 L333 430 L333 463 L167 463 L167 430 L233 430 L233 393 L167 393 L167 360 L267 360 Z M333 490 L333 524 L267 524 L267 594 L167 594 L167 490 L333 490 Z M333 620 L333 653 L267 653 L267 690 L333 690 L333 723 L168 723 L168 690 L233 690 L233 653 L167 653 L167 620 L333 620 Z M200 75 L300 75 L300 28 L200 28 L200 75 Z M200 560 L233 560 L233 524 L200 524 L200 560 Z " />
<glyph glyph-name="null" d="" />
<glyph glyph-name="nonmarkingreturn" unicode="&#xd;" horiz-adv-x="250" d="" />
<glyph glyph-name="&amp;#x20;" unicode="&#x20;" horiz-adv-x="276" d="" />
<glyph glyph-name="&amp;#xa0;" unicode="&#xa0;" horiz-adv-x="276" d="" />
<glyph glyph-name="exclam" unicode="&#x21;" horiz-adv-x="322" d="M193 687 L306 687 L183 207 L117 207 L193 687 Z M57 46 Q57 78 79 97.5 Q101 117 129 117 Q154 117 169.5 100 Q185 83 185 60 Q185 31 163.5 9.5 Q142 -12 115 -12 Q89 -12 73 4.5 Q57 21 57 46 Z " />
<glyph glyph-name="quotedbl" unicode="&#x22;" horiz-adv-x="471" d="M144 419 Q144 447 144.5 479.5 Q145 512 147 544 Q148 571 151.5 596 Q155 621 163 639.5 Q171 658 185.5 669 Q200 680 222 680 Q242 680 254 667.5 Q266 655 266 636 Q266 629 257.5 601.5 Q249 574 237 540 Q225 506 212.5 472.5 Q200 439 192 419 L144 419 Z M341 419 Q341 447 341.5 479.5 Q342 512 344 544 Q345 571 348.5 596 Q352 621 360 639.5 Q368 658 382.5 669 Q397 680 419 680 Q439 680 451 667.5 Q463 655 463 636 Q463 629 454.5 601.5 Q446 574 434 540 Q422 506 409.5 472.5 Q397 439 389 419 L341 419 Z " />
<glyph glyph-name="numbersign" unicode="&#x23;" horiz-adv-x="693" d="M137 174 L29 174 L62 247 L171 247 L259 439 L149 439 L182 512 L293 512 L373 687 L451 687 L371 512 L510 512 L590 687 L669 687 L589 512 L701 512 L667 439 L555 439 L467 247 L579 247 L545 174 L433 174 L353 0 L274 0 L354 174 L215 174 L135 0 L57 0 L137 174 Z M388 247 L476 439 L337 439 L249 247 L388 247 Z " />
<glyph glyph-name="dollar" unicode="&#x24;" horiz-adv-x="670" d="M282 -9 Q216 -1 156.5 28.5 Q97 58 60 102 L130 169 Q160 132 205.5 108 Q251 84 299 77 L347 307 Q253 332 208.5 366.5 Q164 401 164 464 Q164 514 183.5 556.5 Q203 599 238 630.5 Q273 662 321.5 680 Q370 698 429 700 L441 759 L509 759 L496 695 Q546 685 593 660 Q640 635 673 600 L606 531 Q581 559 547 579 Q513 599 478 608 L432 387 Q527 362 569 324.5 Q611 287 611 225 Q611 176 591.5 134.5 Q572 93 537.5 62 Q503 31 455 12.5 Q407 -6 349 -10 L336 -74 L268 -74 L282 -9 Z M264 484 Q264 458 288 439.5 Q312 421 367 404 L411 613 Q344 608 304 572 Q264 536 264 484 Z M367 77 Q433 86 472 122 Q511 158 511 209 Q511 235 488.5 254 Q466 273 412 290 L367 77 Z " />
<glyph glyph-name="percent" unicode="&#x25;" horiz-adv-x="852" d="M707 687 L797 687 L182 0 L92 0 L707 687 Z M114 485 Q114 526 129.5 563.5 Q145 601 171 630 Q197 659 233 676 Q269 693 309 693 Q374 693 409.5 654 Q445 615 445 555 Q445 513 429.5 475.5 Q414 438 387.5 409.5 Q361 381 325.5 364 Q290 347 250 347 Q184 347 149 386 Q114 425 114 485 Z M184 485 Q184 451 202 430.5 Q220 410 250 410 Q276 410 298.5 423 Q321 436 337.5 456.5 Q354 477 363.5 503 Q373 529 373 555 Q373 589 356 609.5 Q339 630 308 630 Q282 630 259 617 Q236 604 219.5 583 Q203 562 193.5 536 Q184 510 184 485 Z M440 128 Q440 168 455.5 205.5 Q471 243 497.5 272 Q524 301 560 318.5 Q596 336 636 336 Q702 336 737 296.5 Q772 257 772 198 Q772 157 756.5 119.5 Q741 82 715 53 Q689 24 653.5 7 Q618 -10 577 -10 Q514 -10 477 28.5 Q440 67 440 128 Z M513 127 Q513 93 530 73 Q547 53 578 53 Q605 53 628 66.5 Q651 80 667.5 101 Q684 122 693 148 Q702 174 702 199 Q702 233 684 253 Q666 273 636 273 Q610 273 587.5 260.5 Q565 248 548.5 227 Q532 206 522.5 180 Q513 154 513 127 Z " />
<glyph glyph-name="ampersand" unicode="&#x26;" horiz-adv-x="713" d="M232 -12 Q190 -12 155.5 -1 Q121 10 96 30.5 Q71 51 57 80 Q43 109 43 146 Q43 192 58 228.5 Q73 265 100 294.5 Q127 324 164.5 347 Q202 370 246 388 Q231 417 223 442.5 Q215 468 215 494 Q215 538 232 575 Q249 612 278.5 638.5 Q308 665 346 680 Q384 695 426 695 Q459 695 486 684.5 Q513 674 531.5 655.5 Q550 637 560.5 612 Q571 587 571 558 Q571 517 555 486.5 Q539 456 511 432 Q483 408 445.5 389.5 Q408 371 365 354 Q388 319 415 283 Q442 247 475 203 Q504 236 531.5 274 Q559 312 583 353 L654 311 Q622 263 589.5 220 Q557 177 523 140 L609 27 L521 -7 L457 78 Q406 36 350.5 12 Q295 -12 232 -12 Z M137 156 Q137 113 167 90 Q197 67 242 67 Q285 67 327 86.5 Q369 106 411 141 Q370 198 340.5 241 Q311 284 286 324 Q219 295 178 253.5 Q137 212 137 156 Z M303 501 Q303 483 308 462 Q313 441 325 416 Q359 428 388 441 Q417 454 438.5 470.5 Q460 487 472 508 Q484 529 484 557 Q484 584 468.5 601 Q453 618 424 618 Q399 618 377 609 Q355 600 338.5 584.5 Q322 569 312.5 547.5 Q303 526 303 501 Z " />
<glyph glyph-name="quotesingle" unicode="&#x27;" horiz-adv-x="281" d="M151 419 Q151 447 151.5 479.5 Q152 512 154 544 Q155 571 158.5 596 Q162 621 170 639.5 Q178 658 192.5 669 Q207 680 229 680 Q249 680 261 667.5 Q273 655 273 636 Q273 629 264.5 601.5 Q256 574 244 540 Q232 506 219.5 472.5 Q207 439 199 419 L151 419 Z " />
<glyph glyph-name="parenleft" unicode="&#x28;" horiz-adv-x="342" d="M179 -168 Q113 -104 77.5 -22 Q42 60 42 157 Q42 238 64.5 315 Q87 392 127.5 461.5 Q168 531 225.5 592 Q283 653 353 702 L397 646 Q276 544 206.5 419.5 Q137 295 137 146 Q137 70 162 6 Q187 -58 235 -120 L179 -168 Z " />
<glyph glyph-name="parenright" unicode="&#x29;" horiz-adv-x="341" d="M-52 -115 Q71 -11 139 112.5 Q207 236 207 384 Q207 461 183 524.5 Q159 588 111 651 L166 698 Q232 634 267.5 552.5 Q303 471 303 374 Q303 293 280.5 216 Q258 139 217 69 Q176 -1 118.5 -62 Q61 -123 -9 -172 L-52 -115 Z " />
<glyph glyph-name="asterisk" unicode="&#x2a;" horiz-adv-x="461" d="M253 368 Q241 368 234 375 Q227 382 229 393 Q236 423 249 454 Q262 485 272 515 Q243 497 216 476 Q189 455 159 439 Q149 434 139 437.5 Q129 441 126 452 Q121 463 126 473.5 Q131 484 141 489 Q170 504 202 513.5 Q234 523 265 535 Q239 547 211.5 556.5 Q184 566 161 581 Q153 586 152.5 596.5 Q152 607 160 618 Q168 629 180 632.5 Q192 636 200 631 Q223 615 241.5 594 Q260 573 280 555 Q283 585 282.5 615.5 Q282 646 288 677 Q290 688 300 695 Q310 702 322 702 Q334 702 341 695 Q348 688 346 677 Q339 646 326 615.5 Q313 585 303 555 Q331 573 358.5 594 Q386 615 415 630 Q425 635 435 632 Q445 629 449 618 Q454 607 449 596.5 Q444 586 434 581 Q405 566 372.5 556.5 Q340 547 310 535 Q336 523 363.5 513.5 Q391 504 414 489 Q422 484 422.5 473 Q423 462 415 452 Q407 441 395 437.5 Q383 434 375 439 Q352 454 333.5 475.5 Q315 497 294 515 Q292 485 292.5 454 Q293 423 287 393 Q285 382 275 375 Q265 368 253 368 Z " />
<glyph glyph-name="plus" unicode="&#x2b;" horiz-adv-x="595" d="M90 377 L277 377 L317 567 L407 567 L367 377 L555 377 L537 291 L349 291 L309 102 L220 102 L259 291 L71 291 L90 377 Z " />
<glyph glyph-name="comma" unicode="&#x2c;" horiz-adv-x="320" d="M24 -103 Q50 -80 69.5 -56 Q89 -32 103 -8 Q81 -8 66 6.5 Q51 21 51 45 Q51 77 73 97 Q95 117 122 117 Q151 117 166.5 97.5 Q182 78 182 46 Q182 -5 147.5 -49 Q113 -93 64 -139 L24 -103 Z " />
<glyph glyph-name="hyphen" unicode="&#x2d;" horiz-adv-x="429" d="M95 316 L358 316 L339 229 L76 229 L95 316 Z " />
<glyph glyph-name="period" unicode="&#x2e;" horiz-adv-x="329" d="M116 -12 Q90 -12 74 4.5 Q58 21 58 46 Q58 78 80 97.5 Q102 117 130 117 Q155 117 170.5 100 Q186 83 186 60 Q186 31 164.5 9.5 Q143 -12 116 -12 Z " />
<glyph glyph-name="slash" unicode="&#x2f;" horiz-adv-x="461" d="M453 743 L559 743 L40 -74 L-66 -74 L453 743 Z " />
<glyph glyph-name="zero" unicode="0" horiz-adv-x="700" d="M300 -12 Q246 -12 202.5 6.5 Q159 25 128.5 59.5 Q98 94 82 142.5 Q66 191 66 251 Q66 334 93.5 414.5 Q121 495 170 558 Q219 621 287 660 Q355 699 435 699 Q489 699 532.5 680.5 Q576 662 606.5 627.5 Q637 593 653 544.5 Q669 496 669 437 Q669 353 641.5 272.5 Q614 192 565 129 Q516 66 448 27 Q380 -12 300 -12 Z M164 255 Q164 174 201 125.5 Q238 77 305 77 Q364 77 412.5 110 Q461 143 496.5 194.5 Q532 246 551.5 309.5 Q571 373 571 434 Q571 514 533.5 562 Q496 610 429 610 Q371 610 322.5 577 Q274 544 239 492.5 Q204 441 184 378 Q164 315 164 255 Z " />
<glyph glyph-name="one" unicode="1" horiz-adv-x="378" d="M247 572 L113 495 L85 566 L289 687 L367 687 L224 0 L127 0 L247 572 Z " />
<glyph glyph-name="two" unicode="2" horiz-adv-x="581" d="M0 80 L294 292 Q329 317 360.5 344 Q392 371 417 400 Q442 429 456.5 459.5 Q471 490 471 522 Q471 565 440.5 588 Q410 611 367 611 Q307 611 257 582 Q207 553 162 506 L104 570 Q162 632 228.5 665.5 Q295 699 375 699 Q418 699 454 687 Q490 675 516 653 Q542 631 556.5 600 Q571 569 571 530 Q571 483 554.5 441.5 Q538 400 508.5 362.5 Q479 325 439.5 291.5 Q400 258 354 228 L152 91 L490 91 L471 0 L-15 0 L0 80 Z " />
<glyph glyph-name="three" unicode="3" horiz-adv-x="592" d="M222 -12 Q150 -12 90.5 20 Q31 52 0 106 L73 166 Q127 75 238 75 Q269 75 300 86.5 Q331 98 357 116.5 Q383 135 401 158.5 Q419 182 424 206 Q436 263 402 294.5 Q368 326 298 326 Q269 326 223 315 L206 389 L456 599 L143 599 L162 687 L609 687 L590 599 L344 397 Q394 399 432 386.5 Q470 374 493.5 348.5 Q517 323 524.5 285.5 Q532 248 522 201 Q513 155 485.5 116 Q458 77 418 48.5 Q378 20 328 4 Q278 -12 222 -12 Z " />
<glyph glyph-name="four" unicode="4" horiz-adv-x="606" d="M360 160 L20 160 L24 238 L451 687 L567 687 L476 245 L575 245 L557 160 L458 160 L424 0 L327 0 L360 160 Z M378 245 L448 576 L135 245 L378 245 Z " />
<glyph glyph-name="five" unicode="5" horiz-adv-x="603" d="M249 -12 Q165 -12 109.5 19 Q54 50 19 98 L89 164 Q121 122 162.5 98 Q204 74 257 74 Q296 74 330.5 88.5 Q365 103 391.5 127 Q418 151 433.5 182.5 Q449 214 449 248 Q449 294 416 321.5 Q383 349 326 349 Q281 349 240.5 333.5 Q200 318 164 295 L99 329 L183 687 L603 687 L585 597 L258 597 L206 390 Q237 409 273.5 420.5 Q310 432 354 432 Q396 432 431.5 420.5 Q467 409 493 387.5 Q519 366 533.5 334.5 Q548 303 548 262 Q548 203 524.5 153 Q501 103 460 66 Q419 29 365 8.5 Q311 -12 249 -12 Z " />
<glyph glyph-name="six" unicode="6" horiz-adv-x="626" d="M280 -12 Q223 -12 182 5 Q141 22 115 52.5 Q89 83 76.5 126 Q64 169 64 220 Q64 308 92 393.5 Q120 479 169.5 547 Q219 615 287 657 Q355 699 434 699 Q500 699 544.5 676 Q589 653 621 617 L561 546 Q535 576 504 594 Q473 612 428 612 Q384 612 344.5 590 Q305 568 273 531 Q241 494 216.5 446 Q192 398 178 346 Q219 388 271 410.5 Q323 433 377 433 Q419 433 455 421.5 Q491 410 517.5 388 Q544 366 558.5 334 Q573 302 573 261 Q573 204 549.5 154 Q526 104 485.5 67 Q445 30 392 9 Q339 -12 280 -12 Z M161 222 Q161 154 189 112.5 Q217 71 281 71 Q320 71 355 86 Q390 101 416.5 126 Q443 151 459 183.5 Q475 216 475 250 Q475 299 440.5 325.5 Q406 352 351 352 Q290 352 238 318 Q186 284 161 230 L161 222 Z " />
<glyph glyph-name="seven" unicode="7" horiz-adv-x="533" d="M457 597 L95 597 L114 687 L592 687 L578 614 L159 0 L46 0 L457 597 Z " />
<glyph glyph-name="eight" unicode="8" horiz-adv-x="630" d="M264 -12 Q215 -12 173.5 -0.5 Q132 11 102 32 Q72 53 55 83.5 Q38 114 38 152 Q38 190 52.5 222.5 Q67 255 92.5 281 Q118 307 152 326.5 Q186 346 225 358 Q182 376 154 408.5 Q126 441 126 489 Q126 539 150 578 Q174 617 213 644 Q252 671 301 685 Q350 699 399 699 Q443 699 481.5 688.5 Q520 678 549 657.5 Q578 637 594.5 608 Q611 579 611 542 Q611 507 598.5 478 Q586 449 564 425 Q542 401 511.5 383 Q481 365 446 352 Q494 334 526 297 Q558 260 558 207 Q558 156 533 115.5 Q508 75 467 46.5 Q426 18 373 3 Q320 -12 264 -12 Z M138 163 Q138 122 174.5 98 Q211 74 269 74 Q305 74 340 84.5 Q375 95 402 114 Q429 133 446 158.5 Q463 184 463 215 Q463 237 451 254.5 Q439 272 420 284 Q401 296 377.5 302.5 Q354 309 332 310 Q300 309 266 297.5 Q232 286 203.5 266.5 Q175 247 156.5 220.5 Q138 194 138 163 Z M220 479 Q220 458 230.5 442 Q241 426 258 415.5 Q275 405 295.5 399 Q316 393 335 392 Q365 394 397 404.5 Q429 415 454.5 433 Q480 451 496.5 475.5 Q513 500 513 529 Q513 567 480.5 590 Q448 613 395 613 Q362 613 330.5 602.5 Q299 592 274.5 574 Q250 556 235 531.5 Q220 507 220 479 Z " />
<glyph glyph-name="nine" unicode="9" horiz-adv-x="626" d="M382 699 Q439 699 480 682 Q521 665 547 634.5 Q573 604 585.5 561 Q598 518 598 467 Q598 379 570 293.5 Q542 208 492.5 140 Q443 72 375 30 Q307 -12 228 -12 Q162 -12 117.5 11 Q73 34 41 70 L101 141 Q127 111 158 93 Q189 75 234 75 Q278 75 317.5 97 Q357 119 389 156 Q421 193 445.5 241 Q470 289 484 341 Q443 299 391 276.5 Q339 254 285 254 Q243 254 207 265.5 Q171 277 144.5 299 Q118 321 103.5 353 Q89 385 89 426 Q89 483 112.5 533 Q136 583 176.5 620 Q217 657 270 678 Q323 699 382 699 Z M187 437 Q187 388 221.5 361.5 Q256 335 311 335 Q372 335 424 369 Q476 403 501 457 L501 465 Q501 533 473 574.5 Q445 616 381 616 Q342 616 307 601 Q272 586 245.5 561 Q219 536 203 503.5 Q187 471 187 437 Z " />
<glyph glyph-name="colon" unicode="&#x3a;" horiz-adv-x="314" d="M191 388 Q165 388 149 404.5 Q133 421 133 446 Q133 478 155 497.5 Q177 517 204 517 Q230 517 245 500 Q260 483 260 460 Q260 431 239 409.5 Q218 388 191 388 Z M50 46 Q50 78 72 97.5 Q94 117 121 117 Q147 117 162 100 Q177 83 177 60 Q177 31 156 9.5 Q135 -12 107 -12 Q81 -12 65.5 4.5 Q50 21 50 46 Z " />
<glyph glyph-name="semicolon" unicode="&#x3b;" horiz-adv-x="314" d="M21 -103 Q47 -80 66.5 -56 Q86 -32 100 -8 Q78 -8 63 6.5 Q48 21 48 45 Q48 77 70 97 Q92 117 119 117 Q148 117 163.5 97.5 Q179 78 179 46 Q179 -5 144.5 -49 Q110 -93 61 -139 L21 -103 Z M138 461 Q138 493 160 512.5 Q182 532 210 532 Q235 532 250.5 515 Q266 498 266 475 Q266 446 244.5 424.5 Q223 403 196 403 Q170 403 154 419.5 Q138 436 138 461 Z " />
<glyph glyph-name="less" unicode="&#x3c;" horiz-adv-x="596" d="M70 306 L85 381 L589 601 L572 517 L163 344 L499 171 L482 86 L70 306 Z " />
<glyph glyph-name="equal" unicode="&#x3d;" horiz-adv-x="714" d="M172 489 L638 489 L620 403 L154 403 L172 489 Z M126 267 L592 267 L573 181 L107 181 L126 267 Z " />
<glyph glyph-name="greater" unicode="&#x3e;" horiz-adv-x="595" d="M59 171 L468 344 L132 517 L149 601 L561 381 L546 306 L42 86 L59 171 Z " />
<glyph glyph-name="question" unicode="&#x3f;" horiz-adv-x="531" d="M217 386 Q256 389 295.5 400 Q335 411 366 429.5 Q397 448 416.5 473 Q436 498 436 528 Q436 563 411 587 Q386 611 337 611 Q283 611 238.5 585.5 Q194 560 156 523 L104 589 Q155 638 216.5 668.5 Q278 699 351 699 Q395 699 429 687.5 Q463 676 487 655 Q511 634 523.5 605.5 Q536 577 536 543 Q536 500 516 462.5 Q496 425 463.5 395.5 Q431 366 389 345.5 Q347 325 302 316 L279 205 L180 205 L217 386 Z M141 46 Q141 78 163 97.5 Q185 117 213 117 Q238 117 253.5 100 Q269 83 269 60 Q269 31 247.5 9.5 Q226 -12 199 -12 Q173 -12 157 4.5 Q141 21 141 46 Z " />
<glyph glyph-name="at" unicode="&#x40;" horiz-adv-x="937" d="M380 -116 Q313 -116 256 -93 Q199 -70 157.5 -29.5 Q116 11 92.5 66 Q69 121 69 186 Q69 291 108 380.5 Q147 470 215.5 535.5 Q284 601 378 638 Q472 675 582 675 Q648 675 704.5 653 Q761 631 802 593 Q843 555 866.5 502.5 Q890 450 890 388 Q890 331 871 275.5 Q852 220 819 176 Q786 132 741.5 104.5 Q697 77 646 77 Q598 77 572.5 100 Q547 123 546 161 Q511 125 466 101 Q421 77 370 77 Q307 77 271 112.5 Q235 148 235 208 Q235 261 260.5 313.5 Q286 366 326.5 408 Q367 450 419 476 Q471 502 523 502 Q575 502 603 479 Q631 456 642 424 L668 488 L748 482 Q725 425 704.5 375 Q684 325 668 285.5 Q652 246 643 218 Q634 190 634 177 Q634 155 647.5 143 Q661 131 685 131 Q722 131 752.5 155 Q783 179 805 216 Q827 253 839 297 Q851 341 851 381 Q851 436 830 483 Q809 530 771.5 564.5 Q734 599 682.5 618.5 Q631 638 571 638 Q472 638 387.5 604 Q303 570 241 510.5 Q179 451 144 369.5 Q109 288 109 192 Q109 134 130.5 84 Q152 34 189.5 -2.5 Q227 -39 278.5 -59.5 Q330 -80 390 -80 Q504 -80 618 -19 L631 -47 Q568 -81 505 -98.5 Q442 -116 380 -116 Z M325 228 Q325 191 347 169.5 Q369 148 409 148 Q448 148 483 167.5 Q518 187 545 217.5 Q572 248 587.5 285.5 Q603 323 603 359 Q603 393 583 412.5 Q563 432 521 432 Q484 432 449 414 Q414 396 386.5 367 Q359 338 342 301.5 Q325 265 325 228 Z " />
<glyph glyph-name="A" unicode="A" horiz-adv-x="752" d="M673 0 L568 0 L535 145 L174 145 L81 0 L-29 0 L411 687 L520 687 L673 0 Z M516 231 L442 564 L229 231 L516 231 Z " />
<glyph glyph-name="B" unicode="B" horiz-adv-x="707" d="M193 687 L514 687 Q550 687 580.5 676.5 Q611 666 633 647 Q655 628 667 602 Q679 576 679 545 Q679 489 644.5 440.5 Q610 392 547 361 Q587 338 612.5 299 Q638 260 638 218 Q638 173 618 133 Q598 93 564 63.5 Q530 34 485 17 Q440 0 390 0 L50 0 L193 687 Z M379 86 Q413 86 443 97.5 Q473 109 495.5 129 Q518 149 531 175 Q544 201 544 231 Q544 269 513.5 292.5 Q483 316 434 316 L213 316 L165 86 L379 86 Z M430 400 Q460 400 486.5 410 Q513 420 533.5 437.5 Q554 455 565.5 478 Q577 501 577 526 Q577 560 550 580.5 Q523 601 478 601 L273 601 L231 400 L430 400 Z " />
<glyph glyph-name="C" unicode="C" horiz-adv-x="692" d="M354 -12 Q294 -12 241 11.5 Q188 35 148.5 75 Q109 115 85.5 168.5 Q62 222 62 283 Q62 367 97 442.5 Q132 518 191.5 575 Q251 632 330 665.5 Q409 699 497 699 Q529 699 562 691 Q595 683 625 668 Q655 653 681 633 Q707 613 726 589 L649 528 Q623 564 577 587 Q531 610 483 610 Q417 610 358.5 583.5 Q300 557 256 512.5 Q212 468 186 409 Q160 350 160 284 Q160 241 177 203.5 Q194 166 222.5 138 Q251 110 288.5 93.5 Q326 77 368 77 Q391 77 417 83.5 Q443 90 469.5 101.5 Q496 113 521.5 129 Q547 145 568 164 L626 93 Q598 70 564.5 51 Q531 32 495 18 Q459 4 422.5 -4 Q386 -12 354 -12 Z " />
<glyph glyph-name="D" unicode="D" horiz-adv-x="766" d="M193 687 L426 687 Q496 687 554 666.5 Q612 646 654 609.5 Q696 573 719.5 522.5 Q743 472 743 412 Q743 328 707 253 Q671 178 609 122 Q547 66 464.5 33 Q382 0 290 0 L50 0 L193 687 Z M306 89 Q375 89 436 114.5 Q497 140 543.5 183 Q590 226 617 284 Q644 342 644 406 Q644 448 627.5 483.5 Q611 519 581 544.5 Q551 570 510 584.5 Q469 599 419 599 L273 599 L166 89 L306 89 Z " />
<glyph glyph-name="E" unicode="E" horiz-adv-x="664" d="M193 687 L696 687 L677 597 L272 597 L232 395 L596 395 L578 305 L211 305 L168 91 L572 91 L553 0 L50 0 L193 687 Z " />
<glyph glyph-name="F" unicode="F" horiz-adv-x="645" d="M193 687 L696 687 L677 597 L272 597 L231 392 L595 392 L577 302 L210 302 L148 0 L50 0 L193 687 Z " />
<glyph glyph-name="G" unicode="G" horiz-adv-x="741" d="M355 -12 Q295 -12 241.5 11.5 Q188 35 148 75 Q108 115 85 168.5 Q62 222 62 282 Q62 367 97.5 442.5 Q133 518 193 575 Q253 632 332.5 665.5 Q412 699 499 699 Q533 699 567 691 Q601 683 632.5 668.5 Q664 654 690.5 633.5 Q717 613 736 589 L658 528 Q632 565 583.5 587.5 Q535 610 484 610 Q419 610 360 583.5 Q301 557 256.5 512 Q212 467 186 408 Q160 349 160 283 Q160 241 176.5 203.5 Q193 166 221.5 138 Q250 110 288 93.5 Q326 77 369 77 Q411 77 459 94.5 Q507 112 549 141 L577 281 L391 281 L410 366 L693 366 L636 93 Q608 69 573 50 Q538 31 501 17 Q464 3 426.5 -4.5 Q389 -12 355 -12 Z " />
<glyph glyph-name="H" unicode="H" horiz-adv-x="782" d="M193 687 L290 687 L231 395 L611 395 L670 687 L767 687 L624 0 L527 0 L589 305 L209 305 L147 0 L50 0 L193 687 Z " />
<glyph glyph-name="I" unicode="I" horiz-adv-x="425" d="M40 94 L130 94 L233 593 L145 593 L164 687 L439 687 L420 593 L330 593 L227 94 L315 94 L296 0 L21 0 L40 94 Z " />
<glyph glyph-name="J" unicode="J" horiz-adv-x="551" d="M183 -12 Q152 -12 122.5 -3.5 Q93 5 67.5 21 Q42 37 22 58.5 Q2 80 -10 106 L69 165 Q80 126 114 101.5 Q148 77 192 77 Q221 77 247.5 88.5 Q274 100 296 120.5 Q318 141 334 169.5 Q350 198 357 231 L433 602 L232 602 L251 687 L549 687 L530 602 L451 220 Q441 169 415.5 126.5 Q390 84 354.5 53 Q319 22 275 5 Q231 -12 183 -12 Z " />
<glyph glyph-name="K" unicode="K" horiz-adv-x="692" d="M193 687 L290 687 L215 330 L615 687 L744 687 L395 377 L617 0 L498 0 L316 310 L191 202 L147 0 L50 0 L193 687 Z " />
<glyph glyph-name="L" unicode="L" horiz-adv-x="590" d="M193 687 L290 687 L168 91 L532 91 L513 0 L50 0 L193 687 Z " />
<glyph glyph-name="M" unicode="M" horiz-adv-x="988" d="M242 687 L335 687 L484 233 L822 687 L920 687 L857 0 L765 0 L812 526 L449 40 L290 526 L118 0 L19 0 L242 687 Z " />
<glyph glyph-name="N" unicode="N" horiz-adv-x="802" d="M193 687 L289 687 L579 160 L690 687 L787 687 L644 0 L549 0 L259 527 L147 0 L50 0 L193 687 Z " />
<glyph glyph-name="O" unicode="O" horiz-adv-x="816" d="M354 -12 Q290 -12 236.5 9.5 Q183 31 145 69.5 Q107 108 85.5 161.5 Q64 215 64 279 Q64 366 98 442.5 Q132 519 191 576 Q250 633 329 666 Q408 699 497 699 Q562 699 615.5 677.5 Q669 656 707 617.5 Q745 579 766.5 525.5 Q788 472 788 408 Q788 321 754 244.5 Q720 168 661 111 Q602 54 523 21 Q444 -12 354 -12 Z M163 285 Q163 239 178 201 Q193 163 220 135.5 Q247 108 285 92.5 Q323 77 369 77 Q435 77 493.5 103 Q552 129 595.5 173.5 Q639 218 664 278 Q689 338 689 405 Q689 450 674 487.5 Q659 525 632 552.5 Q605 580 567 595 Q529 610 484 610 Q418 610 359.5 584.5 Q301 559 257.5 514.5 Q214 470 188.5 411 Q163 352 163 285 Z " />
<glyph glyph-name="P" unicode="P" horiz-adv-x="641" d="M193 687 L439 687 Q487 687 526.5 673 Q566 659 594.5 634 Q623 609 639 574.5 Q655 540 655 498 Q655 445 630.5 398 Q606 351 564 316 Q522 281 466.5 260.5 Q411 240 348 240 L198 240 L147 0 L50 0 L193 687 Z M363 331 Q402 331 437.5 344 Q473 357 499.5 379.5 Q526 402 541.5 431.5 Q557 461 557 494 Q557 539 519 567.5 Q481 596 419 596 L272 596 L216 331 L363 331 Z " />
<glyph glyph-name="Q" unicode="Q" horiz-adv-x="828" d="M352 -16 Q280 -16 221 13 Q162 42 123 91.5 Q84 141 68.5 206 Q53 271 68 343 Q85 422 126.5 487.5 Q168 553 226.5 600.5 Q285 648 355.5 674 Q426 700 500 700 Q572 700 630.5 671 Q689 642 728 593.5 Q767 545 782.5 480 Q798 415 783 343 Q768 270 727.5 206 Q687 142 629 94 L687 -1 L588 -1 L398 312 L497 312 L581 174 Q619 208 646.5 250.5 Q674 293 684 343 Q695 398 684.5 447 Q674 496 646.5 532.5 Q619 569 577 590 Q535 611 482 611 Q430 611 378.5 589.5 Q327 568 284 531.5 Q241 495 210 446 Q179 397 167 343 Q155 286 164.5 237 Q174 188 201 151.5 Q228 115 271 94 Q314 73 369 73 Q414 73 458 92 L502 17 Q465 1 427.5 -7.5 Q390 -16 352 -16 Z " />
<glyph glyph-name="R" unicode="R" horiz-adv-x="668" d="M333 240 L198 240 L147 0 L50 0 L193 687 L439 687 Q487 687 526.5 673 Q566 659 594.5 634 Q623 609 639 574.5 Q655 540 655 498 Q655 455 638.5 415 Q622 375 592.5 343 Q563 311 522.5 287 Q482 263 435 251 L587 0 L479 0 L333 240 Z M363 331 Q402 331 437.5 344 Q473 357 499.5 379.5 Q526 402 541.5 431.5 Q557 461 557 494 Q557 539 519 567.5 Q481 596 419 596 L272 596 L216 331 L363 331 Z " />
<glyph glyph-name="S" unicode="S" horiz-adv-x="619" d="M270 -11 Q233 -11 195.5 -3 Q158 5 123.5 20 Q89 35 59 56 Q29 77 8 102 L78 169 Q113 126 168.5 100.5 Q224 75 278 75 Q319 75 352 85 Q385 95 409 113 Q433 131 446 155.5 Q459 180 459 209 Q459 241 426 262 Q393 283 313 303 Q210 328 161 363.5 Q112 399 112 464 Q112 515 132.5 558.5 Q153 602 189.5 633.5 Q226 665 277 682.5 Q328 700 389 700 Q420 700 452.5 693 Q485 686 515.5 672.5 Q546 659 573 641 Q600 623 621 600 L554 531 Q521 569 472.5 591.5 Q424 614 380 614 Q343 614 312 604 Q281 594 258.5 576.5 Q236 559 224 535.5 Q212 512 212 484 Q212 453 246 432.5 Q280 412 359 392 Q466 367 512.5 328.5 Q559 290 559 225 Q559 173 537.5 129.5 Q516 86 477.5 55 Q439 24 386 6.5 Q333 -11 270 -11 Z " />
<glyph glyph-name="T" unicode="T" horiz-adv-x="592" d="M318 597 L91 597 L110 687 L660 687 L641 597 L415 597 L291 0 L193 0 L318 597 Z " />
<glyph glyph-name="U" unicode="U" horiz-adv-x="756" d="M324 -12 Q259 -12 209 10.5 Q159 33 128.5 73.5 Q98 114 87.5 170 Q77 226 91 292 L173 687 L270 687 L187 286 Q177 240 183.5 201.5 Q190 163 210 135 Q230 107 262.5 92 Q295 77 338 77 Q382 77 421.5 93 Q461 109 493.5 138 Q526 167 548.5 207 Q571 247 581 294 L663 687 L760 687 L677 285 Q663 219 630 164.5 Q597 110 550.5 71 Q504 32 446 10 Q388 -12 324 -12 Z " />
<glyph glyph-name="V" unicode="V" horiz-adv-x="743" d="M109 687 L214 687 L340 123 L701 687 L811 687 L371 0 L262 0 L109 687 Z " />
<glyph glyph-name="W" unicode="W" horiz-adv-x="1070" d="M109 687 L214 687 L343 116 L508 374 L438 687 L536 687 L581 488 L708 687 L811 687 L607 369 L664 115 L1030 687 L1139 687 L700 0 L591 0 L534 255 L371 0 L263 0 L109 687 Z " />
<glyph glyph-name="X" unicode="X" horiz-adv-x="690" d="M493 0 L304 346 L377 422 L421 341 L92 0 L-30 0 L304 346 L118 687 L232 687 L377 422 L633 687 L755 687 L421 341 L607 0 L493 0 Z " />
<glyph glyph-name="Y" unicode="Y" horiz-adv-x="681" d="M294 271 L105 687 L201 687 L353 355 L638 687 L754 687 L394 271 L336 0 L235 0 L294 271 Z " />
<glyph glyph-name="Z" unicode="Z" horiz-adv-x="622" d="M3 76 L511 597 L120 597 L138 687 L664 687 L649 611 L142 91 L545 91 L525 0 L-11 0 L3 76 Z " />
<glyph glyph-name="bracketleft" unicode="&#x5b;" horiz-adv-x="378" d="M198 727 L443 727 L429 659 L263 659 L114 -55 L281 -55 L267 -123 L21 -123 L198 727 Z " />
<glyph glyph-name="backslash" unicode="&#x5c;" horiz-adv-x="456" d="M104 743 L206 743 L385 -74 L283 -74 L104 743 Z " />
<glyph glyph-name="bracketright" unicode="&#x5d;" horiz-adv-x="378" d="M-34 -55 L132 -55 L281 659 L114 659 L129 727 L374 727 L198 -123 L-48 -123 L-34 -55 Z " />
<glyph glyph-name="asciicircum" unicode="&#x5e;" horiz-adv-x="509" d="M309 687 L380 687 L480 413 L407 413 L334 622 L170 413 L93 413 L309 687 Z " />
<glyph glyph-name="underscore" unicode="&#x5f;" horiz-adv-x="760" d="M14 -73 L610 -73 L595 -145 L-2 -145 L14 -73 Z " />
<glyph glyph-name="grave" unicode="&#x60;" horiz-adv-x="268" d="M121 703 L216 723 L305 576 L238 576 L121 703 Z " />
<glyph glyph-name="a" unicode="a" horiz-adv-x="562" d="M358 66 Q322 27 271.5 7.5 Q221 -12 175 -12 Q101 -12 55.5 24.5 Q10 61 10 123 Q10 169 30 206 Q50 243 83 269.5 Q116 296 159 310.5 Q202 325 248 325 Q290 325 330 316.5 Q370 308 406 294 Q413 325 414.5 337 Q416 349 416 359 Q416 397 393.5 423.5 Q371 450 311 450 Q270 450 230 436 Q190 422 153 405 L126 479 Q187 506 237 517.5 Q287 529 327 529 Q418 529 463 484.5 Q508 440 508 367 Q508 352 506 336 Q504 320 496.5 284 Q489 248 475.5 182 Q462 116 438 0 L344 0 L358 66 Z M102 131 Q102 99 128 81.5 Q154 64 196 64 Q222 64 249 70.5 Q276 77 301 90 Q326 103 346 122 Q366 141 377 166 L378 162 L394 235 Q334 253 260 253 Q230 253 201.5 243.5 Q173 234 151 217.5 Q129 201 115.5 179 Q102 157 102 131 Z " />
<glyph glyph-name="b" unicode="b" horiz-adv-x="644" d="M175 699 L270 699 L214 430 Q253 476 304 502.5 Q355 529 413 529 Q454 529 489.5 513 Q525 497 551 469 Q577 441 592.5 403.5 Q608 366 608 323 Q608 256 584 195 Q560 134 519 88 Q478 42 422.5 15 Q367 -12 305 -12 Q252 -12 210 19 Q168 50 146 101 L125 0 L30 0 L175 699 Z M172 202 Q172 175 182.5 151 Q193 127 211.5 109.5 Q230 92 254.5 81.5 Q279 71 307 71 Q349 71 386 90.5 Q423 110 451 143.5 Q479 177 495.5 221 Q512 265 512 314 Q512 341 502.5 365.5 Q493 390 476.5 408 Q460 426 438 436.5 Q416 447 390 447 Q354 447 320.5 433.5 Q287 420 259.5 396.5 Q232 373 212 341 Q192 309 181 271 L175 239 Q172 221 172 202 Z " />
<glyph glyph-name="c" unicode="c" horiz-adv-x="523" d="M254 -12 Q208 -12 168 5.5 Q128 23 98 53.5 Q68 84 50.5 124.5 Q33 165 33 210 Q33 275 59.5 333 Q86 391 131.5 434.5 Q177 478 236.5 503.5 Q296 529 362 529 Q413 529 460 506 Q507 483 536 447 L464 393 Q447 417 414.5 432 Q382 447 349 447 Q304 447 264 428 Q224 409 194 377.5 Q164 346 146.5 304 Q129 262 129 215 Q129 185 140 159 Q151 133 169.5 113.5 Q188 94 213.5 82.5 Q239 71 267 71 Q343 71 408 133 L464 68 Q372 -12 254 -12 Z " />
<glyph glyph-name="d" unicode="d" horiz-adv-x="645" d="M432 88 Q394 42 342.5 15 Q291 -12 233 -12 Q193 -12 157 4.5 Q121 21 95 49 Q69 77 53.5 114.5 Q38 152 38 195 Q38 263 62 323.5 Q86 384 127.5 429.5 Q169 475 224 502 Q279 529 341 529 Q395 529 437 497.5 Q479 466 500 415 L559 699 L654 699 L509 0 L414 0 L432 88 Z M134 203 Q134 176 143.5 152 Q153 128 169.5 110 Q186 92 208.5 81.5 Q231 71 256 71 Q293 71 327 85 Q361 99 389 123.5 Q417 148 437 181 Q457 214 466 252 L470 272 Q474 291 474 315 Q474 342 463 366 Q452 390 433.5 408 Q415 426 390.5 436.5 Q366 447 338 447 Q296 447 259 427.5 Q222 408 194.5 374.5 Q167 341 150.5 297 Q134 253 134 203 Z " />
<glyph glyph-name="e" unicode="e" horiz-adv-x="555" d="M249 -12 Q201 -12 161.5 4 Q122 20 93.5 48.5 Q65 77 49.5 117 Q34 157 34 205 Q34 270 60.5 328.5 Q87 387 131 431.5 Q175 476 232.5 502.5 Q290 529 352 529 Q390 529 424 519 Q458 509 483.5 490.5 Q509 472 524.5 445.5 Q540 419 540 386 Q540 314 475 270 Q410 226 293 227 L124 227 Q123 223 123 219 Q123 215 123 211 Q123 145 159 106.5 Q195 68 259 68 Q305 68 351.5 86 Q398 104 427 129 L475 66 Q454 48 426 33.5 Q398 19 367.5 9 Q337 -1 306 -6.5 Q275 -12 249 -12 Z M308 300 Q377 300 414.5 320.5 Q452 341 452 378 Q452 411 422 430 Q392 449 346 449 Q310 449 277.5 437.5 Q245 426 219 405.5 Q193 385 173 358 Q153 331 141 300 L308 300 Z " />
<glyph glyph-name="f" unicode="f" horiz-adv-x="329" d="M170 585 Q183 646 226 683 Q269 720 326 720 Q356 720 381.5 709 Q407 698 426 681 L381 622 Q374 630 362 634.5 Q350 639 339 639 Q310 639 288.5 619 Q267 599 261 572 L250 517 L373 517 L356 436 L233 436 L142 0 L49 0 L139 436 L61 436 L78 517 L156 517 L170 585 Z " />
<glyph glyph-name="g" unicode="g" horiz-adv-x="576" d="M199 -174 Q149 -174 109 -162.5 Q69 -151 43 -130.5 Q17 -110 6 -81 Q-5 -52 3 -17 Q7 4 21.5 24.5 Q36 45 58.5 61.5 Q81 78 110 91 Q139 104 172 110 L193 81 Q155 71 126.5 46.5 Q98 22 91 -12 Q83 -53 119.5 -79 Q156 -105 222 -105 Q252 -105 279.5 -97.5 Q307 -90 329.5 -77 Q352 -64 367 -47 Q382 -30 386 -12 Q395 34 288 49 Q259 54 243.5 56 Q228 58 215 60 Q202 62 186 64.5 Q170 67 140 72 Q91 80 67.5 107 Q44 134 52 175 Q57 198 78 222.5 Q99 247 127 262 L167 225 Q157 218 150 210 Q143 202 141 194 Q135 157 207 147 Q233 143 268.5 137.5 Q304 132 353 124 Q422 113 455 79 Q488 45 477 -9 Q469 -47 445 -77 Q421 -107 384.5 -129 Q348 -151 301 -162.5 Q254 -174 199 -174 Z M269 189 Q224 189 188.5 201.5 Q153 214 130.5 236.5 Q108 259 99 290.5 Q90 322 98 359 Q106 397 127.5 428 Q149 459 181.5 481.5 Q214 504 254.5 516.5 Q295 529 340 529 Q386 529 421 516.5 Q456 504 478.5 481.5 Q501 459 510 428 Q519 397 511 359 Q504 322 482 290.5 Q460 259 428 236.5 Q396 214 355.5 201.5 Q315 189 269 189 Z M285 255 Q337 256 375 285.5 Q413 315 422 361 Q431 407 404 436 Q377 465 325 463 Q273 462 234 432.5 Q195 403 187 357 Q179 311 206 282 Q233 253 285 255 Z M457 439 L405 520 Q423 516 440 515 Q457 514 473 514 Q483 514 498.5 514.5 Q514 515 530.5 515.5 Q547 516 563 516.5 Q579 517 589 517 L573 436 L457 439 Z " />
<glyph glyph-name="h" unicode="h" horiz-adv-x="606" d="M175 699 L270 699 L217 446 Q248 483 295 506 Q342 529 393 529 Q468 529 511.5 485.5 Q555 442 555 373 Q555 359 552.5 342.5 Q550 326 542.5 288.5 Q535 251 520.5 183.5 Q506 116 482 0 L389 0 Q413 114 427 179.5 Q441 245 448 280.5 Q455 316 457 329.5 Q459 343 459 354 Q459 397 435 422 Q411 447 369 447 Q339 447 310 437 Q281 427 257 410.5 Q233 394 216 372 Q199 350 193 326 L125 0 L30 0 L175 699 Z " />
<glyph glyph-name="i" unicode="i" horiz-adv-x="261" d="M137 517 L232 517 L124 0 L29 0 L137 517 Z M158 657 Q158 682 176.5 701 Q195 720 221 720 Q244 720 258.5 705 Q273 690 273 668 Q273 643 253.5 624 Q234 605 210 605 Q187 605 172.5 620 Q158 635 158 657 Z " />
<glyph glyph-name="j" unicode="j" horiz-adv-x="249" d="M-48 -178 Q-73 -178 -96.5 -172.5 Q-120 -167 -135 -159 L-113 -87 Q-102 -92 -86 -94 Q-70 -96 -57 -96 Q-31 -96 -9.5 -76.5 Q12 -57 18 -30 L131 517 L226 517 L110 -41 Q97 -103 53.5 -140.5 Q10 -178 -48 -178 Z M152 657 Q152 682 170.5 701 Q189 720 215 720 Q238 720 252.5 705 Q267 690 267 668 Q267 643 247.5 624 Q228 605 204 605 Q181 605 166.5 620 Q152 635 152 657 Z " />
<glyph glyph-name="k" unicode="k" horiz-adv-x="558" d="M173 699 L268 699 L176 252 L485 517 L603 517 L329 282 L483 0 L372 0 L253 219 L151 135 L123 0 L28 0 L173 699 Z " />
<glyph glyph-name="l" unicode="l" horiz-adv-x="266" d="M163 -12 Q104 -12 74 27.5 Q44 67 57 129 L175 699 L270 699 L153 133 Q147 105 158.5 87.5 Q170 70 193 70 L163 -12 Z " />
<glyph glyph-name="m" unicode="m" horiz-adv-x="916" d="M137 517 L232 517 L218 450 Q245 488 286.5 508.5 Q328 529 376 529 Q438 529 478.5 495 Q519 461 528 404 Q550 463 599 496 Q648 529 710 529 Q780 529 822 486 Q864 443 864 374 Q864 362 862 347.5 Q860 333 852.5 295.5 Q845 258 830.5 189 Q816 120 791 0 L698 0 Q722 118 736.5 185 Q751 252 758 287.5 Q765 323 766.5 334.5 Q768 346 768 353 Q768 397 747.5 422 Q727 447 683 447 Q656 447 630 437.5 Q604 428 582 411.5 Q560 395 545 371.5 Q530 348 524 321 L524 323 Q521 307 516 281.5 Q511 256 503 218 Q495 180 483.5 126.5 Q472 73 457 0 L364 0 Q388 118 402.5 185 Q417 252 424 287.5 Q431 323 432.5 334.5 Q434 346 434 353 Q434 397 413.5 422 Q393 447 349 447 Q324 447 300 439 Q276 431 255 416.5 Q234 402 218.5 382 Q203 362 195 338 L124 0 L29 0 L137 517 Z " />
<glyph glyph-name="n" unicode="n" horiz-adv-x="607" d="M137 517 L232 517 L217 445 Q248 483 295 506 Q342 529 393 529 Q468 529 511.5 485.5 Q555 442 555 373 Q555 359 552.5 342.5 Q550 326 542.5 288.5 Q535 251 520.5 183.5 Q506 116 482 0 L389 0 Q413 114 427 179.5 Q441 245 448 280.5 Q455 316 457 329.5 Q459 343 459 354 Q459 397 435 422 Q411 447 369 447 Q338 447 308 436.5 Q278 426 253.5 408 Q229 390 212.5 367 Q196 344 191 319 L191 320 L124 0 L29 0 L137 517 Z " />
<glyph glyph-name="o" unicode="o" horiz-adv-x="626" d="M257 -12 Q212 -12 172 5.5 Q132 23 102 53 Q72 83 54.5 123.5 Q37 164 37 210 Q37 275 63 333 Q89 391 134 434.5 Q179 478 238.5 503.5 Q298 529 365 529 Q411 529 452 511.5 Q493 494 523.5 464 Q554 434 571.5 393.5 Q589 353 589 307 Q589 242 562.5 184 Q536 126 491 82.5 Q446 39 385.5 13.5 Q325 -12 257 -12 Z M132 215 Q132 185 143 159 Q154 133 173 113.5 Q192 94 217 82.5 Q242 71 270 71 Q316 71 356.5 89.5 Q397 108 427.5 139.5 Q458 171 476 212.5 Q494 254 494 301 Q494 331 483 357.5 Q472 384 452.5 404 Q433 424 407 435.5 Q381 447 352 447 Q307 447 267 428.5 Q227 410 197 378.5 Q167 347 149.5 304.5 Q132 262 132 215 Z " />
<glyph glyph-name="p" unicode="p" horiz-adv-x="645" d="M137 517 L231 517 L213 428 Q251 475 302.5 502 Q354 529 413 529 Q454 529 489.5 513 Q525 497 551 469 Q577 441 592.5 403.5 Q608 366 608 323 Q608 256 584 195 Q560 134 519 88 Q478 42 422.5 15 Q367 -12 305 -12 Q251 -12 208.5 20 Q166 52 145 103 L88 -172 L-6 -172 L137 517 Z M172 202 Q172 175 182.5 151 Q193 127 211.5 109.5 Q230 92 254.5 81.5 Q279 71 307 71 Q349 71 386 90.5 Q423 110 451 143.5 Q479 177 495.5 221 Q512 265 512 314 Q512 341 502.5 365.5 Q493 390 476.5 408 Q460 426 438 436.5 Q416 447 390 447 Q345 447 305.5 427.5 Q266 408 236.5 374 Q207 340 189.5 296 Q172 252 172 202 Z " />
<glyph glyph-name="q" unicode="q" horiz-adv-x="644" d="M432 88 Q394 42 342.5 15 Q291 -12 233 -12 Q193 -12 157 4.5 Q121 21 95 49 Q69 77 53.5 114.5 Q38 152 38 195 Q38 263 62 323.5 Q86 384 127.5 429.5 Q169 475 224 502 Q279 529 341 529 Q395 529 437 497.5 Q479 466 500 415 L521 517 L615 517 L472 -172 L378 -172 L432 88 Z M134 203 Q134 176 143.5 152 Q153 128 169.5 110 Q186 92 208.5 81.5 Q231 71 256 71 Q293 71 326.5 84.5 Q360 98 387.5 121.5 Q415 145 435 177.5 Q455 210 465 247 L471 277 Q474 297 474 315 Q474 342 463 366 Q452 390 433.5 408 Q415 426 390.5 436.5 Q366 447 338 447 Q296 447 259 427.5 Q222 408 194.5 374.5 Q167 341 150.5 297 Q134 253 134 203 Z " />
<glyph glyph-name="r" unicode="r" horiz-adv-x="385" d="M137 517 L232 517 L212 421 Q246 472 301.5 500.5 Q357 529 425 529 L414 447 Q372 447 334.5 434.5 Q297 422 266.5 400.5 Q236 379 214 349 Q192 319 183 283 L124 0 L29 0 L137 517 Z " />
<glyph glyph-name="s" unicode="s" horiz-adv-x="482" d="M199 -12 Q140 -12 85.5 9 Q31 30 -9 68 L45 128 Q79 99 121.5 82.5 Q164 66 203 66 Q229 66 252.5 73.5 Q276 81 293 93 Q310 105 320 121.5 Q330 138 330 156 Q330 176 308 192 Q286 208 231 225 Q152 247 114 274.5 Q76 302 76 350 Q76 390 92 423 Q108 456 137 479.5 Q166 503 205.5 516 Q245 529 291 529 Q339 529 387 512.5 Q435 496 473 467 L423 404 Q394 426 357.5 438.5 Q321 451 288 451 Q236 451 202 427 Q168 403 168 367 Q168 350 191.5 335 Q215 320 272 300 Q348 277 385 248.5 Q422 220 422 170 Q422 132 404.5 99 Q387 66 356.5 41 Q326 16 285.5 2 Q245 -12 199 -12 Z " />
<glyph glyph-name="t" unicode="t" horiz-adv-x="357" d="M181 -12 Q129 -12 98.5 19 Q68 50 68 99 Q68 108 70 120.5 Q72 133 78.5 166 Q85 199 98.5 262 Q112 325 135 436 L56 436 L73 517 L152 517 L182 659 L275 659 L245 517 L368 517 L351 436 L229 436 Q216 374 204 317 Q192 260 183 215.5 Q174 171 168.5 143.5 Q163 116 163 113 Q163 93 172.5 82 Q182 71 199 71 Q219 71 235.5 78 Q252 85 260 93 L288 22 Q263 5 235.5 -3.5 Q208 -12 181 -12 Z " />
<glyph glyph-name="u" unicode="u" horiz-adv-x="607" d="M470 0 L375 0 L390 72 Q359 34 312 11 Q265 -12 214 -12 Q139 -12 95.5 31.5 Q52 75 53 144 Q53 158 55.5 174.5 Q58 191 65.5 228.5 Q73 266 87.5 333.5 Q102 401 126 517 L219 517 Q195 403 180.5 337.5 Q166 272 159 236.5 Q152 201 150 187.5 Q148 174 148 163 Q148 120 172 95 Q196 70 238 70 Q268 70 296 79.5 Q324 89 348 105 Q372 121 389.5 142 Q407 163 414 187 L483 517 L578 517 L470 0 Z " />
<glyph glyph-name="v" unicode="v" horiz-adv-x="550" d="M65 517 L165 517 L243 110 L488 517 L593 517 L268 0 L178 0 L65 517 Z " />
<glyph glyph-name="w" unicode="w" horiz-adv-x="808" d="M70 517 L165 517 L204 127 L416 517 L496 517 L545 127 L747 517 L846 517 L564 0 L476 0 L433 389 L223 0 L136 0 L70 517 Z " />
<glyph glyph-name="x" unicode="x" horiz-adv-x="525" d="M251 192 L67 0 L-43 0 L211 266 L76 517 L181 517 L278 336 L451 517 L560 517 L317 263 L458 0 L354 0 L251 192 Z " />
<glyph glyph-name="y" unicode="y" horiz-adv-x="550" d="M58 -180 Q31 -180 7 -174 Q-17 -168 -36 -157 L-5 -86 Q8 -94 23 -97.5 Q38 -101 52 -101 Q103 -101 136 -56 L176 -3 L63 517 L163 517 L245 106 L491 517 L593 517 L245 -53 Q203 -122 157 -151 Q111 -180 58 -180 Z " />
<glyph glyph-name="z" unicode="z" horiz-adv-x="491" d="M-5 71 L362 431 L77 431 L95 517 L507 517 L494 446 L125 86 L419 86 L401 0 L-18 0 L-5 71 Z " />
<glyph glyph-name="braceleft" unicode="&#x7b;" horiz-adv-x="371" d="M247 -166 Q148 -156 106.5 -125.5 Q65 -95 65 -38 Q65 -19 71 11.5 Q77 42 84 73.5 Q91 105 97 134 Q103 163 103 179 Q103 209 84.5 221.5 Q66 234 23 234 L30 298 Q84 298 112 322 Q140 346 151 394 L178 529 Q187 569 203 598 Q219 627 247 647 Q275 667 317 679 Q359 691 419 697 L421 634 Q376 628 346.5 619 Q317 610 298.5 596.5 Q280 583 270 563.5 Q260 544 254 515 L226 376 Q216 329 193 303.5 Q170 278 127 264 Q153 253 167.5 233.5 Q182 214 182 182 Q182 165 176 136 Q170 107 163 76 Q156 45 150 16 Q144 -13 144 -31 Q144 -65 169.5 -79 Q195 -93 261 -103 L247 -166 Z " />
<glyph glyph-name="bar" unicode="&#x7c;" horiz-adv-x="321" d="M226 743 L297 743 L127 -74 L56 -74 L226 743 Z " />
<glyph glyph-name="braceright" unicode="&#x7d;" horiz-adv-x="372" d="M-47 -103 Q-3 -97 26.5 -88 Q56 -79 75 -65.5 Q94 -52 104.5 -32 Q115 -12 121 17 L149 155 Q159 202 181.5 228 Q204 254 248 269 Q222 278 207 298 Q192 318 192 350 Q192 366 198.5 396.5 Q205 427 212.5 460 Q220 493 226 521.5 Q232 550 232 563 Q232 595 206.5 609.5 Q181 624 114 634 L128 697 Q226 687 268 656 Q310 625 310 568 Q310 549 304 519 Q298 489 291 457.5 Q284 426 278 397.5 Q272 369 272 352 Q272 323 290.5 310.5 Q309 298 352 298 L345 234 Q292 234 263.5 210.5 Q235 187 224 138 L196 3 Q188 -37 172 -66 Q156 -95 128.5 -115.5 Q101 -136 58.5 -148 Q16 -160 -45 -166 L-47 -103 Z " />
<glyph glyph-name="asciitilde" unicode="&#x7e;" horiz-adv-x="538" d="M350 298 Q327 298 311 307.5 Q295 317 282 329 Q269 341 258 350.5 Q247 360 233 360 Q190 360 166 293 L114 308 Q153 427 232 427 Q255 427 271.5 417.5 Q288 408 301 396 Q314 384 325.5 374.5 Q337 365 350 365 Q391 365 417 433 L469 417 Q449 357 420.5 327.5 Q392 298 350 298 Z " />
<glyph glyph-name="exclamdown" unicode="&#xa1;" horiz-adv-x="322" d="M129 -170 L16 -170 L139 310 L205 310 L129 -170 Z M137 457 Q137 486 158.5 507.5 Q180 529 207 529 Q233 529 249 512.5 Q265 496 265 471 Q265 439 243 419.5 Q221 400 193 400 Q168 400 152.5 417 Q137 434 137 457 Z " />
<glyph glyph-name="cent" unicode="&#xa2;" horiz-adv-x="610" d="M269 -7 Q231 1 198.5 20.5 Q166 40 142.5 69 Q119 98 105.5 134 Q92 170 92 210 Q92 270 115 324 Q138 378 177 420.5 Q216 463 268.5 491 Q321 519 380 526 L393 589 L461 589 L448 527 Q492 522 530.5 500.5 Q569 479 595 447 L523 393 Q509 413 484 426.5 Q459 440 431 445 L354 73 Q415 84 467 133 L523 68 Q440 -5 336 -11 L323 -74 L255 -74 L269 -7 Z M188 215 Q188 166 216 128.5 Q244 91 286 77 L362 442 Q325 433 293.5 411.5 Q262 390 238.5 360 Q215 330 201.5 293 Q188 256 188 215 Z " />
<glyph glyph-name="sterling" unicode="&#xa3;" horiz-adv-x="679" d="M36 44 L115 86 L151 259 L88 259 L103 330 L166 330 L195 467 Q206 519 230.5 561.5 Q255 604 290 634.5 Q325 665 368 682 Q411 699 459 699 Q495 699 527.5 690 Q560 681 586 665.5 Q612 650 630.5 628.5 Q649 607 657 582 L578 522 Q573 563 540 587 Q507 611 459 611 Q429 611 401.5 599.5 Q374 588 351.5 567 Q329 546 313 517.5 Q297 489 290 456 L264 330 L455 330 L441 259 L250 259 L214 86 L579 86 L561 0 L28 0 L36 44 Z " />
<glyph glyph-name="yen" unicode="&#xa5;" horiz-adv-x="852" d="M262 181 L430 181 L447 257 L278 257 L293 327 L425 327 L261 687 L357 687 L509 355 L794 687 L910 687 L598 327 L789 327 L774 257 L547 257 L531 181 L758 181 L743 111 L516 111 L492 0 L391 0 L415 111 L247 111 L262 181 Z " />
<glyph glyph-name="dieresis" unicode="&#xa8;" horiz-adv-x="442" d="M199 593 Q176 593 163 607.5 Q150 622 150 642 Q150 665 167 682 Q184 699 207 699 Q229 699 242.5 684.5 Q256 670 256 650 Q256 627 238 610 Q220 593 199 593 Z M348 642 Q348 665 365 682 Q382 699 405 699 Q427 699 440 684.5 Q453 670 453 650 Q453 627 435.5 610 Q418 593 396 593 Q374 593 361 607.5 Q348 622 348 642 Z " />
<glyph glyph-name="copyright" unicode="&#xa9;" horiz-adv-x="939" d="M392 -116 Q307 -116 241 -86 Q175 -56 132.5 -3 Q90 50 75 122.5 Q60 195 77 280 Q95 365 140 437 Q185 509 249 562 Q313 615 392 645 Q471 675 556 675 Q641 675 707 645 Q773 615 815 562 Q857 509 872.5 437 Q888 365 870 280 Q853 195 808 122.5 Q763 50 699 -3 Q635 -56 556 -86 Q477 -116 392 -116 Z M115 280 Q99 203 113 137.5 Q127 72 165 24 Q203 -24 263 -51.5 Q323 -79 400 -79 Q477 -79 548.5 -51.5 Q620 -24 678 24 Q736 72 776.5 137.5 Q817 203 833 280 Q849 357 835 422.5 Q821 488 783 536 Q745 584 685.5 611 Q626 638 549 638 Q472 638 400 611 Q328 584 270 536 Q212 488 171 422.5 Q130 357 115 280 Z M205 231 Q205 296 231.5 354 Q258 412 303 455.5 Q348 499 408 524.5 Q468 550 534 550 Q584 550 631 527 Q678 504 708 468 L635 414 Q618 438 586 453 Q554 468 520 468 Q475 468 435 449 Q395 430 365 398.5 Q335 367 317.5 325 Q300 283 300 236 Q300 206 311 180 Q322 154 341 134.5 Q360 115 385 103.5 Q410 92 438 92 Q514 92 579 154 L635 89 Q543 9 425 9 Q380 9 340 26.5 Q300 44 270 74.5 Q240 105 222.5 145.5 Q205 186 205 231 Z " />
<glyph glyph-name="guillemotleft" unicode="&#xab;" horiz-adv-x="516" d="M15 252 L216 450 L301 432 L117 253 L224 71 L136 51 L15 252 Z M424 450 L509 432 L325 253 L432 71 L344 51 L223 252 L424 450 Z " />
<glyph glyph-name="registered" unicode="&#xae;" horiz-adv-x="654" d="M312 184 Q267 184 230 199 Q193 214 166.5 240.5 Q140 267 125.5 303 Q111 339 111 381 Q111 438 136.5 491.5 Q162 545 204.5 585.5 Q247 626 301.5 650.5 Q356 675 414 675 Q458 675 495 660 Q532 645 558.5 619 Q585 593 599.5 557 Q614 521 614 479 Q614 422 588.5 369 Q563 316 520.5 274.5 Q478 233 423.5 208.5 Q369 184 312 184 Z M149 387 Q149 352 161.5 321.5 Q174 291 196.5 268.5 Q219 246 250.5 233.5 Q282 221 320 221 Q370 221 416.5 242.5 Q463 264 498.5 299 Q534 334 555.5 379.5 Q577 425 577 473 Q577 508 564.5 538 Q552 568 529.5 590.5 Q507 613 476 625.5 Q445 638 407 638 Q358 638 311.5 617.5 Q265 597 229 562 Q193 527 171 482 Q149 437 149 387 Z M266 579 L410 579 Q455 579 480.5 557 Q506 535 506 499 Q506 456 481 424.5 Q456 393 418 379 L468 279 L378 279 L333 370 L304 370 L285 279 L204 279 L266 579 Z M376 446 Q396 446 409 456 Q422 466 422 481 Q422 491 412.5 497 Q403 503 388 503 L332 503 L320 446 L376 446 Z " />
<glyph glyph-name="macron" unicode="&#xaf;" horiz-adv-x="485" d="M164 654 L484 654 L471 591 L152 591 L164 654 Z " />
<glyph glyph-name="acute" unicode="&#xb4;" horiz-adv-x="277" d="M245 723 L337 703 L167 576 L95 576 L245 723 Z " />
<glyph glyph-name="paragraph" unicode="&#xb6;" horiz-adv-x="685" d="M304 293 Q210 293 158 337.5 Q106 382 106 454 Q106 505 127 548 Q148 591 183.5 622 Q219 653 266.5 670 Q314 687 367 687 L649 687 L496 -50 L422 -50 L560 617 L442 617 L304 -50 L229 -50 L304 293 Z " />
<glyph glyph-name="periodcentered" unicode="&#xb7;" horiz-adv-x="323" d="M159 214 Q135 214 120.5 229 Q106 244 106 267 Q106 295 125.5 314.5 Q145 334 171 334 Q194 334 209 319 Q224 304 224 281 Q224 252 204.5 233 Q185 214 159 214 Z " />
<glyph glyph-name="cedilla" unicode="&#xb8;" horiz-adv-x="289" d="M46 -193 Q17 -193 -6 -184 Q-29 -175 -43 -163 L-17 -121 Q-5 -133 9.5 -137.5 Q24 -142 38 -142 Q68 -142 85 -131 Q102 -120 102 -101 Q102 -89 94.5 -81.5 Q87 -74 76 -74 Q56 -74 38 -87 L21 -66 L68 11 L129 11 L93 -45 L94 -45 Q123 -45 140 -60.5 Q157 -76 157 -102 Q157 -123 148 -140 Q139 -157 123.5 -168.5 Q108 -180 88 -186.5 Q68 -193 46 -193 Z " />
<glyph glyph-name="guillemotright" unicode="&#xbb;" horiz-adv-x="527" d="M5 71 L190 253 L82 432 L163 450 L286 252 L83 51 L5 71 Z M396 253 L288 432 L369 450 L492 252 L289 51 L211 71 L396 253 Z " />
<glyph glyph-name="questiondown" unicode="&#xbf;" horiz-adv-x="531" d="M314 131 Q275 128 235.5 117 Q196 106 165 87.5 Q134 69 114.5 44 Q95 19 95 -11 Q95 -46 120 -70 Q145 -94 194 -94 Q248 -94 292.5 -68.5 Q337 -43 375 -6 L427 -72 Q376 -121 314.5 -151.5 Q253 -182 180 -182 Q137 -182 102.5 -170.5 Q68 -159 44 -138 Q20 -117 7.5 -88.5 Q-5 -60 -5 -26 Q-5 18 15 55 Q35 92 67.5 121.5 Q100 151 142 171.5 Q184 192 229 201 L252 312 L351 312 L314 131 Z M262 457 Q262 486 283.5 507.5 Q305 529 332 529 Q358 529 374 512.5 Q390 496 390 471 Q390 439 368 419.5 Q346 400 318 400 Q293 400 277.5 417 Q262 434 262 457 Z " />
<glyph glyph-name="Agrave" unicode="&#xc0;" horiz-adv-x="801" d="M673 0 L568 0 L535 145 L174 145 L81 0 L-29 0 L411 687 L520 687 L673 0 Z M516 231 L442 564 L229 231 L516 231 Z M402 893 L491 746 L424 746 L307 873 L402 893 Z " />
<glyph glyph-name="Aacute" unicode="&#xc1;" horiz-adv-x="752" d="M673 0 L568 0 L535 145 L174 145 L81 0 L-29 0 L411 687 L520 687 L673 0 Z M516 231 L442 564 L229 231 L516 231 Z M591 893 L683 873 L513 746 L441 746 L591 893 Z " />
<glyph glyph-name="Acircumflex" unicode="&#xc2;" horiz-adv-x="752" d="M673 0 L568 0 L535 145 L174 145 L81 0 L-29 0 L411 687 L520 687 L673 0 Z M516 231 L442 564 L229 231 L516 231 Z M463 886 L547 886 L621 746 L556 746 L496 829 L401 746 L332 746 L463 886 Z " />
<glyph glyph-name="Atilde" unicode="&#xc3;" horiz-adv-x="801" d="M673 0 L568 0 L535 145 L174 145 L81 0 L-29 0 L411 687 L520 687 L673 0 Z M516 231 L442 564 L229 231 L516 231 Z M338 754 Q377 873 456 873 Q479 873 495.5 863.5 Q512 854 525 842 Q538 830 549.5 820.5 Q561 811 574 811 Q615 811 641 879 L693 863 Q673 803 644.5 773.5 Q616 744 574 744 Q551 744 535 753.5 Q519 763 506 775 Q493 787 482 796.5 Q471 806 457 806 Q414 806 390 739 L338 754 Z " />
<glyph glyph-name="Adieresis" unicode="&#xc4;" horiz-adv-x="752" d="M673 0 L568 0 L535 145 L174 145 L81 0 L-29 0 L411 687 L520 687 L673 0 Z M516 231 L442 564 L229 231 L516 231 Z M340 812 Q340 835 357 852 Q374 869 397 869 Q419 869 432.5 854.5 Q446 840 446 820 Q446 797 428 780 Q410 763 389 763 Q366 763 353 777.5 Q340 792 340 812 Z M538 812 Q538 835 555 852 Q572 869 595 869 Q617 869 630 854.5 Q643 840 643 820 Q643 797 625.5 780 Q608 763 586 763 Q564 763 551 777.5 Q538 792 538 812 Z " />
<glyph glyph-name="Aring" unicode="&#xc5;" horiz-adv-x="752" d="M673 0 L568 0 L535 145 L174 145 L81 0 L-29 0 L411 687 L520 687 L673 0 Z M516 231 L442 564 L229 231 L516 231 Z M393 842 Q393 868 404 891 Q415 914 433.5 931 Q452 948 475.5 958.5 Q499 969 523 969 Q562 969 585.5 945 Q609 921 609 885 Q609 859 598 836 Q587 813 569 795.5 Q551 778 527.5 767.5 Q504 757 479 757 Q441 757 417 781.5 Q393 806 393 842 Z M442 852 Q442 832 455.5 818.5 Q469 805 489 805 Q515 805 537 826 Q559 847 559 874 Q559 894 546 907 Q533 920 513 920 Q487 920 464.5 899.5 Q442 879 442 852 Z " />
<glyph glyph-name="AE" unicode="&#xc6;" horiz-adv-x="1016" d="M529 687 L1041 687 L1023 597 L617 597 L577 395 L942 395 L923 305 L557 305 L514 91 L918 91 L898 0 L395 0 L425 145 L223 145 L110 0 L-6 0 L529 687 Z M444 231 L499 496 L291 231 L444 231 Z " />
<glyph glyph-name="Ccedilla" unicode="&#xc7;" horiz-adv-x="720" d="M317 -193 Q288 -193 265 -184 Q242 -175 228 -163 L254 -121 Q266 -133 280.5 -137.5 Q295 -142 309 -142 Q339 -142 356 -131 Q373 -120 373 -101 Q373 -89 365.5 -81.5 Q358 -74 347 -74 Q327 -74 309 -87 L292 -66 L326 -11 Q271 -5 223 20 Q175 45 139 84.5 Q103 124 82.5 175 Q62 226 62 283 Q62 367 97 442.5 Q132 518 191.5 575 Q251 632 330 665.5 Q409 699 497 699 Q529 699 562 691 Q595 683 625 668 Q655 653 681 633 Q707 613 726 589 L649 528 Q623 564 577 587 Q531 610 483 610 Q417 610 358.5 583.5 Q300 557 256 512.5 Q212 468 186 409 Q160 350 160 284 Q160 241 177 203.5 Q194 166 222.5 138 Q251 110 288.5 93.5 Q326 77 368 77 Q391 77 417 83.5 Q443 90 469.5 101.5 Q496 113 521.5 129 Q547 145 568 164 L626 93 Q577 52 512 24.5 Q447 -3 387 -10 L364 -45 L365 -45 Q394 -45 411 -60.5 Q428 -76 428 -102 Q428 -123 419 -140 Q410 -157 394.5 -168.5 Q379 -180 359 -186.5 Q339 -193 317 -193 Z " />
<glyph glyph-name="Egrave" unicode="&#xc8;" horiz-adv-x="664" d="M193 687 L696 687 L677 597 L272 597 L232 395 L596 395 L578 305 L211 305 L168 91 L572 91 L553 0 L50 0 L193 687 Z M408 893 L497 746 L430 746 L313 873 L408 893 Z " />
<glyph glyph-name="Eacute" unicode="&#xc9;" horiz-adv-x="664" d="M193 687 L696 687 L677 597 L272 597 L232 395 L596 395 L578 305 L211 305 L168 91 L572 91 L553 0 L50 0 L193 687 Z M575 893 L667 873 L497 746 L425 746 L575 893 Z " />
<glyph glyph-name="Ecircumflex" unicode="&#xca;" horiz-adv-x="664" d="M193 687 L696 687 L677 597 L272 597 L232 395 L596 395 L578 305 L211 305 L168 91 L572 91 L553 0 L50 0 L193 687 Z M446 886 L530 886 L604 746 L539 746 L479 829 L384 746 L315 746 L446 886 Z " />
<glyph glyph-name="Edieresis" unicode="&#xcb;" horiz-adv-x="664" d="M193 687 L696 687 L677 597 L272 597 L232 395 L596 395 L578 305 L211 305 L168 91 L572 91 L553 0 L50 0 L193 687 Z M323 812 Q323 835 340 852 Q357 869 380 869 Q402 869 415.5 854.5 Q429 840 429 820 Q429 797 411 780 Q393 763 372 763 Q349 763 336 777.5 Q323 792 323 812 Z M521 812 Q521 835 538 852 Q555 869 578 869 Q600 869 613 854.5 Q626 840 626 820 Q626 797 608.5 780 Q591 763 569 763 Q547 763 534 777.5 Q521 792 521 812 Z " />
<glyph glyph-name="Igrave" unicode="&#xcc;" horiz-adv-x="425" d="M40 94 L130 94 L233 593 L145 593 L164 687 L439 687 L420 593 L330 593 L227 94 L315 94 L296 0 L21 0 L40 94 Z M263 893 L352 746 L285 746 L168 873 L263 893 Z " />
<glyph glyph-name="Iacute" unicode="&#xcd;" horiz-adv-x="390" d="M40 94 L130 94 L233 593 L145 593 L164 687 L439 687 L420 593 L330 593 L227 94 L315 94 L296 0 L21 0 L40 94 Z M413 893 L505 873 L335 746 L263 746 L413 893 Z " />
<glyph glyph-name="Icircumflex" unicode="&#xce;" horiz-adv-x="425" d="M40 94 L130 94 L233 593 L145 593 L164 687 L439 687 L420 593 L330 593 L227 94 L315 94 L296 0 L21 0 L40 94 Z M301 886 L385 886 L459 746 L394 746 L334 829 L239 746 L170 746 L301 886 Z " />
<glyph glyph-name="Idieresis" unicode="&#xcf;" horiz-adv-x="425" d="M40 94 L130 94 L233 593 L145 593 L164 687 L439 687 L420 593 L330 593 L227 94 L315 94 L296 0 L21 0 L40 94 Z M178 812 Q178 835 195 852 Q212 869 235 869 Q257 869 270.5 854.5 Q284 840 284 820 Q284 797 266 780 Q248 763 227 763 Q204 763 191 777.5 Q178 792 178 812 Z M376 812 Q376 835 393 852 Q410 869 433 869 Q455 869 468 854.5 Q481 840 481 820 Q481 797 463.5 780 Q446 763 424 763 Q402 763 389 777.5 Q376 792 376 812 Z " />
<glyph glyph-name="Eth" unicode="&#xd0;" horiz-adv-x="811" d="M84 394 L168 394 L229 687 L462 687 Q532 687 590 666.5 Q648 646 690 609.5 Q732 573 755.5 522.5 Q779 472 779 412 Q779 328 743 253 Q707 178 645 122 Q583 66 500.5 33 Q418 0 326 0 L86 0 L149 304 L66 304 L84 394 Z M342 89 Q411 89 472 114.5 Q533 140 579.5 183 Q626 226 653 284 Q680 342 680 406 Q680 448 663.5 483.5 Q647 519 617 544.5 Q587 570 546 584.5 Q505 599 455 599 L309 599 L266 394 L441 394 L422 304 L247 304 L202 89 L342 89 Z " />
<glyph glyph-name="Ntilde" unicode="&#xd1;" horiz-adv-x="802" d="M193 687 L289 687 L579 160 L690 687 L787 687 L644 0 L549 0 L259 527 L147 0 L50 0 L193 687 Z M337 754 Q376 873 455 873 Q478 873 494.5 863.5 Q511 854 524 842 Q537 830 548.5 820.5 Q560 811 573 811 Q614 811 640 879 L692 863 Q672 803 643.5 773.5 Q615 744 573 744 Q550 744 534 753.5 Q518 763 505 775 Q492 787 481 796.5 Q470 806 456 806 Q413 806 389 739 L337 754 Z " />
<glyph glyph-name="Ograve" unicode="&#xd2;" horiz-adv-x="816" d="M354 -12 Q290 -12 236.5 9.5 Q183 31 145 69.5 Q107 108 85.5 161.5 Q64 215 64 279 Q64 366 98 442.5 Q132 519 191 576 Q250 633 329 666 Q408 699 497 699 Q562 699 615.5 677.5 Q669 656 707 617.5 Q745 579 766.5 525.5 Q788 472 788 408 Q788 321 754 244.5 Q720 168 661 111 Q602 54 523 21 Q444 -12 354 -12 Z M163 285 Q163 239 178 201 Q193 163 220 135.5 Q247 108 285 92.5 Q323 77 369 77 Q435 77 493.5 103 Q552 129 595.5 173.5 Q639 218 664 278 Q689 338 689 405 Q689 450 674 487.5 Q659 525 632 552.5 Q605 580 567 595 Q529 610 484 610 Q418 610 359.5 584.5 Q301 559 257.5 514.5 Q214 470 188.5 411 Q163 352 163 285 Z M465 893 L554 746 L487 746 L370 873 L465 893 Z " />
<glyph glyph-name="Oacute" unicode="&#xd3;" horiz-adv-x="816" d="M354 -12 Q290 -12 236.5 9.5 Q183 31 145 69.5 Q107 108 85.5 161.5 Q64 215 64 279 Q64 366 98 442.5 Q132 519 191 576 Q250 633 329 666 Q408 699 497 699 Q562 699 615.5 677.5 Q669 656 707 617.5 Q745 579 766.5 525.5 Q788 472 788 408 Q788 321 754 244.5 Q720 168 661 111 Q602 54 523 21 Q444 -12 354 -12 Z M163 285 Q163 239 178 201 Q193 163 220 135.5 Q247 108 285 92.5 Q323 77 369 77 Q435 77 493.5 103 Q552 129 595.5 173.5 Q639 218 664 278 Q689 338 689 405 Q689 450 674 487.5 Q659 525 632 552.5 Q605 580 567 595 Q529 610 484 610 Q418 610 359.5 584.5 Q301 559 257.5 514.5 Q214 470 188.5 411 Q163 352 163 285 Z M632 893 L724 873 L554 746 L482 746 L632 893 Z " />
<glyph glyph-name="Ocircumflex" unicode="&#xd4;" horiz-adv-x="816" d="M354 -12 Q290 -12 236.5 9.5 Q183 31 145 69.5 Q107 108 85.5 161.5 Q64 215 64 279 Q64 366 98 442.5 Q132 519 191 576 Q250 633 329 666 Q408 699 497 699 Q562 699 615.5 677.5 Q669 656 707 617.5 Q745 579 766.5 525.5 Q788 472 788 408 Q788 321 754 244.5 Q720 168 661 111 Q602 54 523 21 Q444 -12 354 -12 Z M163 285 Q163 239 178 201 Q193 163 220 135.5 Q247 108 285 92.5 Q323 77 369 77 Q435 77 493.5 103 Q552 129 595.5 173.5 Q639 218 664 278 Q689 338 689 405 Q689 450 674 487.5 Q659 525 632 552.5 Q605 580 567 595 Q529 610 484 610 Q418 610 359.5 584.5 Q301 559 257.5 514.5 Q214 470 188.5 411 Q163 352 163 285 Z M503 886 L587 886 L661 746 L596 746 L536 829 L441 746 L372 746 L503 886 Z " />
<glyph glyph-name="Otilde" unicode="&#xd5;" horiz-adv-x="816" d="M354 -12 Q290 -12 236.5 9.5 Q183 31 145 69.5 Q107 108 85.5 161.5 Q64 215 64 279 Q64 366 98 442.5 Q132 519 191 576 Q250 633 329 666 Q408 699 497 699 Q562 699 615.5 677.5 Q669 656 707 617.5 Q745 579 766.5 525.5 Q788 472 788 408 Q788 321 754 244.5 Q720 168 661 111 Q602 54 523 21 Q444 -12 354 -12 Z M163 285 Q163 239 178 201 Q193 163 220 135.5 Q247 108 285 92.5 Q323 77 369 77 Q435 77 493.5 103 Q552 129 595.5 173.5 Q639 218 664 278 Q689 338 689 405 Q689 450 674 487.5 Q659 525 632 552.5 Q605 580 567 595 Q529 610 484 610 Q418 610 359.5 584.5 Q301 559 257.5 514.5 Q214 470 188.5 411 Q163 352 163 285 Z M353 754 Q392 873 471 873 Q494 873 510.5 863.5 Q527 854 540 842 Q553 830 564.5 820.5 Q576 811 589 811 Q630 811 656 879 L708 863 Q688 803 659.5 773.5 Q631 744 589 744 Q566 744 550 753.5 Q534 763 521 775 Q508 787 497 796.5 Q486 806 472 806 Q429 806 405 739 L353 754 Z " />
<glyph glyph-name="Odieresis" unicode="&#xd6;" horiz-adv-x="816" d="M354 -12 Q290 -12 236.5 9.5 Q183 31 145 69.5 Q107 108 85.5 161.5 Q64 215 64 279 Q64 366 98 442.5 Q132 519 191 576 Q250 633 329 666 Q408 699 497 699 Q562 699 615.5 677.5 Q669 656 707 617.5 Q745 579 766.5 525.5 Q788 472 788 408 Q788 321 754 244.5 Q720 168 661 111 Q602 54 523 21 Q444 -12 354 -12 Z M163 285 Q163 239 178 201 Q193 163 220 135.5 Q247 108 285 92.5 Q323 77 369 77 Q435 77 493.5 103 Q552 129 595.5 173.5 Q639 218 664 278 Q689 338 689 405 Q689 450 674 487.5 Q659 525 632 552.5 Q605 580 567 595 Q529 610 484 610 Q418 610 359.5 584.5 Q301 559 257.5 514.5 Q214 470 188.5 411 Q163 352 163 285 Z M381 812 Q381 835 398 852 Q415 869 438 869 Q460 869 473.5 854.5 Q487 840 487 820 Q487 797 469 780 Q451 763 430 763 Q407 763 394 777.5 Q381 792 381 812 Z M579 812 Q579 835 596 852 Q613 869 636 869 Q658 869 671 854.5 Q684 840 684 820 Q684 797 666.5 780 Q649 763 627 763 Q605 763 592 777.5 Q579 792 579 812 Z " />
<glyph glyph-name="multiply" unicode="&#xd7;" horiz-adv-x="540" d="M63 200 L224 334 L117 467 L191 530 L298 396 L458 530 L509 468 L348 334 L454 202 L381 139 L274 272 L114 139 L63 200 Z " />
<glyph glyph-name="Oslash" unicode="&#xd8;" horiz-adv-x="846" d="M122 102 Q96 138 82.5 182.5 Q69 227 69 279 Q69 366 103 442.5 Q137 519 196 576 Q255 633 334 666 Q413 699 502 699 Q559 699 607.5 682 Q656 665 694 634 L751 687 L851 687 L740 584 Q766 548 779.5 503.5 Q793 459 793 408 Q793 321 759 244.5 Q725 168 666 111 Q607 54 528 21 Q449 -12 359 -12 Q302 -12 254 4.5 Q206 21 168 52 L112 0 L12 0 L122 102 Z M168 285 Q168 221 197 172 L621 566 Q595 587 561.5 598.5 Q528 610 489 610 Q423 610 364.5 584.5 Q306 559 262.5 514.5 Q219 470 193.5 411 Q168 352 168 285 Z M242 121 Q268 100 301.5 88.5 Q335 77 374 77 Q440 77 498.5 103 Q557 129 600.5 173.5 Q644 218 669 278 Q694 338 694 405 Q694 467 666 515 L242 121 Z " />
<glyph glyph-name="Ugrave" unicode="&#xd9;" horiz-adv-x="756" d="M324 -12 Q259 -12 209 10.5 Q159 33 128.5 73.5 Q98 114 87.5 170 Q77 226 91 292 L173 687 L270 687 L187 286 Q177 240 183.5 201.5 Q190 163 210 135 Q230 107 262.5 92 Q295 77 338 77 Q382 77 421.5 93 Q461 109 493.5 138 Q526 167 548.5 207 Q571 247 581 294 L663 687 L760 687 L677 285 Q663 219 630 164.5 Q597 110 550.5 71 Q504 32 446 10 Q388 -12 324 -12 Z M422 893 L511 746 L444 746 L327 873 L422 893 Z " />
<glyph glyph-name="Uacute" unicode="&#xda;" horiz-adv-x="756" d="M324 -12 Q259 -12 209 10.5 Q159 33 128.5 73.5 Q98 114 87.5 170 Q77 226 91 292 L173 687 L270 687 L187 286 Q177 240 183.5 201.5 Q190 163 210 135 Q230 107 262.5 92 Q295 77 338 77 Q382 77 421.5 93 Q461 109 493.5 138 Q526 167 548.5 207 Q571 247 581 294 L663 687 L760 687 L677 285 Q663 219 630 164.5 Q597 110 550.5 71 Q504 32 446 10 Q388 -12 324 -12 Z M589 893 L681 873 L511 746 L439 746 L589 893 Z " />
<glyph glyph-name="Ucircumflex" unicode="&#xdb;" horiz-adv-x="756" d="M324 -12 Q259 -12 209 10.5 Q159 33 128.5 73.5 Q98 114 87.5 170 Q77 226 91 292 L173 687 L270 687 L187 286 Q177 240 183.5 201.5 Q190 163 210 135 Q230 107 262.5 92 Q295 77 338 77 Q382 77 421.5 93 Q461 109 493.5 138 Q526 167 548.5 207 Q571 247 581 294 L663 687 L760 687 L677 285 Q663 219 630 164.5 Q597 110 550.5 71 Q504 32 446 10 Q388 -12 324 -12 Z M460 886 L544 886 L618 746 L553 746 L493 829 L398 746 L329 746 L460 886 Z " />
<glyph glyph-name="Udieresis" unicode="&#xdc;" horiz-adv-x="756" d="M324 -12 Q259 -12 209 10.5 Q159 33 128.5 73.5 Q98 114 87.5 170 Q77 226 91 292 L173 687 L270 687 L187 286 Q177 240 183.5 201.5 Q190 163 210 135 Q230 107 262.5 92 Q295 77 338 77 Q382 77 421.5 93 Q461 109 493.5 138 Q526 167 548.5 207 Q571 247 581 294 L663 687 L760 687 L677 285 Q663 219 630 164.5 Q597 110 550.5 71 Q504 32 446 10 Q388 -12 324 -12 Z M337 812 Q337 835 354 852 Q371 869 394 869 Q416 869 429.5 854.5 Q443 840 443 820 Q443 797 425 780 Q407 763 386 763 Q363 763 350 777.5 Q337 792 337 812 Z M535 812 Q535 835 552 852 Q569 869 592 869 Q614 869 627 854.5 Q640 840 640 820 Q640 797 622.5 780 Q605 763 583 763 Q561 763 548 777.5 Q535 792 535 812 Z " />
<glyph glyph-name="Yacute" unicode="&#xdd;" horiz-adv-x="736" d="M294 271 L105 687 L201 687 L353 355 L638 687 L754 687 L394 271 L336 0 L235 0 L294 271 Z M564 893 L656 873 L486 746 L414 746 L564 893 Z " />
<glyph glyph-name="Thorn" unicode="&#xde;" horiz-adv-x="699" d="M185 687 L284 687 L259 569 L445 569 Q492 569 531.5 555.5 Q571 542 599.5 518 Q628 494 644 460 Q660 426 660 385 Q660 329 635.5 281 Q611 233 569.5 198 Q528 163 473.5 143 Q419 123 359 123 L166 123 L140 0 L42 0 L185 687 Z M357 214 Q399 214 436 226.5 Q473 239 501 260.5 Q529 282 545.5 312.5 Q562 343 562 379 Q562 427 524 452.5 Q486 478 419 478 L240 478 L185 214 L357 214 Z " />
<glyph glyph-name="germandbls" unicode="&#xdf;" horiz-adv-x="587" d="M133 528 Q142 569 164.5 602.5 Q187 636 220 660 Q253 684 294.5 697 Q336 710 383 710 Q470 710 520.5 667 Q571 624 571 555 Q571 491 534.5 441.5 Q498 392 437 361 Q480 338 504 301.5 Q528 265 528 218 Q528 171 508 131 Q488 91 454 62 Q420 33 375 16.5 Q330 0 280 0 L194 0 L212 86 L269 86 Q302 86 331.5 97.5 Q361 109 383.5 129 Q406 149 420 175 Q434 201 434 230 Q435 269 405.5 292.5 Q376 316 324 316 L260 316 L278 400 L320 400 Q349 400 376 411.5 Q403 423 424 442.5 Q445 462 457.5 487 Q470 512 470 538 Q470 573 445 595 Q420 617 375 617 Q348 617 323 608 Q298 599 278 583.5 Q258 568 244 547 Q230 526 225 501 L120 0 L23 0 L133 528 Z " />
<glyph glyph-name="agrave" unicode="&#xe0;" horiz-adv-x="575" d="M358 66 Q322 27 271.5 7.5 Q221 -12 175 -12 Q101 -12 55.5 24.5 Q10 61 10 123 Q10 169 30 206 Q50 243 83 269.5 Q116 296 159 310.5 Q202 325 248 325 Q290 325 330 316.5 Q370 308 406 294 Q413 325 414.5 337 Q416 349 416 359 Q416 397 393.5 423.5 Q371 450 311 450 Q270 450 230 436 Q190 422 153 405 L126 479 Q187 506 237 517.5 Q287 529 327 529 Q418 529 463 484.5 Q508 440 508 367 Q508 352 506 336 Q504 320 496.5 284 Q489 248 475.5 182 Q462 116 438 0 L344 0 L358 66 Z M102 131 Q102 99 128 81.5 Q154 64 196 64 Q222 64 249 70.5 Q276 77 301 90 Q326 103 346 122 Q366 141 377 166 L378 162 L394 235 Q334 253 260 253 Q230 253 201.5 243.5 Q173 234 151 217.5 Q129 201 115.5 179 Q102 157 102 131 Z M302 723 L391 576 L324 576 L207 703 L302 723 Z " />
<glyph glyph-name="aacute" unicode="&#xe1;" horiz-adv-x="575" d="M358 66 Q322 27 271.5 7.5 Q221 -12 175 -12 Q101 -12 55.5 24.5 Q10 61 10 123 Q10 169 30 206 Q50 243 83 269.5 Q116 296 159 310.5 Q202 325 248 325 Q290 325 330 316.5 Q370 308 406 294 Q413 325 414.5 337 Q416 349 416 359 Q416 397 393.5 423.5 Q371 450 311 450 Q270 450 230 436 Q190 422 153 405 L126 479 Q187 506 237 517.5 Q287 529 327 529 Q418 529 463 484.5 Q508 440 508 367 Q508 352 506 336 Q504 320 496.5 284 Q489 248 475.5 182 Q462 116 438 0 L344 0 L358 66 Z M102 131 Q102 99 128 81.5 Q154 64 196 64 Q222 64 249 70.5 Q276 77 301 90 Q326 103 346 122 Q366 141 377 166 L378 162 L394 235 Q334 253 260 253 Q230 253 201.5 243.5 Q173 234 151 217.5 Q129 201 115.5 179 Q102 157 102 131 Z M471 723 L563 703 L393 576 L321 576 L471 723 Z " />
<glyph glyph-name="acircumflex" unicode="&#xe2;" horiz-adv-x="575" d="M358 66 Q322 27 271.5 7.5 Q221 -12 175 -12 Q101 -12 55.5 24.5 Q10 61 10 123 Q10 169 30 206 Q50 243 83 269.5 Q116 296 159 310.5 Q202 325 248 325 Q290 325 330 316.5 Q370 308 406 294 Q413 325 414.5 337 Q416 349 416 359 Q416 397 393.5 423.5 Q371 450 311 450 Q270 450 230 436 Q190 422 153 405 L126 479 Q187 506 237 517.5 Q287 529 327 529 Q418 529 463 484.5 Q508 440 508 367 Q508 352 506 336 Q504 320 496.5 284 Q489 248 475.5 182 Q462 116 438 0 L344 0 L358 66 Z M102 131 Q102 99 128 81.5 Q154 64 196 64 Q222 64 249 70.5 Q276 77 301 90 Q326 103 346 122 Q366 141 377 166 L378 162 L394 235 Q334 253 260 253 Q230 253 201.5 243.5 Q173 234 151 217.5 Q129 201 115.5 179 Q102 157 102 131 Z M323 716 L407 716 L481 576 L416 576 L356 659 L261 576 L192 576 L323 716 Z " />
<glyph glyph-name="atilde" unicode="&#xe3;" horiz-adv-x="575" d="M358 66 Q322 27 271.5 7.5 Q221 -12 175 -12 Q101 -12 55.5 24.5 Q10 61 10 123 Q10 169 30 206 Q50 243 83 269.5 Q116 296 159 310.5 Q202 325 248 325 Q290 325 330 316.5 Q370 308 406 294 Q413 325 414.5 337 Q416 349 416 359 Q416 397 393.5 423.5 Q371 450 311 450 Q270 450 230 436 Q190 422 153 405 L126 479 Q187 506 237 517.5 Q287 529 327 529 Q418 529 463 484.5 Q508 440 508 367 Q508 352 506 336 Q504 320 496.5 284 Q489 248 475.5 182 Q462 116 438 0 L344 0 L358 66 Z M102 131 Q102 99 128 81.5 Q154 64 196 64 Q222 64 249 70.5 Q276 77 301 90 Q326 103 346 122 Q366 141 377 166 L378 162 L394 235 Q334 253 260 253 Q230 253 201.5 243.5 Q173 234 151 217.5 Q129 201 115.5 179 Q102 157 102 131 Z M204 584 Q243 703 322 703 Q345 703 361.5 693.5 Q378 684 391 672 Q404 660 415.5 650.5 Q427 641 440 641 Q481 641 507 709 L559 693 Q539 633 510.5 603.5 Q482 574 440 574 Q417 574 401 583.5 Q385 593 372 605 Q359 617 348 626.5 Q337 636 323 636 Q280 636 256 569 L204 584 Z " />
<glyph glyph-name="adieresis" unicode="&#xe4;" horiz-adv-x="575" d="M358 66 Q322 27 271.5 7.5 Q221 -12 175 -12 Q101 -12 55.5 24.5 Q10 61 10 123 Q10 169 30 206 Q50 243 83 269.5 Q116 296 159 310.5 Q202 325 248 325 Q290 325 330 316.5 Q370 308 406 294 Q413 325 414.5 337 Q416 349 416 359 Q416 397 393.5 423.5 Q371 450 311 450 Q270 450 230 436 Q190 422 153 405 L126 479 Q187 506 237 517.5 Q287 529 327 529 Q418 529 463 484.5 Q508 440 508 367 Q508 352 506 336 Q504 320 496.5 284 Q489 248 475.5 182 Q462 116 438 0 L344 0 L358 66 Z M102 131 Q102 99 128 81.5 Q154 64 196 64 Q222 64 249 70.5 Q276 77 301 90 Q326 103 346 122 Q366 141 377 166 L378 162 L394 235 Q334 253 260 253 Q230 253 201.5 243.5 Q173 234 151 217.5 Q129 201 115.5 179 Q102 157 102 131 Z M231 642 Q231 665 248 682 Q265 699 288 699 Q310 699 323.5 684.5 Q337 670 337 650 Q337 627 319 610 Q301 593 280 593 Q257 593 244 607.5 Q231 622 231 642 Z M429 642 Q429 665 446 682 Q463 699 486 699 Q508 699 521 684.5 Q534 670 534 650 Q534 627 516.5 610 Q499 593 477 593 Q455 593 442 607.5 Q429 622 429 642 Z " />
<glyph glyph-name="aring" unicode="&#xe5;" horiz-adv-x="575" d="M358 66 Q322 27 271.5 7.5 Q221 -12 175 -12 Q101 -12 55.5 24.5 Q10 61 10 123 Q10 169 30 206 Q50 243 83 269.5 Q116 296 159 310.5 Q202 325 248 325 Q290 325 330 316.5 Q370 308 406 294 Q413 325 414.5 337 Q416 349 416 359 Q416 397 393.5 423.5 Q371 450 311 450 Q270 450 230 436 Q190 422 153 405 L126 479 Q187 506 237 517.5 Q287 529 327 529 Q418 529 463 484.5 Q508 440 508 367 Q508 352 506 336 Q504 320 496.5 284 Q489 248 475.5 182 Q462 116 438 0 L344 0 L358 66 Z M102 131 Q102 99 128 81.5 Q154 64 196 64 Q222 64 249 70.5 Q276 77 301 90 Q326 103 346 122 Q366 141 377 166 L378 162 L394 235 Q334 253 260 253 Q230 253 201.5 243.5 Q173 234 151 217.5 Q129 201 115.5 179 Q102 157 102 131 Z M284 672 Q284 698 295 721 Q306 744 324.5 761 Q343 778 366.5 788.5 Q390 799 414 799 Q453 799 476.5 775 Q500 751 500 715 Q500 689 489 666 Q478 643 460 625.5 Q442 608 418.5 597.5 Q395 587 370 587 Q332 587 308 611.5 Q284 636 284 672 Z M333 682 Q333 662 346.5 648.5 Q360 635 380 635 Q406 635 428 656 Q450 677 450 704 Q450 724 437 737 Q424 750 404 750 Q378 750 355.5 729.5 Q333 709 333 682 Z " />
<glyph glyph-name="ae" unicode="&#xe6;" horiz-adv-x="916" d="M188 -12 Q91 -12 44.5 34 Q-2 80 14 161 Q22 198 43.5 228.5 Q65 259 96.5 280.5 Q128 302 167 313.5 Q206 325 248 325 Q290 325 330 316.5 Q370 308 406 294 L411 317 Q416 342 415.5 366 Q415 390 404.5 408.5 Q394 427 371.5 438.5 Q349 450 311 450 Q270 450 230 436 Q190 422 153 405 L126 479 Q187 506 235.5 517.5 Q284 529 323 529 Q392 529 433 503.5 Q474 478 491 433 Q536 478 592.5 503.5 Q649 529 711 529 Q749 529 783 519 Q817 509 842.5 490.5 Q868 472 883.5 445.5 Q899 419 899 386 Q899 314 834 270 Q769 226 652 227 L483 227 Q482 223 482 219 Q482 215 482 211 Q482 145 518 106.5 Q554 68 618 68 Q664 68 710.5 86 Q757 104 786 129 L834 66 Q813 48 785 33.5 Q757 19 726.5 9 Q696 -1 665 -6.5 Q634 -12 608 -12 Q542 -12 493 16.5 Q444 45 418 96 Q377 47 316.5 17.5 Q256 -12 188 -12 Z M104 149 Q95 108 121.5 86 Q148 64 204 64 Q236 64 266.5 75 Q297 86 321.5 104.5 Q346 123 363.5 148 Q381 173 386 200 L393 235 Q335 253 260 253 Q233 253 207 245 Q181 237 159.5 223.5 Q138 210 123.5 191 Q109 172 104 149 Z M667 300 Q736 300 773.5 320.5 Q811 341 811 378 Q811 411 781 430 Q751 449 705 449 Q669 449 636.5 437.5 Q604 426 578 405.5 Q552 385 532 358 Q512 331 500 300 L667 300 Z " />
<glyph glyph-name="ccedilla" unicode="&#xe7;" horiz-adv-x="545" d="M211 -193 Q182 -193 159 -184 Q136 -175 122 -163 L148 -121 Q160 -133 174.5 -137.5 Q189 -142 203 -142 Q233 -142 250 -131 Q267 -120 267 -101 Q267 -89 259.5 -81.5 Q252 -74 241 -74 Q221 -74 203 -87 L186 -66 L221 -9 Q181 -3 146.5 16.5 Q112 36 87 65.5 Q62 95 47.5 132 Q33 169 33 210 Q33 275 59.5 333 Q86 391 131.5 434.5 Q177 478 236.5 503.5 Q296 529 362 529 Q413 529 460 506 Q507 483 536 447 L464 393 Q447 417 414.5 432 Q382 447 349 447 Q304 447 264 428 Q224 409 194 377.5 Q164 346 146.5 304 Q129 262 129 215 Q129 185 140 159 Q151 133 169.5 113.5 Q188 94 213.5 82.5 Q239 71 267 71 Q343 71 408 133 L464 68 Q382 -3 280 -11 L258 -45 L259 -45 Q288 -45 305 -60.5 Q322 -76 322 -102 Q322 -123 313 -140 Q304 -157 288.5 -168.5 Q273 -180 253 -186.5 Q233 -193 211 -193 Z " />
<glyph glyph-name="egrave" unicode="&#xe8;" horiz-adv-x="555" d="M249 -12 Q201 -12 161.5 4 Q122 20 93.5 48.5 Q65 77 49.5 117 Q34 157 34 205 Q34 270 60.5 328.5 Q87 387 131 431.5 Q175 476 232.5 502.5 Q290 529 352 529 Q390 529 424 519 Q458 509 483.5 490.5 Q509 472 524.5 445.5 Q540 419 540 386 Q540 314 475 270 Q410 226 293 227 L124 227 Q123 223 123 219 Q123 215 123 211 Q123 145 159 106.5 Q195 68 259 68 Q305 68 351.5 86 Q398 104 427 129 L475 66 Q454 48 426 33.5 Q398 19 367.5 9 Q337 -1 306 -6.5 Q275 -12 249 -12 Z M308 300 Q377 300 414.5 320.5 Q452 341 452 378 Q452 411 422 430 Q392 449 346 449 Q310 449 277.5 437.5 Q245 426 219 405.5 Q193 385 173 358 Q153 331 141 300 L308 300 Z M310 723 L399 576 L332 576 L215 703 L310 723 Z " />
<glyph glyph-name="eacute" unicode="&#xe9;" horiz-adv-x="555" d="M249 -12 Q201 -12 161.5 4 Q122 20 93.5 48.5 Q65 77 49.5 117 Q34 157 34 205 Q34 270 60.5 328.5 Q87 387 131 431.5 Q175 476 232.5 502.5 Q290 529 352 529 Q390 529 424 519 Q458 509 483.5 490.5 Q509 472 524.5 445.5 Q540 419 540 386 Q540 314 475 270 Q410 226 293 227 L124 227 Q123 223 123 219 Q123 215 123 211 Q123 145 159 106.5 Q195 68 259 68 Q305 68 351.5 86 Q398 104 427 129 L475 66 Q454 48 426 33.5 Q398 19 367.5 9 Q337 -1 306 -6.5 Q275 -12 249 -12 Z M308 300 Q377 300 414.5 320.5 Q452 341 452 378 Q452 411 422 430 Q392 449 346 449 Q310 449 277.5 437.5 Q245 426 219 405.5 Q193 385 173 358 Q153 331 141 300 L308 300 Z M477 723 L569 703 L399 576 L327 576 L477 723 Z " />
<glyph glyph-name="ecircumflex" unicode="&#xea;" horiz-adv-x="555" d="M249 -12 Q201 -12 161.5 4 Q122 20 93.5 48.5 Q65 77 49.5 117 Q34 157 34 205 Q34 270 60.5 328.5 Q87 387 131 431.5 Q175 476 232.5 502.5 Q290 529 352 529 Q390 529 424 519 Q458 509 483.5 490.5 Q509 472 524.5 445.5 Q540 419 540 386 Q540 314 475 270 Q410 226 293 227 L124 227 Q123 223 123 219 Q123 215 123 211 Q123 145 159 106.5 Q195 68 259 68 Q305 68 351.5 86 Q398 104 427 129 L475 66 Q454 48 426 33.5 Q398 19 367.5 9 Q337 -1 306 -6.5 Q275 -12 249 -12 Z M308 300 Q377 300 414.5 320.5 Q452 341 452 378 Q452 411 422 430 Q392 449 346 449 Q310 449 277.5 437.5 Q245 426 219 405.5 Q193 385 173 358 Q153 331 141 300 L308 300 Z M348 716 L432 716 L506 576 L441 576 L381 659 L286 576 L217 576 L348 716 Z " />
<glyph glyph-name="edieresis" unicode="&#xeb;" horiz-adv-x="555" d="M249 -12 Q201 -12 161.5 4 Q122 20 93.5 48.5 Q65 77 49.5 117 Q34 157 34 205 Q34 270 60.5 328.5 Q87 387 131 431.5 Q175 476 232.5 502.5 Q290 529 352 529 Q390 529 424 519 Q458 509 483.5 490.5 Q509 472 524.5 445.5 Q540 419 540 386 Q540 314 475 270 Q410 226 293 227 L124 227 Q123 223 123 219 Q123 215 123 211 Q123 145 159 106.5 Q195 68 259 68 Q305 68 351.5 86 Q398 104 427 129 L475 66 Q454 48 426 33.5 Q398 19 367.5 9 Q337 -1 306 -6.5 Q275 -12 249 -12 Z M308 300 Q377 300 414.5 320.5 Q452 341 452 378 Q452 411 422 430 Q392 449 346 449 Q310 449 277.5 437.5 Q245 426 219 405.5 Q193 385 173 358 Q153 331 141 300 L308 300 Z M226 642 Q226 665 243 682 Q260 699 283 699 Q305 699 318.5 684.5 Q332 670 332 650 Q332 627 314 610 Q296 593 275 593 Q252 593 239 607.5 Q226 622 226 642 Z M424 642 Q424 665 441 682 Q458 699 481 699 Q503 699 516 684.5 Q529 670 529 650 Q529 627 511.5 610 Q494 593 472 593 Q450 593 437 607.5 Q424 622 424 642 Z " />
<glyph glyph-name="igrave" unicode="&#xec;" horiz-adv-x="261" d="M137 517 L232 517 L124 0 L29 0 L137 517 Z M144 723 L233 576 L166 576 L49 703 L144 723 Z " />
<glyph glyph-name="iacute" unicode="&#xed;" horiz-adv-x="261" d="M137 517 L232 517 L124 0 L29 0 L137 517 Z M311 723 L403 703 L233 576 L161 576 L311 723 Z " />
<glyph glyph-name="icircumflex" unicode="&#xee;" horiz-adv-x="261" d="M137 517 L232 517 L124 0 L29 0 L137 517 Z M183 716 L267 716 L341 576 L276 576 L216 659 L121 576 L52 576 L183 716 Z " />
<glyph glyph-name="idieresis" unicode="&#xef;" horiz-adv-x="261" d="M137 517 L232 517 L124 0 L29 0 L137 517 Z M60 642 Q60 665 77 682 Q94 699 117 699 Q139 699 152.5 684.5 Q166 670 166 650 Q166 627 148 610 Q130 593 109 593 Q86 593 73 607.5 Q60 622 60 642 Z M258 642 Q258 665 275 682 Q292 699 315 699 Q337 699 350 684.5 Q363 670 363 650 Q363 627 345.5 610 Q328 593 306 593 Q284 593 271 607.5 Q258 622 258 642 Z " />
<glyph glyph-name="eth" unicode="&#xf0;" horiz-adv-x="619" d="M264 72 Q306 72 344 90 Q382 108 410.5 138.5 Q439 169 456 208.5 Q473 248 473 291 Q473 345 440.5 380.5 Q408 416 346 416 Q303 416 265 398 Q227 380 198.5 350 Q170 320 153.5 280 Q137 240 137 196 Q137 139 170.5 105.5 Q204 72 264 72 Z M42 194 Q42 254 63.5 308.5 Q85 363 123 405 Q161 447 212.5 472 Q264 497 324 497 Q378 497 414 475.5 Q450 454 476 419 Q464 463 439.5 501.5 Q415 540 381 576 L252 523 L235 589 L329 627 Q312 642 295 655.5 Q278 669 261 683 L355 716 Q385 688 412 662 L520 706 L536 640 L461 609 Q518 544 547.5 480.5 Q577 417 577 345 Q577 275 553 210.5 Q529 146 486.5 96.5 Q444 47 386 17.5 Q328 -12 259 -12 Q209 -12 169 3 Q129 18 100.5 45 Q72 72 57 110 Q42 148 42 194 Z " />
<glyph glyph-name="ntilde" unicode="&#xf1;" horiz-adv-x="607" d="M137 517 L232 517 L217 445 Q248 483 295 506 Q342 529 393 529 Q468 529 511.5 485.5 Q555 442 555 373 Q555 359 552.5 342.5 Q550 326 542.5 288.5 Q535 251 520.5 183.5 Q506 116 482 0 L389 0 Q413 114 427 179.5 Q441 245 448 280.5 Q455 316 457 329.5 Q459 343 459 354 Q459 397 435 422 Q411 447 369 447 Q338 447 308 436.5 Q278 426 253.5 408 Q229 390 212.5 367 Q196 344 191 319 L191 320 L124 0 L29 0 L137 517 Z M104 584 Q143 703 222 703 Q245 703 261.5 693.5 Q278 684 291 672 Q304 660 315.5 650.5 Q327 641 340 641 Q381 641 407 709 L459 693 Q439 633 410.5 603.5 Q382 574 340 574 Q317 574 301 583.5 Q285 593 272 605 Q259 617 248 626.5 Q237 636 223 636 Q180 636 156 569 L104 584 Z " />
<glyph glyph-name="ograve" unicode="&#xf2;" horiz-adv-x="626" d="M257 -12 Q212 -12 172 5.5 Q132 23 102 53 Q72 83 54.5 123.5 Q37 164 37 210 Q37 275 63 333 Q89 391 134 434.5 Q179 478 238.5 503.5 Q298 529 365 529 Q411 529 452 511.5 Q493 494 523.5 464 Q554 434 571.5 393.5 Q589 353 589 307 Q589 242 562.5 184 Q536 126 491 82.5 Q446 39 385.5 13.5 Q325 -12 257 -12 Z M132 215 Q132 185 143 159 Q154 133 173 113.5 Q192 94 217 82.5 Q242 71 270 71 Q316 71 356.5 89.5 Q397 108 427.5 139.5 Q458 171 476 212.5 Q494 254 494 301 Q494 331 483 357.5 Q472 384 452.5 404 Q433 424 407 435.5 Q381 447 352 447 Q307 447 267 428.5 Q227 410 197 378.5 Q167 347 149.5 304.5 Q132 262 132 215 Z M322 723 L411 576 L344 576 L227 703 L322 723 Z " />
<glyph glyph-name="oacute" unicode="&#xf3;" horiz-adv-x="626" d="M257 -12 Q212 -12 172 5.5 Q132 23 102 53 Q72 83 54.5 123.5 Q37 164 37 210 Q37 275 63 333 Q89 391 134 434.5 Q179 478 238.5 503.5 Q298 529 365 529 Q411 529 452 511.5 Q493 494 523.5 464 Q554 434 571.5 393.5 Q589 353 589 307 Q589 242 562.5 184 Q536 126 491 82.5 Q446 39 385.5 13.5 Q325 -12 257 -12 Z M132 215 Q132 185 143 159 Q154 133 173 113.5 Q192 94 217 82.5 Q242 71 270 71 Q316 71 356.5 89.5 Q397 108 427.5 139.5 Q458 171 476 212.5 Q494 254 494 301 Q494 331 483 357.5 Q472 384 452.5 404 Q433 424 407 435.5 Q381 447 352 447 Q307 447 267 428.5 Q227 410 197 378.5 Q167 347 149.5 304.5 Q132 262 132 215 Z M489 723 L581 703 L411 576 L339 576 L489 723 Z " />
<glyph glyph-name="ocircumflex" unicode="&#xf4;" horiz-adv-x="626" d="M257 -12 Q212 -12 172 5.5 Q132 23 102 53 Q72 83 54.5 123.5 Q37 164 37 210 Q37 275 63 333 Q89 391 134 434.5 Q179 478 238.5 503.5 Q298 529 365 529 Q411 529 452 511.5 Q493 494 523.5 464 Q554 434 571.5 393.5 Q589 353 589 307 Q589 242 562.5 184 Q536 126 491 82.5 Q446 39 385.5 13.5 Q325 -12 257 -12 Z M132 215 Q132 185 143 159 Q154 133 173 113.5 Q192 94 217 82.5 Q242 71 270 71 Q316 71 356.5 89.5 Q397 108 427.5 139.5 Q458 171 476 212.5 Q494 254 494 301 Q494 331 483 357.5 Q472 384 452.5 404 Q433 424 407 435.5 Q381 447 352 447 Q307 447 267 428.5 Q227 410 197 378.5 Q167 347 149.5 304.5 Q132 262 132 215 Z M360 716 L444 716 L518 576 L453 576 L393 659 L298 576 L229 576 L360 716 Z " />
<glyph glyph-name="otilde" unicode="&#xf5;" horiz-adv-x="626" d="M257 -12 Q212 -12 172 5.5 Q132 23 102 53 Q72 83 54.5 123.5 Q37 164 37 210 Q37 275 63 333 Q89 391 134 434.5 Q179 478 238.5 503.5 Q298 529 365 529 Q411 529 452 511.5 Q493 494 523.5 464 Q554 434 571.5 393.5 Q589 353 589 307 Q589 242 562.5 184 Q536 126 491 82.5 Q446 39 385.5 13.5 Q325 -12 257 -12 Z M132 215 Q132 185 143 159 Q154 133 173 113.5 Q192 94 217 82.5 Q242 71 270 71 Q316 71 356.5 89.5 Q397 108 427.5 139.5 Q458 171 476 212.5 Q494 254 494 301 Q494 331 483 357.5 Q472 384 452.5 404 Q433 424 407 435.5 Q381 447 352 447 Q307 447 267 428.5 Q227 410 197 378.5 Q167 347 149.5 304.5 Q132 262 132 215 Z M210 584 Q249 703 328 703 Q351 703 367.5 693.5 Q384 684 397 672 Q410 660 421.5 650.5 Q433 641 446 641 Q487 641 513 709 L565 693 Q545 633 516.5 603.5 Q488 574 446 574 Q423 574 407 583.5 Q391 593 378 605 Q365 617 354 626.5 Q343 636 329 636 Q286 636 262 569 L210 584 Z " />
<glyph glyph-name="odieresis" unicode="&#xf6;" horiz-adv-x="626" d="M257 -12 Q212 -12 172 5.5 Q132 23 102 53 Q72 83 54.5 123.5 Q37 164 37 210 Q37 275 63 333 Q89 391 134 434.5 Q179 478 238.5 503.5 Q298 529 365 529 Q411 529 452 511.5 Q493 494 523.5 464 Q554 434 571.5 393.5 Q589 353 589 307 Q589 242 562.5 184 Q536 126 491 82.5 Q446 39 385.5 13.5 Q325 -12 257 -12 Z M132 215 Q132 185 143 159 Q154 133 173 113.5 Q192 94 217 82.5 Q242 71 270 71 Q316 71 356.5 89.5 Q397 108 427.5 139.5 Q458 171 476 212.5 Q494 254 494 301 Q494 331 483 357.5 Q472 384 452.5 404 Q433 424 407 435.5 Q381 447 352 447 Q307 447 267 428.5 Q227 410 197 378.5 Q167 347 149.5 304.5 Q132 262 132 215 Z M237 642 Q237 665 254 682 Q271 699 294 699 Q316 699 329.5 684.5 Q343 670 343 650 Q343 627 325 610 Q307 593 286 593 Q263 593 250 607.5 Q237 622 237 642 Z M435 642 Q435 665 452 682 Q469 699 492 699 Q514 699 527 684.5 Q540 670 540 650 Q540 627 522.5 610 Q505 593 483 593 Q461 593 448 607.5 Q435 622 435 642 Z " />
<glyph glyph-name="divide" unicode="&#xf7;" horiz-adv-x="598" d="M91 377 L556 377 L538 291 L72 291 L91 377 Z M219 159 Q219 189 240 207.5 Q261 226 287 226 Q311 226 326 210.5 Q341 195 341 172 Q341 145 321 124 Q301 103 275 103 Q249 103 234 119.5 Q219 136 219 159 Z M289 497 Q289 528 310 546.5 Q331 565 357 565 Q381 565 396 549 Q411 533 411 510 Q411 482 390.5 462 Q370 442 345 442 Q319 442 304 458 Q289 474 289 497 Z " />
<glyph glyph-name="oslash" unicode="&#xf8;" horiz-adv-x="644" d="M82 79 Q62 107 51 140 Q40 173 40 210 Q40 275 66 333 Q92 391 137 434.5 Q182 478 241.5 503.5 Q301 529 368 529 Q408 529 444 515.5 Q480 502 509 479 L549 517 L642 517 L552 433 Q571 406 581.5 374 Q592 342 592 307 Q592 242 565.5 184 Q539 126 494 82.5 Q449 39 388.5 13.5 Q328 -12 260 -12 Q222 -12 188.5 0 Q155 12 127 33 L92 0 L-2 0 L82 79 Z M135 215 Q135 177 153 145 L442 416 Q405 447 355 447 Q310 447 270 428.5 Q230 410 200 378.5 Q170 347 152.5 304.5 Q135 262 135 215 Z M195 97 Q212 85 231.5 78 Q251 71 273 71 Q319 71 359.5 89.5 Q400 108 430.5 139.5 Q461 171 479 212.5 Q497 254 497 301 Q497 338 482 366 L195 97 Z " />
<glyph glyph-name="ugrave" unicode="&#xf9;" horiz-adv-x="607" d="M470 0 L375 0 L390 72 Q359 34 312 11 Q265 -12 214 -12 Q139 -12 95.5 31.5 Q52 75 53 144 Q53 158 55.5 174.5 Q58 191 65.5 228.5 Q73 266 87.5 333.5 Q102 401 126 517 L219 517 Q195 403 180.5 337.5 Q166 272 159 236.5 Q152 201 150 187.5 Q148 174 148 163 Q148 120 172 95 Q196 70 238 70 Q268 70 296 79.5 Q324 89 348 105 Q372 121 389.5 142 Q407 163 414 187 L483 517 L578 517 L470 0 Z M296 723 L385 576 L318 576 L201 703 L296 723 Z " />
<glyph glyph-name="uacute" unicode="&#xfa;" horiz-adv-x="607" d="M470 0 L375 0 L390 72 Q359 34 312 11 Q265 -12 214 -12 Q139 -12 95.5 31.5 Q52 75 53 144 Q53 158 55.5 174.5 Q58 191 65.5 228.5 Q73 266 87.5 333.5 Q102 401 126 517 L219 517 Q195 403 180.5 337.5 Q166 272 159 236.5 Q152 201 150 187.5 Q148 174 148 163 Q148 120 172 95 Q196 70 238 70 Q268 70 296 79.5 Q324 89 348 105 Q372 121 389.5 142 Q407 163 414 187 L483 517 L578 517 L470 0 Z M463 723 L555 703 L385 576 L313 576 L463 723 Z " />
<glyph glyph-name="ucircumflex" unicode="&#xfb;" horiz-adv-x="607" d="M470 0 L375 0 L390 72 Q359 34 312 11 Q265 -12 214 -12 Q139 -12 95.5 31.5 Q52 75 53 144 Q53 158 55.5 174.5 Q58 191 65.5 228.5 Q73 266 87.5 333.5 Q102 401 126 517 L219 517 Q195 403 180.5 337.5 Q166 272 159 236.5 Q152 201 150 187.5 Q148 174 148 163 Q148 120 172 95 Q196 70 238 70 Q268 70 296 79.5 Q324 89 348 105 Q372 121 389.5 142 Q407 163 414 187 L483 517 L578 517 L470 0 Z M334 716 L418 716 L492 576 L427 576 L367 659 L272 576 L203 576 L334 716 Z " />
<glyph glyph-name="udieresis" unicode="&#xfc;" horiz-adv-x="607" d="M470 0 L375 0 L390 72 Q359 34 312 11 Q265 -12 214 -12 Q139 -12 95.5 31.5 Q52 75 53 144 Q53 158 55.5 174.5 Q58 191 65.5 228.5 Q73 266 87.5 333.5 Q102 401 126 517 L219 517 Q195 403 180.5 337.5 Q166 272 159 236.5 Q152 201 150 187.5 Q148 174 148 163 Q148 120 172 95 Q196 70 238 70 Q268 70 296 79.5 Q324 89 348 105 Q372 121 389.5 142 Q407 163 414 187 L483 517 L578 517 L470 0 Z M211 642 Q211 665 228 682 Q245 699 268 699 Q290 699 303.5 684.5 Q317 670 317 650 Q317 627 299 610 Q281 593 260 593 Q237 593 224 607.5 Q211 622 211 642 Z M409 642 Q409 665 426 682 Q443 699 466 699 Q488 699 501 684.5 Q514 670 514 650 Q514 627 496.5 610 Q479 593 457 593 Q435 593 422 607.5 Q409 622 409 642 Z " />
<glyph glyph-name="yacute" unicode="&#xfd;" horiz-adv-x="468" d="M58 -180 Q31 -180 7 -174 Q-17 -168 -36 -157 L-5 -86 Q8 -94 23 -97.5 Q38 -101 52 -101 Q103 -101 136 -56 L176 -3 L63 517 L163 517 L245 106 L491 517 L593 517 L245 -53 Q203 -122 157 -151 Q111 -180 58 -180 Z M406 723 L498 703 L328 576 L256 576 L406 723 Z " />
<glyph glyph-name="thorn" unicode="&#xfe;" horiz-adv-x="644" d="M174 699 L269 699 L213 430 Q252 476 303 502.5 Q354 529 412 529 Q453 529 488.5 513 Q524 497 550 469 Q576 441 591.5 403.5 Q607 366 607 323 Q607 256 583 195 Q559 134 518 88 Q477 42 421.5 15 Q366 -12 304 -12 Q251 -12 208.5 19 Q166 50 145 101 L88 -172 L-7 -172 L174 699 Z M171 202 Q171 175 181.5 151 Q192 127 210.5 109.5 Q229 92 253.5 81.5 Q278 71 306 71 Q348 71 385 90.5 Q422 110 450 143.5 Q478 177 494.5 221 Q511 265 511 314 Q511 341 501.5 365.5 Q492 390 475.5 408 Q459 426 437 436.5 Q415 447 389 447 Q352 447 318.5 433.5 Q285 420 257.5 396 Q230 372 210 339.5 Q190 307 180 269 L174 242 Q171 223 171 202 Z " />
<glyph glyph-name="ydieresis" unicode="&#xff;" horiz-adv-x="468" d="M58 -180 Q31 -180 7 -174 Q-17 -168 -36 -157 L-5 -86 Q8 -94 23 -97.5 Q38 -101 52 -101 Q103 -101 136 -56 L176 -3 L63 517 L163 517 L245 106 L491 517 L593 517 L245 -53 Q203 -122 157 -151 Q111 -180 58 -180 Z M166 642 Q166 665 183 682 Q200 699 223 699 Q245 699 258.5 684.5 Q272 670 272 650 Q272 627 254 610 Q236 593 215 593 Q192 593 179 607.5 Q166 622 166 642 Z M364 642 Q364 665 381 682 Q398 699 421 699 Q443 699 456 684.5 Q469 670 469 650 Q469 627 451.5 610 Q434 593 412 593 Q390 593 377 607.5 Q364 622 364 642 Z " />
<glyph glyph-name="Amacron" unicode="&#x100;" horiz-adv-x="752" d="M673 0 L568 0 L535 145 L174 145 L81 0 L-29 0 L411 687 L520 687 L673 0 Z M516 231 L442 564 L229 231 L516 231 Z M335 824 L655 824 L642 761 L323 761 L335 824 Z " />
<glyph glyph-name="amacron" unicode="&#x101;" horiz-adv-x="575" d="M358 66 Q322 27 271.5 7.5 Q221 -12 175 -12 Q101 -12 55.5 24.5 Q10 61 10 123 Q10 169 30 206 Q50 243 83 269.5 Q116 296 159 310.5 Q202 325 248 325 Q290 325 330 316.5 Q370 308 406 294 Q413 325 414.5 337 Q416 349 416 359 Q416 397 393.5 423.5 Q371 450 311 450 Q270 450 230 436 Q190 422 153 405 L126 479 Q187 506 237 517.5 Q287 529 327 529 Q418 529 463 484.5 Q508 440 508 367 Q508 352 506 336 Q504 320 496.5 284 Q489 248 475.5 182 Q462 116 438 0 L344 0 L358 66 Z M102 131 Q102 99 128 81.5 Q154 64 196 64 Q222 64 249 70.5 Q276 77 301 90 Q326 103 346 122 Q366 141 377 166 L378 162 L394 235 Q334 253 260 253 Q230 253 201.5 243.5 Q173 234 151 217.5 Q129 201 115.5 179 Q102 157 102 131 Z M229 654 L549 654 L536 591 L217 591 L229 654 Z " />
<glyph glyph-name="Abreve" unicode="&#x102;" horiz-adv-x="752" d="M673 0 L568 0 L535 145 L174 145 L81 0 L-29 0 L411 687 L520 687 L673 0 Z M516 231 L442 564 L229 231 L516 231 Z M403 868 Q419 848 442.5 838 Q466 828 490 828 Q518 828 547 840 Q576 852 600 872 L644 817 Q607 786 565.5 771.5 Q524 757 484 757 Q442 757 406 773 Q370 789 344 820 L403 868 Z " />
<glyph glyph-name="abreve" unicode="&#x103;" horiz-adv-x="575" d="M358 66 Q322 27 271.5 7.5 Q221 -12 175 -12 Q101 -12 55.5 24.5 Q10 61 10 123 Q10 169 30 206 Q50 243 83 269.5 Q116 296 159 310.5 Q202 325 248 325 Q290 325 330 316.5 Q370 308 406 294 Q413 325 414.5 337 Q416 349 416 359 Q416 397 393.5 423.5 Q371 450 311 450 Q270 450 230 436 Q190 422 153 405 L126 479 Q187 506 237 517.5 Q287 529 327 529 Q418 529 463 484.5 Q508 440 508 367 Q508 352 506 336 Q504 320 496.5 284 Q489 248 475.5 182 Q462 116 438 0 L344 0 L358 66 Z M102 131 Q102 99 128 81.5 Q154 64 196 64 Q222 64 249 70.5 Q276 77 301 90 Q326 103 346 122 Q366 141 377 166 L378 162 L394 235 Q334 253 260 253 Q230 253 201.5 243.5 Q173 234 151 217.5 Q129 201 115.5 179 Q102 157 102 131 Z M293 698 Q309 678 332.5 668 Q356 658 380 658 Q408 658 437 670 Q466 682 490 702 L534 647 Q497 616 455.5 601.5 Q414 587 374 587 Q332 587 296 603 Q260 619 234 650 L293 698 Z " />
<glyph glyph-name="Aogonek" unicode="&#x104;" horiz-adv-x="752" d="M673 0 Q641 0 621 -20 Q601 -40 601 -72 Q601 -106 640 -106 Q655 -106 669 -100.5 Q683 -95 692 -86 L716 -146 Q696 -160 674 -166.5 Q652 -173 629 -173 Q585 -173 559.5 -150 Q534 -127 534 -86 Q534 -60 543 -38.5 Q552 -17 569 0 L568 0 L535 145 L174 145 L81 0 L-29 0 L411 687 L520 687 L673 0 Z M516 231 L442 564 L229 231 L516 231 Z " />
<glyph glyph-name="aogonek" unicode="&#x105;" horiz-adv-x="575" d="M358 66 Q322 27 271.5 7.5 Q221 -12 175 -12 Q101 -12 55.5 24.5 Q10 61 10 123 Q10 169 30 206 Q50 243 83 269.5 Q116 296 159 310.5 Q202 325 248 325 Q290 325 330 316.5 Q370 308 406 294 Q413 325 414.5 337 Q416 349 416 359 Q416 397 393.5 423.5 Q371 450 311 450 Q270 450 230 436 Q190 422 153 405 L126 479 Q187 506 237 517.5 Q287 529 327 529 Q418 529 463 484.5 Q508 440 508 367 Q508 352 506 336.5 Q504 321 497 287 Q490 253 477 191 Q464 129 442 21 L502 0 Q470 0 450 -20 Q430 -40 430 -72 Q430 -106 469 -106 Q484 -106 498 -100.5 Q512 -95 521 -86 L545 -146 Q525 -160 503 -166.5 Q481 -173 458 -173 Q414 -173 388.5 -150 Q363 -127 363 -86 Q363 -60 372 -38.5 Q381 -17 398 0 L344 0 L358 66 Z M102 131 Q102 99 128 81.5 Q154 64 196 64 Q222 64 249 70.5 Q276 77 301 90 Q326 103 346 122 Q366 141 377 166 L378 162 L394 235 Q334 253 260 253 Q230 253 201.5 243.5 Q173 234 151 217.5 Q129 201 115.5 179 Q102 157 102 131 Z " />
<glyph glyph-name="Cacute" unicode="&#x106;" horiz-adv-x="720" d="M354 -12 Q294 -12 241 11.5 Q188 35 148.5 75 Q109 115 85.5 168.5 Q62 222 62 283 Q62 367 97 442.5 Q132 518 191.5 575 Q251 632 330 665.5 Q409 699 497 699 Q529 699 562 691 Q595 683 625 668 Q655 653 681 633 Q707 613 726 589 L649 528 Q623 564 577 587 Q531 610 483 610 Q417 610 358.5 583.5 Q300 557 256 512.5 Q212 468 186 409 Q160 350 160 284 Q160 241 177 203.5 Q194 166 222.5 138 Q251 110 288.5 93.5 Q326 77 368 77 Q391 77 417 83.5 Q443 90 469.5 101.5 Q496 113 521.5 129 Q547 145 568 164 L626 93 Q598 70 564.5 51 Q531 32 495 18 Q459 4 422.5 -4 Q386 -12 354 -12 Z M621 893 L713 873 L543 746 L471 746 L621 893 Z " />
<glyph glyph-name="cacute" unicode="&#x107;" horiz-adv-x="545" d="M254 -12 Q208 -12 168 5.5 Q128 23 98 53.5 Q68 84 50.5 124.5 Q33 165 33 210 Q33 275 59.5 333 Q86 391 131.5 434.5 Q177 478 236.5 503.5 Q296 529 362 529 Q413 529 460 506 Q507 483 536 447 L464 393 Q447 417 414.5 432 Q382 447 349 447 Q304 447 264 428 Q224 409 194 377.5 Q164 346 146.5 304 Q129 262 129 215 Q129 185 140 159 Q151 133 169.5 113.5 Q188 94 213.5 82.5 Q239 71 267 71 Q343 71 408 133 L464 68 Q372 -12 254 -12 Z M474 723 L566 703 L396 576 L324 576 L474 723 Z " />
<glyph glyph-name="Ccaron" unicode="&#x10c;" horiz-adv-x="720" d="M354 -12 Q294 -12 241 11.5 Q188 35 148.5 75 Q109 115 85.5 168.5 Q62 222 62 283 Q62 367 97 442.5 Q132 518 191.5 575 Q251 632 330 665.5 Q409 699 497 699 Q529 699 562 691 Q595 683 625 668 Q655 653 681 633 Q707 613 726 589 L649 528 Q623 564 577 587 Q531 610 483 610 Q417 610 358.5 583.5 Q300 557 256 512.5 Q212 468 186 409 Q160 350 160 284 Q160 241 177 203.5 Q194 166 222.5 138 Q251 110 288.5 93.5 Q326 77 368 77 Q391 77 417 83.5 Q443 90 469.5 101.5 Q496 113 521.5 129 Q547 145 568 164 L626 93 Q598 70 564.5 51 Q531 32 495 18 Q459 4 422.5 -4 Q386 -12 354 -12 Z M464 886 L523 803 L620 886 L689 886 L556 746 L472 746 L400 886 L464 886 Z " />
<glyph glyph-name="ccaron" unicode="&#x10d;" horiz-adv-x="545" d="M254 -12 Q208 -12 168 5.5 Q128 23 98 53.5 Q68 84 50.5 124.5 Q33 165 33 210 Q33 275 59.5 333 Q86 391 131.5 434.5 Q177 478 236.5 503.5 Q296 529 362 529 Q413 529 460 506 Q507 483 536 447 L464 393 Q447 417 414.5 432 Q382 447 349 447 Q304 447 264 428 Q224 409 194 377.5 Q164 346 146.5 304 Q129 262 129 215 Q129 185 140 159 Q151 133 169.5 113.5 Q188 94 213.5 82.5 Q239 71 267 71 Q343 71 408 133 L464 68 Q372 -12 254 -12 Z M317 716 L376 633 L473 716 L542 716 L409 576 L325 576 L253 716 L317 716 Z " />
<glyph glyph-name="Dcaron" unicode="&#x10e;" horiz-adv-x="766" d="M193 687 L426 687 Q496 687 554 666.5 Q612 646 654 609.5 Q696 573 719.5 522.5 Q743 472 743 412 Q743 328 707 253 Q671 178 609 122 Q547 66 464.5 33 Q382 0 290 0 L50 0 L193 687 Z M306 89 Q375 89 436 114.5 Q497 140 543.5 183 Q590 226 617 284 Q644 342 644 406 Q644 448 627.5 483.5 Q611 519 581 544.5 Q551 570 510 584.5 Q469 599 419 599 L273 599 L166 89 L306 89 Z M390 886 L449 803 L546 886 L615 886 L482 746 L398 746 L326 886 L390 886 Z " />
<glyph glyph-name="dcaron" unicode="&#x10f;" horiz-adv-x="645" d="M432 88 Q394 42 342.5 15 Q291 -12 233 -12 Q193 -12 157 4.5 Q121 21 95 49 Q69 77 53.5 114.5 Q38 152 38 195 Q38 263 62 323.5 Q86 384 127.5 429.5 Q169 475 224 502 Q279 529 341 529 Q395 529 437 497.5 Q479 466 500 415 L559 699 L654 699 L509 0 L414 0 L432 88 Z M134 203 Q134 176 143.5 152 Q153 128 169.5 110 Q186 92 208.5 81.5 Q231 71 256 71 Q293 71 327 85 Q361 99 389 123.5 Q417 148 437 181 Q457 214 466 252 L470 272 Q474 291 474 315 Q474 342 463 366 Q452 390 433.5 408 Q415 426 390.5 436.5 Q366 447 338 447 Q296 447 259 427.5 Q222 408 194.5 374.5 Q167 341 150.5 297 Q134 253 134 203 Z M703 519 Q745 556 769 598 Q749 596 737.5 609 Q726 622 726 642 Q726 664 742.5 681.5 Q759 699 782 699 Q806 699 819 682.5 Q832 666 832 640 Q832 598 805 564 Q778 530 736 489 L703 519 Z " />
<glyph glyph-name="Dcroat" unicode="&#x110;" horiz-adv-x="811" d="M84 394 L168 394 L229 687 L462 687 Q532 687 590 666.5 Q648 646 690 609.5 Q732 573 755.5 522.5 Q779 472 779 412 Q779 328 743 253 Q707 178 645 122 Q583 66 500.5 33 Q418 0 326 0 L86 0 L149 304 L66 304 L84 394 Z M342 89 Q411 89 472 114.5 Q533 140 579.5 183 Q626 226 653 284 Q680 342 680 406 Q680 448 663.5 483.5 Q647 519 617 544.5 Q587 570 546 584.5 Q505 599 455 599 L309 599 L266 394 L441 394 L422 304 L247 304 L202 89 L342 89 Z " />
<glyph glyph-name="dcroat" unicode="&#x111;" horiz-adv-x="646" d="M386 638 L546 638 L559 699 L654 699 L641 638 L710 638 L697 582 L630 582 L509 0 L414 0 L432 88 Q394 42 342.5 15 Q291 -12 233 -12 Q193 -12 157 4.5 Q121 21 95 49 Q69 77 53.5 114.5 Q38 152 38 195 Q38 263 62 323.5 Q86 384 127.5 429.5 Q169 475 224 502 Q279 529 341 529 Q395 529 437 497.5 Q479 466 500 415 L535 582 L374 582 L386 638 Z M134 203 Q134 176 143.5 152 Q153 128 169.5 110 Q186 92 208.5 81.5 Q231 71 256 71 Q293 71 327 85 Q361 99 389 123.5 Q417 148 437 181 Q457 214 466 252 L470 272 Q474 291 474 315 Q474 342 463 366 Q452 390 433.5 408 Q415 426 390.5 436.5 Q366 447 338 447 Q296 447 259 427.5 Q222 408 194.5 374.5 Q167 341 150.5 297 Q134 253 134 203 Z " />
<glyph glyph-name="Emacron" unicode="&#x112;" horiz-adv-x="664" d="M193 687 L696 687 L677 597 L272 597 L232 395 L596 395 L578 305 L211 305 L168 91 L572 91 L553 0 L50 0 L193 687 Z M319 824 L639 824 L626 761 L307 761 L319 824 Z " />
<glyph glyph-name="emacron" unicode="&#x113;" horiz-adv-x="555" d="M249 -12 Q201 -12 161.5 4 Q122 20 93.5 48.5 Q65 77 49.5 117 Q34 157 34 205 Q34 270 60.5 328.5 Q87 387 131 431.5 Q175 476 232.5 502.5 Q290 529 352 529 Q390 529 424 519 Q458 509 483.5 490.5 Q509 472 524.5 445.5 Q540 419 540 386 Q540 314 475 270 Q410 226 293 227 L124 227 Q123 223 123 219 Q123 215 123 211 Q123 145 159 106.5 Q195 68 259 68 Q305 68 351.5 86 Q398 104 427 129 L475 66 Q454 48 426 33.5 Q398 19 367.5 9 Q337 -1 306 -6.5 Q275 -12 249 -12 Z M308 300 Q377 300 414.5 320.5 Q452 341 452 378 Q452 411 422 430 Q392 449 346 449 Q310 449 277.5 437.5 Q245 426 219 405.5 Q193 385 173 358 Q153 331 141 300 L308 300 Z M221 654 L541 654 L528 591 L209 591 L221 654 Z " />
<glyph glyph-name="Edotaccent" unicode="&#x116;" horiz-adv-x="664" d="M193 687 L696 687 L677 597 L272 597 L232 395 L596 395 L578 305 L211 305 L168 91 L572 91 L553 0 L50 0 L193 687 Z M422 812 Q422 835 439 852 Q456 869 479 869 Q501 869 514.5 854.5 Q528 840 528 820 Q528 797 510 780 Q492 763 471 763 Q448 763 435 777.5 Q422 792 422 812 Z " />
<glyph glyph-name="edotaccent" unicode="&#x117;" horiz-adv-x="555" d="M249 -12 Q201 -12 161.5 4 Q122 20 93.5 48.5 Q65 77 49.5 117 Q34 157 34 205 Q34 270 60.5 328.5 Q87 387 131 431.5 Q175 476 232.5 502.5 Q290 529 352 529 Q390 529 424 519 Q458 509 483.5 490.5 Q509 472 524.5 445.5 Q540 419 540 386 Q540 314 475 270 Q410 226 293 227 L124 227 Q123 223 123 219 Q123 215 123 211 Q123 145 159 106.5 Q195 68 259 68 Q305 68 351.5 86 Q398 104 427 129 L475 66 Q454 48 426 33.5 Q398 19 367.5 9 Q337 -1 306 -6.5 Q275 -12 249 -12 Z M308 300 Q377 300 414.5 320.5 Q452 341 452 378 Q452 411 422 430 Q392 449 346 449 Q310 449 277.5 437.5 Q245 426 219 405.5 Q193 385 173 358 Q153 331 141 300 L308 300 Z M324 642 Q324 665 341 682 Q358 699 381 699 Q403 699 416.5 684.5 Q430 670 430 650 Q430 627 412 610 Q394 593 373 593 Q350 593 337 607.5 Q324 622 324 642 Z " />
<glyph glyph-name="Eogonek" unicode="&#x118;" horiz-adv-x="664" d="M193 687 L696 687 L677 597 L272 597 L232 395 L596 395 L578 305 L211 305 L168 91 L572 91 L553 0 Q521 0 501 -20 Q481 -40 481 -72 Q481 -106 520 -106 Q535 -106 549 -100.5 Q563 -95 572 -86 L596 -146 Q576 -160 554 -166.5 Q532 -173 509 -173 Q465 -173 439.5 -150 Q414 -127 414 -86 Q414 -60 423 -38.5 Q432 -17 449 0 L50 0 L193 687 Z " />
<glyph glyph-name="eogonek" unicode="&#x119;" horiz-adv-x="555" d="M249 -12 Q217 -12 197 -32 Q177 -52 177 -84 Q177 -118 216 -118 Q231 -118 245 -112.5 Q259 -107 268 -98 L292 -158 Q272 -172 250 -178.5 Q228 -185 205 -185 Q161 -185 135.5 -162 Q110 -139 110 -98 Q110 -66 124.5 -39.5 Q139 -13 164 3 Q104 26 69 79 Q34 132 34 205 Q34 270 60.5 328.5 Q87 387 131 431.5 Q175 476 232.5 502.5 Q290 529 352 529 Q390 529 424 519 Q458 509 483.5 490.5 Q509 472 524.5 445.5 Q540 419 540 386 Q540 314 475 270 Q410 226 293 227 L124 227 Q123 223 123 219 Q123 215 123 211 Q123 145 159 106.5 Q195 68 259 68 Q305 68 351.5 86 Q398 104 427 129 L475 66 Q454 48 426 33.5 Q398 19 367.5 9 Q337 -1 306 -6.5 Q275 -12 249 -12 Z M308 300 Q377 300 414.5 320.5 Q452 341 452 378 Q452 411 422 430 Q392 449 346 449 Q310 449 277.5 437.5 Q245 426 219 405.5 Q193 385 173 358 Q153 331 141 300 L308 300 Z " />
<glyph glyph-name="Ecaron" unicode="&#x11a;" horiz-adv-x="664" d="M193 687 L696 687 L677 597 L272 597 L232 395 L596 395 L578 305 L211 305 L168 91 L572 91 L553 0 L50 0 L193 687 Z M412 886 L471 803 L568 886 L637 886 L504 746 L420 746 L348 886 L412 886 Z " />
<glyph glyph-name="ecaron" unicode="&#x11b;" horiz-adv-x="555" d="M249 -12 Q201 -12 161.5 4 Q122 20 93.5 48.5 Q65 77 49.5 117 Q34 157 34 205 Q34 270 60.5 328.5 Q87 387 131 431.5 Q175 476 232.5 502.5 Q290 529 352 529 Q390 529 424 519 Q458 509 483.5 490.5 Q509 472 524.5 445.5 Q540 419 540 386 Q540 314 475 270 Q410 226 293 227 L124 227 Q123 223 123 219 Q123 215 123 211 Q123 145 159 106.5 Q195 68 259 68 Q305 68 351.5 86 Q398 104 427 129 L475 66 Q454 48 426 33.5 Q398 19 367.5 9 Q337 -1 306 -6.5 Q275 -12 249 -12 Z M308 300 Q377 300 414.5 320.5 Q452 341 452 378 Q452 411 422 430 Q392 449 346 449 Q310 449 277.5 437.5 Q245 426 219 405.5 Q193 385 173 358 Q153 331 141 300 L308 300 Z M314 716 L373 633 L470 716 L539 716 L406 576 L322 576 L250 716 L314 716 Z " />
<glyph glyph-name="Gbreve" unicode="&#x11e;" horiz-adv-x="741" d="M355 -12 Q295 -12 241.5 11.5 Q188 35 148 75 Q108 115 85 168.5 Q62 222 62 282 Q62 367 97.5 442.5 Q133 518 193 575 Q253 632 332.5 665.5 Q412 699 499 699 Q533 699 567 691 Q601 683 632.5 668.5 Q664 654 690.5 633.5 Q717 613 736 589 L658 528 Q632 565 583.5 587.5 Q535 610 484 610 Q419 610 360 583.5 Q301 557 256.5 512 Q212 467 186 408 Q160 349 160 283 Q160 241 176.5 203.5 Q193 166 221.5 138 Q250 110 288 93.5 Q326 77 369 77 Q411 77 459 94.5 Q507 112 549 141 L577 281 L391 281 L410 366 L693 366 L636 93 Q608 69 573 50 Q538 31 501 17 Q464 3 426.5 -4.5 Q389 -12 355 -12 Z M429 868 Q445 848 468.5 838 Q492 828 516 828 Q544 828 573 840 Q602 852 626 872 L670 817 Q633 786 591.5 771.5 Q550 757 510 757 Q468 757 432 773 Q396 789 370 820 L429 868 Z " />
<glyph glyph-name="gbreve" unicode="&#x11f;" horiz-adv-x="576" d="M199 -174 Q149 -174 109 -162.5 Q69 -151 43 -130.5 Q17 -110 6 -81 Q-5 -52 3 -17 Q7 4 21.5 24.5 Q36 45 58.5 61.5 Q81 78 110 91 Q139 104 172 110 L193 81 Q155 71 126.5 46.5 Q98 22 91 -12 Q83 -53 119.5 -79 Q156 -105 222 -105 Q252 -105 279.5 -97.5 Q307 -90 329.5 -77 Q352 -64 367 -47 Q382 -30 386 -12 Q395 34 288 49 Q259 54 243.5 56 Q228 58 215 60 Q202 62 186 64.5 Q170 67 140 72 Q91 80 67.5 107 Q44 134 52 175 Q57 198 78 222.5 Q99 247 127 262 L167 225 Q157 218 150 210 Q143 202 141 194 Q135 157 207 147 Q233 143 268.5 137.5 Q304 132 353 124 Q422 113 455 79 Q488 45 477 -9 Q469 -47 445 -77 Q421 -107 384.5 -129 Q348 -151 301 -162.5 Q254 -174 199 -174 Z M269 189 Q224 189 188.5 201.5 Q153 214 130.5 236.5 Q108 259 99 290.5 Q90 322 98 359 Q106 397 127.5 428 Q149 459 181.5 481.5 Q214 504 254.5 516.5 Q295 529 340 529 Q386 529 421 516.5 Q456 504 478.5 481.5 Q501 459 510 428 Q519 397 511 359 Q504 322 482 290.5 Q460 259 428 236.5 Q396 214 355.5 201.5 Q315 189 269 189 Z M285 255 Q337 256 375 285.5 Q413 315 422 361 Q431 407 404 436 Q377 465 325 463 Q273 462 234 432.5 Q195 403 187 357 Q179 311 206 282 Q233 253 285 255 Z M457 439 L405 520 Q423 516 440 515 Q457 514 473 514 Q483 514 498.5 514.5 Q514 515 530.5 515.5 Q547 516 563 516.5 Q579 517 589 517 L573 436 L457 439 Z M358 587 Q316 587 280 603 Q244 619 218 650 L277 698 Q293 678 316.5 668 Q340 658 364 658 Q392 658 421 670 Q450 682 474 702 L518 647 Q481 616 439.5 601.5 Q398 587 358 587 Z " />
<glyph glyph-name="uni0122" unicode="&#x122;" horiz-adv-x="741" d="M355 -12 Q295 -12 241.5 11.5 Q188 35 148 75 Q108 115 85 168.5 Q62 222 62 282 Q62 367 97.5 442.5 Q133 518 193 575 Q253 632 332.5 665.5 Q412 699 499 699 Q533 699 567 691 Q601 683 632.5 668.5 Q664 654 690.5 633.5 Q717 613 736 589 L658 528 Q632 565 583.5 587.5 Q535 610 484 610 Q419 610 360 583.5 Q301 557 256.5 512 Q212 467 186 408 Q160 349 160 283 Q160 241 176.5 203.5 Q193 166 221.5 138 Q250 110 288 93.5 Q326 77 369 77 Q411 77 459 94.5 Q507 112 549 141 L577 281 L391 281 L410 366 L693 366 L636 93 Q608 69 573 50 Q538 31 501 17 Q464 3 426.5 -4.5 Q389 -12 355 -12 Z M253 -252 Q295 -215 319 -173 Q299 -175 287.5 -162 Q276 -149 276 -129 Q276 -107 292.5 -89.5 Q309 -72 332 -72 Q356 -72 369 -88.5 Q382 -105 382 -131 Q382 -173 355 -207 Q328 -241 286 -282 L253 -252 Z " />
<glyph glyph-name="uni0123" unicode="&#x123;" horiz-adv-x="578" d="M199 -174 Q149 -174 109 -162.5 Q69 -151 43 -130.5 Q17 -110 6 -81 Q-5 -52 3 -17 Q7 4 21.5 24.5 Q36 45 58.5 61.5 Q81 78 110 91 Q139 104 172 110 L193 81 Q155 71 126.5 46.5 Q98 22 91 -12 Q83 -53 119.5 -79 Q156 -105 222 -105 Q252 -105 279.5 -97.5 Q307 -90 329.5 -77 Q352 -64 367 -47 Q382 -30 386 -12 Q395 34 288 49 Q259 54 243.5 56 Q228 58 215 60 Q202 62 186 64.5 Q170 67 140 72 Q91 80 67.5 107 Q44 134 52 175 Q57 198 78 222.5 Q99 247 127 262 L167 225 Q157 218 150 210 Q143 202 141 194 Q135 157 207 147 Q233 143 268.5 137.5 Q304 132 353 124 Q422 113 455 79 Q488 45 477 -9 Q469 -47 445 -77 Q421 -107 384.5 -129 Q348 -151 301 -162.5 Q254 -174 199 -174 Z M269 189 Q224 189 188.5 201.5 Q153 214 130.5 236.5 Q108 259 99 290.5 Q90 322 98 359 Q106 397 127.5 428 Q149 459 181.5 481.5 Q214 504 254.5 516.5 Q295 529 340 529 Q386 529 421 516.5 Q456 504 478.5 481.5 Q501 459 510 428 Q519 397 511 359 Q504 322 482 290.5 Q460 259 428 236.5 Q396 214 355.5 201.5 Q315 189 269 189 Z M285 255 Q337 256 375 285.5 Q413 315 422 361 Q431 407 404 436 Q377 465 325 463 Q273 462 234 432.5 Q195 403 187 357 Q179 311 206 282 Q233 253 285 255 Z M457 439 L405 520 Q423 516 440 515 Q457 514 473 514 Q483 514 498.5 514.5 Q514 515 530.5 515.5 Q547 516 563 516.5 Q579 517 589 517 L573 436 L457 439 Z M440 775 Q398 738 374 696 Q394 698 405.5 685 Q417 672 417 652 Q417 630 400.5 612.5 Q384 595 361 595 Q337 595 324 611.5 Q311 628 311 654 Q311 696 338 730 Q365 764 407 805 L440 775 Z " />
<glyph glyph-name="Imacron" unicode="&#x12a;" horiz-adv-x="425" d="M40 94 L130 94 L233 593 L145 593 L164 687 L439 687 L420 593 L330 593 L227 94 L315 94 L296 0 L21 0 L40 94 Z M174 824 L494 824 L481 761 L162 761 L174 824 Z " />
<glyph glyph-name="imacron" unicode="&#x12b;" horiz-adv-x="261" d="M137 517 L232 517 L124 0 L29 0 L137 517 Z M55 654 L375 654 L362 591 L43 591 L55 654 Z " />
<glyph glyph-name="Iogonek" unicode="&#x12e;" horiz-adv-x="425" d="M164 687 L439 687 L420 593 L330 593 L227 94 L315 94 L296 0 L209 0 Q177 0 157 -20 Q137 -40 137 -72 Q137 -106 176 -106 Q191 -106 205 -100.5 Q219 -95 228 -86 L252 -146 Q232 -160 210 -166.5 Q188 -173 165 -173 Q121 -173 95.5 -150 Q70 -127 70 -86 Q70 -60 79 -38.5 Q88 -17 105 0 L21 0 L40 94 L130 94 L233 593 L145 593 L164 687 Z " />
<glyph glyph-name="iogonek" unicode="&#x12f;" horiz-adv-x="261" d="M80 -173 Q36 -173 10.5 -150 Q-15 -127 -15 -86 Q-15 -56 -2.5 -31.5 Q10 -7 31 10 L137 517 L232 517 L124 0 Q92 0 72 -20 Q52 -40 52 -72 Q52 -106 91 -106 Q106 -106 120 -100.5 Q134 -95 143 -86 L167 -146 Q147 -160 125 -166.5 Q103 -173 80 -173 Z M159 642 Q159 665 176 682 Q193 699 216 699 Q238 699 251.5 684.5 Q265 670 265 650 Q265 627 247 610 Q229 593 208 593 Q185 593 172 607.5 Q159 622 159 642 Z " />
<glyph glyph-name="Idotaccent" unicode="&#x130;" horiz-adv-x="425" d="M40 94 L130 94 L233 593 L145 593 L164 687 L439 687 L420 593 L330 593 L227 94 L315 94 L296 0 L21 0 L40 94 Z M277 812 Q277 835 294 852 Q311 869 334 869 Q356 869 369.5 854.5 Q383 840 383 820 Q383 797 365 780 Q347 763 326 763 Q303 763 290 777.5 Q277 792 277 812 Z " />
<glyph glyph-name="dotlessi" unicode="&#x131;" horiz-adv-x="261" d="M137 517 L232 517 L124 0 L29 0 L137 517 Z " />
<glyph glyph-name="uni0136" unicode="&#x136;" horiz-adv-x="692" d="M193 687 L290 687 L215 330 L615 687 L744 687 L395 377 L617 0 L498 0 L316 310 L191 202 L147 0 L50 0 L193 687 Z M215 -252 Q257 -215 281 -173 Q261 -175 249.5 -162 Q238 -149 238 -129 Q238 -107 254.5 -89.5 Q271 -72 294 -72 Q318 -72 331 -88.5 Q344 -105 344 -131 Q344 -173 317 -207 Q290 -241 248 -282 L215 -252 Z " />
<glyph glyph-name="uni0137" unicode="&#x137;" horiz-adv-x="558" d="M173 699 L268 699 L176 252 L485 517 L603 517 L329 282 L483 0 L372 0 L253 219 L151 135 L123 0 L28 0 L173 699 Z M134 -252 Q176 -215 200 -173 Q180 -175 168.5 -162 Q157 -149 157 -129 Q157 -107 173.5 -89.5 Q190 -72 213 -72 Q237 -72 250 -88.5 Q263 -105 263 -131 Q263 -173 236 -207 Q209 -241 167 -282 L134 -252 Z " />
<glyph glyph-name="Lacute" unicode="&#x139;" horiz-adv-x="590" d="M193 687 L290 687 L168 91 L532 91 L513 0 L50 0 L193 687 Z M367 893 L459 873 L289 746 L217 746 L367 893 Z " />
<glyph glyph-name="lacute" unicode="&#x13a;" horiz-adv-x="266" d="M163 -12 Q104 -12 74 27.5 Q44 67 57 129 L175 699 L270 699 L153 133 Q147 105 158.5 87.5 Q170 70 193 70 L163 -12 Z M335 905 L427 885 L257 758 L185 758 L335 905 Z " />
<glyph glyph-name="Lcaron" unicode="&#x13d;" horiz-adv-x="590" d="M193 687 L290 687 L168 91 L532 91 L513 0 L50 0 L193 687 Z M328 519 Q370 556 394 598 Q374 596 362.5 609 Q351 622 351 642 Q351 664 367.5 681.5 Q384 699 407 699 Q431 699 444 682.5 Q457 666 457 640 Q457 598 430 564 Q403 530 361 489 L328 519 Z " />
<glyph glyph-name="lcaron" unicode="&#x13e;" horiz-adv-x="266" d="M163 -12 Q104 -12 74 27.5 Q44 67 57 129 L175 699 L270 699 L153 133 Q147 105 158.5 87.5 Q170 70 193 70 L163 -12 Z M307 519 Q349 556 373 598 Q353 596 341.5 609 Q330 622 330 642 Q330 664 346.5 681.5 Q363 699 386 699 Q410 699 423 682.5 Q436 666 436 640 Q436 598 409 564 Q382 530 340 489 L307 519 Z " />
<glyph glyph-name="Lslash" unicode="&#x141;" horiz-adv-x="679" d="M68 315 L194 373 L259 687 L356 687 L302 423 L411 473 L394 383 L283 332 L234 91 L598 91 L579 0 L116 0 L175 282 L51 225 L68 315 Z " />
<glyph glyph-name="lslash" unicode="&#x142;" horiz-adv-x="333" d="M52 315 L148 359 L218 699 L313 699 L253 408 L331 444 L314 353 L234 316 L196 133 Q190 105 201.5 87.5 Q213 70 236 70 L206 -12 Q147 -12 117 27.5 Q87 67 100 129 L129 268 L35 225 L52 315 Z " />
<glyph glyph-name="Nacute" unicode="&#x143;" horiz-adv-x="802" d="M193 687 L289 687 L579 160 L690 687 L787 687 L644 0 L549 0 L259 527 L147 0 L50 0 L193 687 Z M616 893 L708 873 L538 746 L466 746 L616 893 Z " />
<glyph glyph-name="nacute" unicode="&#x144;" horiz-adv-x="607" d="M137 517 L232 517 L217 445 Q248 483 295 506 Q342 529 393 529 Q468 529 511.5 485.5 Q555 442 555 373 Q555 359 552.5 342.5 Q550 326 542.5 288.5 Q535 251 520.5 183.5 Q506 116 482 0 L389 0 Q413 114 427 179.5 Q441 245 448 280.5 Q455 316 457 329.5 Q459 343 459 354 Q459 397 435 422 Q411 447 369 447 Q338 447 308 436.5 Q278 426 253.5 408 Q229 390 212.5 367 Q196 344 191 319 L191 320 L124 0 L29 0 L137 517 Z M383 723 L475 703 L305 576 L233 576 L383 723 Z " />
<glyph glyph-name="uni0145" unicode="&#x145;" horiz-adv-x="802" d="M193 687 L289 687 L579 160 L690 687 L787 687 L644 0 L549 0 L259 527 L147 0 L50 0 L193 687 Z M247 -252 Q289 -215 313 -173 Q293 -175 281.5 -162 Q270 -149 270 -129 Q270 -107 286.5 -89.5 Q303 -72 326 -72 Q350 -72 363 -88.5 Q376 -105 376 -131 Q376 -173 349 -207 Q322 -241 280 -282 L247 -252 Z " />
<glyph glyph-name="uni0146" unicode="&#x146;" horiz-adv-x="607" d="M137 517 L232 517 L217 445 Q248 483 295 506 Q342 529 393 529 Q468 529 511.5 485.5 Q555 442 555 373 Q555 359 552.5 342.5 Q550 326 542.5 288.5 Q535 251 520.5 183.5 Q506 116 482 0 L389 0 Q413 114 427 179.5 Q441 245 448 280.5 Q455 316 457 329.5 Q459 343 459 354 Q459 397 435 422 Q411 447 369 447 Q338 447 308 436.5 Q278 426 253.5 408 Q229 390 212.5 367 Q196 344 191 319 L191 320 L124 0 L29 0 L137 517 Z M51 -252 Q93 -215 117 -173 Q97 -175 85.5 -162 Q74 -149 74 -129 Q74 -107 90.5 -89.5 Q107 -72 130 -72 Q154 -72 167 -88.5 Q180 -105 180 -131 Q180 -173 153 -207 Q126 -241 84 -282 L51 -252 Z " />
<glyph glyph-name="Ncaron" unicode="&#x147;" horiz-adv-x="802" d="M193 687 L289 687 L579 160 L690 687 L787 687 L644 0 L549 0 L259 527 L147 0 L50 0 L193 687 Z M453 886 L512 803 L609 886 L678 886 L545 746 L461 746 L389 886 L453 886 Z " />
<glyph glyph-name="ncaron" unicode="&#x148;" horiz-adv-x="607" d="M137 517 L232 517 L217 445 Q248 483 295 506 Q342 529 393 529 Q468 529 511.5 485.5 Q555 442 555 373 Q555 359 552.5 342.5 Q550 326 542.5 288.5 Q535 251 520.5 183.5 Q506 116 482 0 L389 0 Q413 114 427 179.5 Q441 245 448 280.5 Q455 316 457 329.5 Q459 343 459 354 Q459 397 435 422 Q411 447 369 447 Q338 447 308 436.5 Q278 426 253.5 408 Q229 390 212.5 367 Q196 344 191 319 L191 320 L124 0 L29 0 L137 517 Z M220 716 L279 633 L376 716 L445 716 L312 576 L228 576 L156 716 L220 716 Z " />
<glyph glyph-name="Omacron" unicode="&#x14c;" horiz-adv-x="816" d="M354 -12 Q290 -12 236.5 9.5 Q183 31 145 69.5 Q107 108 85.5 161.5 Q64 215 64 279 Q64 366 98 442.5 Q132 519 191 576 Q250 633 329 666 Q408 699 497 699 Q562 699 615.5 677.5 Q669 656 707 617.5 Q745 579 766.5 525.5 Q788 472 788 408 Q788 321 754 244.5 Q720 168 661 111 Q602 54 523 21 Q444 -12 354 -12 Z M163 285 Q163 239 178 201 Q193 163 220 135.5 Q247 108 285 92.5 Q323 77 369 77 Q435 77 493.5 103 Q552 129 595.5 173.5 Q639 218 664 278 Q689 338 689 405 Q689 450 674 487.5 Q659 525 632 552.5 Q605 580 567 595 Q529 610 484 610 Q418 610 359.5 584.5 Q301 559 257.5 514.5 Q214 470 188.5 411 Q163 352 163 285 Z M376 824 L696 824 L683 761 L364 761 L376 824 Z " />
<glyph glyph-name="omacron" unicode="&#x14d;" horiz-adv-x="626" d="M257 -12 Q212 -12 172 5.5 Q132 23 102 53 Q72 83 54.5 123.5 Q37 164 37 210 Q37 275 63 333 Q89 391 134 434.5 Q179 478 238.5 503.5 Q298 529 365 529 Q411 529 452 511.5 Q493 494 523.5 464 Q554 434 571.5 393.5 Q589 353 589 307 Q589 242 562.5 184 Q536 126 491 82.5 Q446 39 385.5 13.5 Q325 -12 257 -12 Z M132 215 Q132 185 143 159 Q154 133 173 113.5 Q192 94 217 82.5 Q242 71 270 71 Q316 71 356.5 89.5 Q397 108 427.5 139.5 Q458 171 476 212.5 Q494 254 494 301 Q494 331 483 357.5 Q472 384 452.5 404 Q433 424 407 435.5 Q381 447 352 447 Q307 447 267 428.5 Q227 410 197 378.5 Q167 347 149.5 304.5 Q132 262 132 215 Z M232 654 L552 654 L539 591 L220 591 L232 654 Z " />
<glyph glyph-name="Ohungarumlaut" unicode="&#x150;" horiz-adv-x="816" d="M354 -12 Q290 -12 236.5 9.5 Q183 31 145 69.5 Q107 108 85.5 161.5 Q64 215 64 279 Q64 366 98 442.5 Q132 519 191 576 Q250 633 329 666 Q408 699 497 699 Q562 699 615.5 677.5 Q669 656 707 617.5 Q745 579 766.5 525.5 Q788 472 788 408 Q788 321 754 244.5 Q720 168 661 111 Q602 54 523 21 Q444 -12 354 -12 Z M163 285 Q163 239 178 201 Q193 163 220 135.5 Q247 108 285 92.5 Q323 77 369 77 Q435 77 493.5 103 Q552 129 595.5 173.5 Q639 218 664 278 Q689 338 689 405 Q689 450 674 487.5 Q659 525 632 552.5 Q605 580 567 595 Q529 610 484 610 Q418 610 359.5 584.5 Q301 559 257.5 514.5 Q214 470 188.5 411 Q163 352 163 285 Z M531 893 L623 873 L453 746 L381 746 L531 893 Z M741 891 L833 872 L663 746 L591 746 L741 891 Z " />
<glyph glyph-name="ohungarumlaut" unicode="&#x151;" horiz-adv-x="642" d="M257 -12 Q212 -12 172 5.5 Q132 23 102 53 Q72 83 54.5 123.5 Q37 164 37 210 Q37 275 63 333 Q89 391 134 434.5 Q179 478 238.5 503.5 Q298 529 365 529 Q411 529 452 511.5 Q493 494 523.5 464 Q554 434 571.5 393.5 Q589 353 589 307 Q589 242 562.5 184 Q536 126 491 82.5 Q446 39 385.5 13.5 Q325 -12 257 -12 Z M132 215 Q132 185 143 159 Q154 133 173 113.5 Q192 94 217 82.5 Q242 71 270 71 Q316 71 356.5 89.5 Q397 108 427.5 139.5 Q458 171 476 212.5 Q494 254 494 301 Q494 331 483 357.5 Q472 384 452.5 404 Q433 424 407 435.5 Q381 447 352 447 Q307 447 267 428.5 Q227 410 197 378.5 Q167 347 149.5 304.5 Q132 262 132 215 Z M361 723 L453 703 L283 576 L211 576 L361 723 Z M571 721 L663 702 L493 576 L421 576 L571 721 Z " />
<glyph glyph-name="OE" unicode="&#x152;" horiz-adv-x="1059" d="M74 274 Q74 356 111 430.5 Q148 505 209 562 Q270 619 347 653 Q424 687 505 687 L1084 687 L1066 597 L660 597 L620 395 L985 395 L966 305 L600 305 L557 91 L961 91 L941 0 L369 0 Q306 0 252 20 Q198 40 158.5 76.5 Q119 113 96.5 163.5 Q74 214 74 274 Z M172 277 Q172 235 187.5 200 Q203 165 231 140.5 Q259 116 297.5 102.5 Q336 89 381 89 L457 89 L563 598 L493 598 Q433 598 375 570.5 Q317 543 272 498 Q227 453 199.5 395 Q172 337 172 277 Z " />
<glyph glyph-name="oe" unicode="&#x153;" horiz-adv-x="1022" d="M257 -12 Q212 -12 172 5.5 Q132 23 102 53 Q72 83 54.5 123.5 Q37 164 37 210 Q37 275 63 333 Q89 391 134 434.5 Q179 478 238.5 503.5 Q298 529 365 529 Q429 529 481.5 496.5 Q534 464 563 411 Q608 465 671 497 Q734 529 803 529 Q841 529 875 519 Q909 509 934.5 490.5 Q960 472 975.5 445.5 Q991 419 991 386 Q991 314 926 270 Q861 226 744 227 L578 227 L574 214 L574 211 Q574 145 610 106.5 Q646 68 710 68 Q756 68 802.5 86 Q849 104 878 129 L926 66 Q905 48 877 33.5 Q849 19 818.5 9 Q788 -1 757 -6.5 Q726 -12 700 -12 Q634 -12 584 18 Q534 48 508 100 Q462 49 397 18.5 Q332 -12 257 -12 Z M132 215 Q132 185 143 159 Q154 133 173 113.5 Q192 94 217 82.5 Q242 71 270 71 Q310 71 346 85 Q382 99 411 123.5 Q440 148 460.5 181 Q481 214 489 253 L491 266 Q494 283 494 301 Q494 331 483 357.5 Q472 384 452.5 404 Q433 424 407 435.5 Q381 447 352 447 Q307 447 267 428.5 Q227 410 197 378.5 Q167 347 149.5 304.5 Q132 262 132 215 Z M759 300 Q828 300 865.5 320.5 Q903 341 903 378 Q903 411 873 430 Q843 449 797 449 Q761 449 728.5 437.5 Q696 426 670 405.5 Q644 385 624 358 Q604 331 592 300 L759 300 Z " />
<glyph glyph-name="Racute" unicode="&#x154;" horiz-adv-x="668" d="M333 240 L198 240 L147 0 L50 0 L193 687 L439 687 Q487 687 526.5 673 Q566 659 594.5 634 Q623 609 639 574.5 Q655 540 655 498 Q655 455 638.5 415 Q622 375 592.5 343 Q563 311 522.5 287 Q482 263 435 251 L587 0 L479 0 L333 240 Z M363 331 Q402 331 437.5 344 Q473 357 499.5 379.5 Q526 402 541.5 431.5 Q557 461 557 494 Q557 539 519 567.5 Q481 596 419 596 L272 596 L216 331 L363 331 Z M558 893 L650 873 L480 746 L408 746 L558 893 Z " />
<glyph glyph-name="racute" unicode="&#x155;" horiz-adv-x="385" d="M137 517 L232 517 L212 421 Q246 472 301.5 500.5 Q357 529 425 529 L414 447 Q372 447 334.5 434.5 Q297 422 266.5 400.5 Q236 379 214 349 Q192 319 183 283 L124 0 L29 0 L137 517 Z M399 723 L491 703 L321 576 L249 576 L399 723 Z " />
<glyph glyph-name="uni0156" unicode="&#x156;" horiz-adv-x="668" d="M333 240 L198 240 L147 0 L50 0 L193 687 L439 687 Q487 687 526.5 673 Q566 659 594.5 634 Q623 609 639 574.5 Q655 540 655 498 Q655 455 638.5 415 Q622 375 592.5 343 Q563 311 522.5 287 Q482 263 435 251 L587 0 L479 0 L333 240 Z M191 -252 Q233 -215 257 -173 Q237 -175 225.5 -162 Q214 -149 214 -129 Q214 -107 230.5 -89.5 Q247 -72 270 -72 Q294 -72 307 -88.5 Q320 -105 320 -131 Q320 -173 293 -207 Q266 -241 224 -282 L191 -252 Z M363 331 Q402 331 437.5 344 Q473 357 499.5 379.5 Q526 402 541.5 431.5 Q557 461 557 494 Q557 539 519 567.5 Q481 596 419 596 L272 596 L216 331 L363 331 Z " />
<glyph glyph-name="uni0157" unicode="&#x157;" horiz-adv-x="385" d="M137 517 L232 517 L212 421 Q246 472 301.5 500.5 Q357 529 425 529 L414 447 Q372 447 334.5 434.5 Q297 422 266.5 400.5 Q236 379 214 349 Q192 319 183 283 L124 0 L29 0 L137 517 Z M65 -252 Q107 -215 131 -173 Q111 -175 99.5 -162 Q88 -149 88 -129 Q88 -107 104.5 -89.5 Q121 -72 144 -72 Q168 -72 181 -88.5 Q194 -105 194 -131 Q194 -173 167 -207 Q140 -241 98 -282 L65 -252 Z " />
<glyph glyph-name="Rcaron" unicode="&#x158;" horiz-adv-x="668" d="M333 240 L198 240 L147 0 L50 0 L193 687 L439 687 Q487 687 526.5 673 Q566 659 594.5 634 Q623 609 639 574.5 Q655 540 655 498 Q655 455 638.5 415 Q622 375 592.5 343 Q563 311 522.5 287 Q482 263 435 251 L587 0 L479 0 L333 240 Z M363 331 Q402 331 437.5 344 Q473 357 499.5 379.5 Q526 402 541.5 431.5 Q557 461 557 494 Q557 539 519 567.5 Q481 596 419 596 L272 596 L216 331 L363 331 Z M395 886 L454 803 L551 886 L620 886 L487 746 L403 746 L331 886 L395 886 Z " />
<glyph glyph-name="rcaron" unicode="&#x159;" horiz-adv-x="385" d="M137 517 L232 517 L212 421 Q246 472 301.5 500.5 Q357 529 425 529 L414 447 Q372 447 334.5 434.5 Q297 422 266.5 400.5 Q236 379 214 349 Q192 319 183 283 L124 0 L29 0 L137 517 Z M236 716 L295 633 L392 716 L461 716 L328 576 L244 576 L172 716 L236 716 Z " />
<glyph glyph-name="Sacute" unicode="&#x15a;" horiz-adv-x="619" d="M270 -11 Q233 -11 195.5 -3 Q158 5 123.5 20 Q89 35 59 56 Q29 77 8 102 L78 169 Q113 126 168.5 100.5 Q224 75 278 75 Q319 75 352 85 Q385 95 409 113 Q433 131 446 155.5 Q459 180 459 209 Q459 241 426 262 Q393 283 313 303 Q210 328 161 363.5 Q112 399 112 464 Q112 515 132.5 558.5 Q153 602 189.5 633.5 Q226 665 277 682.5 Q328 700 389 700 Q420 700 452.5 693 Q485 686 515.5 672.5 Q546 659 573 641 Q600 623 621 600 L554 531 Q521 569 472.5 591.5 Q424 614 380 614 Q343 614 312 604 Q281 594 258.5 576.5 Q236 559 224 535.5 Q212 512 212 484 Q212 453 246 432.5 Q280 412 359 392 Q466 367 512.5 328.5 Q559 290 559 225 Q559 173 537.5 129.5 Q516 86 477.5 55 Q439 24 386 6.5 Q333 -11 270 -11 Z M527 893 L619 873 L449 746 L377 746 L527 893 Z " />
<glyph glyph-name="sacute" unicode="&#x15b;" horiz-adv-x="482" d="M199 -12 Q140 -12 85.5 9 Q31 30 -9 68 L45 128 Q79 99 121.5 82.5 Q164 66 203 66 Q229 66 252.5 73.5 Q276 81 293 93 Q310 105 320 121.5 Q330 138 330 156 Q330 176 308 192 Q286 208 231 225 Q152 247 114 274.5 Q76 302 76 350 Q76 390 92 423 Q108 456 137 479.5 Q166 503 205.5 516 Q245 529 291 529 Q339 529 387 512.5 Q435 496 473 467 L423 404 Q394 426 357.5 438.5 Q321 451 288 451 Q236 451 202 427 Q168 403 168 367 Q168 350 191.5 335 Q215 320 272 300 Q348 277 385 248.5 Q422 220 422 170 Q422 132 404.5 99 Q387 66 356.5 41 Q326 16 285.5 2 Q245 -12 199 -12 Z M425 723 L517 703 L347 576 L275 576 L425 723 Z " />
<glyph glyph-name="Scedilla" unicode="&#x15e;" horiz-adv-x="619" d="M214 -193 Q185 -193 162 -184 Q139 -175 125 -163 L151 -121 Q163 -133 177.5 -137.5 Q192 -142 206 -142 Q236 -142 253 -131 Q270 -120 270 -101 Q270 -89 262.5 -81.5 Q255 -74 244 -74 Q224 -74 206 -87 L189 -66 L224 -8 Q161 1 102.5 30 Q44 59 8 102 L78 169 Q113 126 168.5 100.5 Q224 75 278 75 Q319 75 352 85 Q385 95 409 113 Q433 131 446 155.5 Q459 180 459 209 Q459 241 426 262 Q393 283 313 303 Q210 328 161 363.5 Q112 399 112 464 Q112 515 132.5 558.5 Q153 602 189.5 633.5 Q226 665 277 682.5 Q328 700 389 700 Q420 700 452.5 693 Q485 686 515.5 672.5 Q546 659 573 641 Q600 623 621 600 L554 531 Q521 569 472.5 591.5 Q424 614 380 614 Q343 614 312 604 Q281 594 258.5 576.5 Q236 559 224 535.5 Q212 512 212 484 Q212 453 246 432.5 Q280 412 359 392 Q466 367 512.5 328.5 Q559 290 559 225 Q559 174 538.5 131.5 Q518 89 481.5 58 Q445 27 394 9 Q343 -9 283 -11 L261 -45 L262 -45 Q291 -45 308 -60.5 Q325 -76 325 -102 Q325 -123 316 -140 Q307 -157 291.5 -168.5 Q276 -180 256 -186.5 Q236 -193 214 -193 Z " />
<glyph glyph-name="scedilla" unicode="&#x15f;" horiz-adv-x="482" d="M144 -193 Q115 -193 92 -184 Q69 -175 55 -163 L81 -121 Q93 -133 107.5 -137.5 Q122 -142 136 -142 Q166 -142 183 -131 Q200 -120 200 -101 Q200 -89 192.5 -81.5 Q185 -74 174 -74 Q154 -74 136 -87 L119 -66 L154 -9 Q107 -2 65 18 Q23 38 -9 68 L45 128 Q79 99 121.5 82.5 Q164 66 203 66 Q229 66 252.5 73.5 Q276 81 293 93 Q310 105 320 121.5 Q330 138 330 156 Q330 176 308 192 Q286 208 231 225 Q152 247 114 274.5 Q76 302 76 350 Q76 390 92 423 Q108 456 137 479.5 Q166 503 205.5 516 Q245 529 291 529 Q339 529 387 512.5 Q435 496 473 467 L423 404 Q394 426 357.5 438.5 Q321 451 288 451 Q236 451 202 427 Q168 403 168 367 Q168 350 191.5 335 Q215 320 272 300 Q348 277 385 248.5 Q422 220 422 170 Q422 134 405.5 101.5 Q389 69 360.5 44.5 Q332 20 294 5 Q256 -10 213 -12 L191 -45 L192 -45 Q221 -45 238 -60.5 Q255 -76 255 -102 Q255 -123 246 -140 Q237 -157 221.5 -168.5 Q206 -180 186 -186.5 Q166 -193 144 -193 Z " />
<glyph glyph-name="Scaron" unicode="&#x160;" horiz-adv-x="619" d="M270 -11 Q233 -11 195.5 -3 Q158 5 123.5 20 Q89 35 59 56 Q29 77 8 102 L78 169 Q113 126 168.5 100.5 Q224 75 278 75 Q319 75 352 85 Q385 95 409 113 Q433 131 446 155.5 Q459 180 459 209 Q459 241 426 262 Q393 283 313 303 Q210 328 161 363.5 Q112 399 112 464 Q112 515 132.5 558.5 Q153 602 189.5 633.5 Q226 665 277 682.5 Q328 700 389 700 Q420 700 452.5 693 Q485 686 515.5 672.5 Q546 659 573 641 Q600 623 621 600 L554 531 Q521 569 472.5 591.5 Q424 614 380 614 Q343 614 312 604 Q281 594 258.5 576.5 Q236 559 224 535.5 Q212 512 212 484 Q212 453 246 432.5 Q280 412 359 392 Q466 367 512.5 328.5 Q559 290 559 225 Q559 173 537.5 129.5 Q516 86 477.5 55 Q439 24 386 6.5 Q333 -11 270 -11 Z M364 886 L423 803 L520 886 L589 886 L456 746 L372 746 L300 886 L364 886 Z " />
<glyph glyph-name="scaron" unicode="&#x161;" horiz-adv-x="482" d="M199 -12 Q140 -12 85.5 9 Q31 30 -9 68 L45 128 Q79 99 121.5 82.5 Q164 66 203 66 Q229 66 252.5 73.5 Q276 81 293 93 Q310 105 320 121.5 Q330 138 330 156 Q330 176 308 192 Q286 208 231 225 Q152 247 114 274.5 Q76 302 76 350 Q76 390 92 423 Q108 456 137 479.5 Q166 503 205.5 516 Q245 529 291 529 Q339 529 387 512.5 Q435 496 473 467 L423 404 Q394 426 357.5 438.5 Q321 451 288 451 Q236 451 202 427 Q168 403 168 367 Q168 350 191.5 335 Q215 320 272 300 Q348 277 385 248.5 Q422 220 422 170 Q422 132 404.5 99 Q387 66 356.5 41 Q326 16 285.5 2 Q245 -12 199 -12 Z M262 716 L321 633 L418 716 L487 716 L354 576 L270 576 L198 716 L262 716 Z " />
<glyph glyph-name="uni0162" unicode="&#x162;" horiz-adv-x="592" d="M318 597 L91 597 L110 687 L660 687 L641 597 L415 597 L291 0 L263 0 L234 -45 L235 -45 Q264 -45 281 -60.5 Q298 -76 298 -102 Q298 -123 289 -140 Q280 -157 264.5 -168.5 Q249 -180 229 -186.5 Q209 -193 187 -193 Q158 -193 135 -184 Q112 -175 98 -163 L124 -121 Q136 -133 150.5 -137.5 Q165 -142 179 -142 Q209 -142 226 -131 Q243 -120 243 -101 Q243 -89 235.5 -81.5 Q228 -74 217 -74 Q197 -74 179 -87 L162 -66 L202 0 L193 0 L318 597 Z " />
<glyph glyph-name="uni0163" unicode="&#x163;" horiz-adv-x="357" d="M73 517 L152 517 L182 659 L275 659 L245 517 L368 517 L351 436 L229 436 Q216 374 204 317 Q192 260 183 215.5 Q174 171 168.5 143.5 Q163 116 163 113 Q163 93 172.5 82 Q182 71 199 71 Q219 71 235.5 78 Q252 85 260 93 L288 22 Q270 9 250.5 1.5 Q231 -6 211 -9 L188 -45 L189 -45 Q218 -45 235 -60.5 Q252 -76 252 -102 Q252 -123 243 -140 Q234 -157 218.5 -168.5 Q203 -180 183 -186.5 Q163 -193 141 -193 Q112 -193 89 -184 Q66 -175 52 -163 L78 -121 Q90 -133 104.5 -137.5 Q119 -142 133 -142 Q163 -142 180 -131 Q197 -120 197 -101 Q197 -89 189.5 -81.5 Q182 -74 171 -74 Q151 -74 133 -87 L116 -66 L151 -9 Q112 0 90 28.5 Q68 57 68 99 Q68 108 70 120.5 Q72 133 78.5 166 Q85 199 98.5 262 Q112 325 135 436 L56 436 L73 517 Z " />
<glyph glyph-name="Tcaron" unicode="&#x164;" horiz-adv-x="592" d="M318 597 L91 597 L110 687 L660 687 L641 597 L415 597 L291 0 L193 0 L318 597 Z M348 886 L407 803 L504 886 L573 886 L440 746 L356 746 L284 886 L348 886 Z " />
<glyph glyph-name="tcaron" unicode="&#x165;" horiz-adv-x="357" d="M181 -12 Q129 -12 98.5 19 Q68 50 68 99 Q68 108 70 120.5 Q72 133 78.5 166 Q85 199 98.5 262 Q112 325 135 436 L56 436 L73 517 L152 517 L182 659 L275 659 L245 517 L368 517 L351 436 L229 436 Q216 374 204 317 Q192 260 183 215.5 Q174 171 168.5 143.5 Q163 116 163 113 Q163 93 172.5 82 Q182 71 199 71 Q219 71 235.5 78 Q252 85 260 93 L288 22 Q263 5 235.5 -3.5 Q208 -12 181 -12 Z M463 519 Q505 556 529 598 Q509 596 497.5 609 Q486 622 486 642 Q486 664 502.5 681.5 Q519 699 542 699 Q566 699 579 682.5 Q592 666 592 640 Q592 598 565 564 Q538 530 496 489 L463 519 Z " />
<glyph glyph-name="Umacron" unicode="&#x16a;" horiz-adv-x="756" d="M324 -12 Q259 -12 209 10.5 Q159 33 128.5 73.5 Q98 114 87.5 170 Q77 226 91 292 L173 687 L270 687 L187 286 Q177 240 183.5 201.5 Q190 163 210 135 Q230 107 262.5 92 Q295 77 338 77 Q382 77 421.5 93 Q461 109 493.5 138 Q526 167 548.5 207 Q571 247 581 294 L663 687 L760 687 L677 285 Q663 219 630 164.5 Q597 110 550.5 71 Q504 32 446 10 Q388 -12 324 -12 Z M333 824 L653 824 L640 761 L321 761 L333 824 Z " />
<glyph glyph-name="umacron" unicode="&#x16b;" horiz-adv-x="607" d="M470 0 L375 0 L390 72 Q359 34 312 11 Q265 -12 214 -12 Q139 -12 95.5 31.5 Q52 75 53 144 Q53 158 55.5 174.5 Q58 191 65.5 228.5 Q73 266 87.5 333.5 Q102 401 126 517 L219 517 Q195 403 180.5 337.5 Q166 272 159 236.5 Q152 201 150 187.5 Q148 174 148 163 Q148 120 172 95 Q196 70 238 70 Q268 70 296 79.5 Q324 89 348 105 Q372 121 389.5 142 Q407 163 414 187 L483 517 L578 517 L470 0 Z M206 654 L526 654 L513 591 L194 591 L206 654 Z " />
<glyph glyph-name="Uring" unicode="&#x16e;" horiz-adv-x="756" d="M324 -12 Q259 -12 209 10.5 Q159 33 128.5 73.5 Q98 114 87.5 170 Q77 226 91 292 L173 687 L270 687 L187 286 Q177 240 183.5 201.5 Q190 163 210 135 Q230 107 262.5 92 Q295 77 338 77 Q382 77 421.5 93 Q461 109 493.5 138 Q526 167 548.5 207 Q571 247 581 294 L663 687 L760 687 L677 285 Q663 219 630 164.5 Q597 110 550.5 71 Q504 32 446 10 Q388 -12 324 -12 Z M391 842 Q391 868 402 891 Q413 914 431.5 931 Q450 948 473.5 958.5 Q497 969 521 969 Q560 969 583.5 945 Q607 921 607 885 Q607 859 596 836 Q585 813 567 795.5 Q549 778 525.5 767.5 Q502 757 477 757 Q439 757 415 781.5 Q391 806 391 842 Z M440 852 Q440 832 453.5 818.5 Q467 805 487 805 Q513 805 535 826 Q557 847 557 874 Q557 894 544 907 Q531 920 511 920 Q485 920 462.5 899.5 Q440 879 440 852 Z " />
<glyph glyph-name="uring" unicode="&#x16f;" horiz-adv-x="576" d="M470 0 L375 0 L390 72 Q359 34 312 11 Q265 -12 214 -12 Q139 -12 95.5 31.5 Q52 75 53 144 Q53 158 55.5 174.5 Q58 191 65.5 228.5 Q73 266 87.5 333.5 Q102 401 126 517 L219 517 Q195 403 180.5 337.5 Q166 272 159 236.5 Q152 201 150 187.5 Q148 174 148 163 Q148 120 172 95 Q196 70 238 70 Q268 70 296 79.5 Q324 89 348 105 Q372 121 389.5 142 Q407 163 414 187 L483 517 L578 517 L470 0 Z M266 672 Q266 698 277 721 Q288 744 306.5 761 Q325 778 348.5 788.5 Q372 799 396 799 Q435 799 458.5 775 Q482 751 482 715 Q482 689 471 666 Q460 643 442 625.5 Q424 608 400.5 597.5 Q377 587 352 587 Q314 587 290 611.5 Q266 636 266 672 Z M315 682 Q315 662 328.5 648.5 Q342 635 362 635 Q388 635 410 656 Q432 677 432 704 Q432 724 419 737 Q406 750 386 750 Q360 750 337.5 729.5 Q315 709 315 682 Z " />
<glyph glyph-name="Uhungarumlaut" unicode="&#x170;" horiz-adv-x="756" d="M324 -12 Q259 -12 209 10.5 Q159 33 128.5 73.5 Q98 114 87.5 170 Q77 226 91 292 L173 687 L270 687 L187 286 Q177 240 183.5 201.5 Q190 163 210 135 Q230 107 262.5 92 Q295 77 338 77 Q382 77 421.5 93 Q461 109 493.5 138 Q526 167 548.5 207 Q571 247 581 294 L663 687 L760 687 L677 285 Q663 219 630 164.5 Q597 110 550.5 71 Q504 32 446 10 Q388 -12 324 -12 Z M487 893 L579 873 L409 746 L337 746 L487 893 Z M697 891 L789 872 L619 746 L547 746 L697 891 Z " />
<glyph glyph-name="uhungarumlaut" unicode="&#x171;" horiz-adv-x="607" d="M470 0 L375 0 L390 72 Q359 34 312 11 Q265 -12 214 -12 Q139 -12 95.5 31.5 Q52 75 53 144 Q53 158 55.5 174.5 Q58 191 65.5 228.5 Q73 266 87.5 333.5 Q102 401 126 517 L219 517 Q195 403 180.5 337.5 Q166 272 159 236.5 Q152 201 150 187.5 Q148 174 148 163 Q148 120 172 95 Q196 70 238 70 Q268 70 296 79.5 Q324 89 348 105 Q372 121 389.5 142 Q407 163 414 187 L483 517 L578 517 L470 0 Z M361 723 L453 703 L283 576 L211 576 L361 723 Z M571 721 L663 702 L493 576 L421 576 L571 721 Z " />
<glyph glyph-name="Uogonek" unicode="&#x172;" horiz-adv-x="756" d="M300 -11 Q268 -32 268 -72 Q268 -106 307 -106 Q322 -106 336 -100.5 Q350 -95 359 -86 L383 -146 Q363 -160 341 -166.5 Q319 -173 296 -173 Q252 -173 226.5 -150 Q201 -127 201 -86 Q201 -60 210.5 -38 Q220 -16 236 0 Q192 14 159.5 41 Q127 68 108 105.5 Q89 143 84.5 190.5 Q80 238 91 292 L173 687 L270 687 L187 286 Q177 240 183.5 201.5 Q190 163 210 135 Q230 107 262.5 92 Q295 77 338 77 Q382 77 421.5 93 Q461 109 493.5 138 Q526 167 548.5 207 Q571 247 581 294 L663 687 L760 687 L677 285 Q663 219 630 164.5 Q597 110 550.5 71 Q504 32 446 10 Q388 -12 324 -12 L300 -11 Z " />
<glyph glyph-name="uogonek" unicode="&#x173;" horiz-adv-x="576" d="M470 0 L421 0 Q389 0 369 -20 Q349 -40 349 -72 Q349 -106 388 -106 Q403 -106 417 -100.5 Q431 -95 440 -86 L464 -146 Q444 -160 422 -166.5 Q400 -173 377 -173 Q333 -173 307.5 -150 Q282 -127 282 -86 Q282 -48 301.5 -19 Q321 10 352 24 L378 15 L390 72 Q359 34 312 11 Q265 -12 214 -12 Q139 -12 95.5 31.5 Q52 75 53 144 Q53 158 55.5 174.5 Q58 191 65.5 228.5 Q73 266 87.5 333.5 Q102 401 126 517 L219 517 Q195 403 180.5 337.5 Q166 272 159 236.5 Q152 201 150 187.5 Q148 174 148 163 Q148 120 172 95 Q196 70 238 70 Q268 70 296 79.5 Q324 89 348 105 Q372 121 389.5 142 Q407 163 414 187 L483 517 L578 517 L470 0 Z " />
<glyph glyph-name="Wcircumflex" unicode="&#x174;" horiz-adv-x="1108" d="M109 687 L214 687 L343 116 L508 374 L438 687 L536 687 L581 488 L708 687 L811 687 L607 369 L664 115 L1030 687 L1139 687 L700 0 L591 0 L534 255 L371 0 L263 0 L109 687 Z M636 886 L720 886 L794 746 L729 746 L669 829 L574 746 L505 746 L636 886 Z " />
<glyph glyph-name="wcircumflex" unicode="&#x175;" horiz-adv-x="843" d="M70 517 L165 517 L204 127 L416 517 L496 517 L545 127 L747 517 L846 517 L564 0 L476 0 L433 389 L223 0 L136 0 L70 517 Z M467 716 L551 716 L625 576 L560 576 L500 659 L405 576 L336 576 L467 716 Z " />
<glyph glyph-name="Ycircumflex" unicode="&#x176;" horiz-adv-x="736" d="M294 271 L105 687 L201 687 L353 355 L638 687 L754 687 L394 271 L336 0 L235 0 L294 271 Z M440 886 L524 886 L598 746 L533 746 L473 829 L378 746 L309 746 L440 886 Z " />
<glyph glyph-name="ycircumflex" unicode="&#x177;" horiz-adv-x="468" d="M58 -180 Q31 -180 7 -174 Q-17 -168 -36 -157 L-5 -86 Q8 -94 23 -97.5 Q38 -101 52 -101 Q103 -101 136 -56 L176 -3 L63 517 L163 517 L245 106 L491 517 L593 517 L245 -53 Q203 -122 157 -151 Q111 -180 58 -180 Z M282 716 L366 716 L440 576 L375 576 L315 659 L220 576 L151 576 L282 716 Z " />
<glyph glyph-name="Ydieresis" unicode="&#x178;" horiz-adv-x="736" d="M294 271 L105 687 L201 687 L353 355 L638 687 L754 687 L394 271 L336 0 L235 0 L294 271 Z M324 812 Q324 835 341 852 Q358 869 381 869 Q403 869 416.5 854.5 Q430 840 430 820 Q430 797 412 780 Q394 763 373 763 Q350 763 337 777.5 Q324 792 324 812 Z M522 812 Q522 835 539 852 Q556 869 579 869 Q601 869 614 854.5 Q627 840 627 820 Q627 797 609.5 780 Q592 763 570 763 Q548 763 535 777.5 Q522 792 522 812 Z " />
<glyph glyph-name="Zacute" unicode="&#x179;" horiz-adv-x="652" d="M3 76 L511 597 L120 597 L138 687 L664 687 L649 611 L142 91 L545 91 L525 0 L-11 0 L3 76 Z M534 893 L626 873 L456 746 L384 746 L534 893 Z " />
<glyph glyph-name="zacute" unicode="&#x17a;" horiz-adv-x="513" d="M-5 71 L362 431 L77 431 L95 517 L507 517 L494 446 L125 86 L419 86 L401 0 L-18 0 L-5 71 Z M433 723 L525 703 L355 576 L283 576 L433 723 Z " />
<glyph glyph-name="Zdotaccent" unicode="&#x17b;" horiz-adv-x="652" d="M3 76 L511 597 L120 597 L138 687 L664 687 L649 611 L142 91 L545 91 L525 0 L-11 0 L3 76 Z M392 812 Q392 835 409 852 Q426 869 449 869 Q471 869 484.5 854.5 Q498 840 498 820 Q498 797 480 780 Q462 763 441 763 Q418 763 405 777.5 Q392 792 392 812 Z " />
<glyph glyph-name="zdotaccent" unicode="&#x17c;" horiz-adv-x="513" d="M-5 71 L362 431 L77 431 L95 517 L507 517 L494 446 L125 86 L419 86 L401 0 L-18 0 L-5 71 Z M291 642 Q291 665 308 682 Q325 699 348 699 Q370 699 383.5 684.5 Q397 670 397 650 Q397 627 379 610 Q361 593 340 593 Q317 593 304 607.5 Q291 622 291 642 Z " />
<glyph glyph-name="Zcaron" unicode="&#x17d;" horiz-adv-x="652" d="M3 76 L511 597 L120 597 L138 687 L664 687 L649 611 L142 91 L545 91 L525 0 L-11 0 L3 76 Z M377 886 L436 803 L533 886 L602 886 L469 746 L385 746 L313 886 L377 886 Z " />
<glyph glyph-name="zcaron" unicode="&#x17e;" horiz-adv-x="513" d="M-5 71 L362 431 L77 431 L95 517 L507 517 L494 446 L125 86 L419 86 L401 0 L-18 0 L-5 71 Z M276 716 L335 633 L432 716 L501 716 L368 576 L284 576 L212 716 L276 716 Z " />
<glyph glyph-name="uni0237" unicode="&#x237;" horiz-adv-x="249" d="M-48 -178 Q-73 -178 -96.5 -172.5 Q-120 -167 -135 -159 L-113 -87 Q-102 -92 -86 -94 Q-70 -96 -57 -96 Q-31 -96 -9.5 -76.5 Q12 -57 18 -30 L131 517 L226 517 L110 -41 Q97 -103 53.5 -140.5 Q10 -178 -48 -178 Z " />
<glyph glyph-name="circumflex" unicode="&#x2c6;" horiz-adv-x="360" d="M233 716 L317 716 L391 576 L326 576 L266 659 L171 576 L102 576 L233 716 Z " />
<glyph glyph-name="caron" unicode="&#x2c7;" horiz-adv-x="361" d="M132 716 L196 716 L255 633 L352 716 L421 716 L288 576 L204 576 L132 716 Z " />
<glyph glyph-name="breve" unicode="&#x2d8;" horiz-adv-x="406" d="M273 587 Q231 587 195 603 Q159 619 133 650 L192 698 Q208 678 231.5 668 Q255 658 279 658 Q307 658 336 670 Q365 682 389 702 L433 647 Q396 616 354.5 601.5 Q313 587 273 587 Z " />
<glyph glyph-name="dotaccent" unicode="&#x2d9;" horiz-adv-x="245" d="M199 593 Q176 593 163 607.5 Q150 622 150 642 Q150 665 167 682 Q184 699 207 699 Q229 699 242.5 684.5 Q256 670 256 650 Q256 627 238 610 Q220 593 199 593 Z " />
<glyph glyph-name="ring" unicode="&#x2da;" horiz-adv-x="332" d="M234 587 Q196 587 172 611.5 Q148 636 148 672 Q148 698 159 721 Q170 744 188.5 761 Q207 778 230.5 788.5 Q254 799 278 799 Q317 799 340.5 775 Q364 751 364 715 Q364 689 353 666 Q342 643 324 625.5 Q306 608 282.5 597.5 Q259 587 234 587 Z M197 682 Q197 662 210.5 648.5 Q224 635 244 635 Q270 635 292 656 Q314 677 314 704 Q314 724 301 737 Q288 750 268 750 Q242 750 219.5 729.5 Q197 709 197 682 Z " />
<glyph glyph-name="ogonek" unicode="&#x2db;" horiz-adv-x="295" d="M89 -173 Q45 -173 19.5 -150 Q-6 -127 -6 -86 Q-6 -48 13.5 -19 Q33 10 64 24 L133 0 Q101 0 81 -20 Q61 -40 61 -72 Q61 -106 100 -106 Q115 -106 129 -100.5 Q143 -95 152 -86 L176 -146 Q156 -160 134 -166.5 Q112 -173 89 -173 Z " />
<glyph glyph-name="tilde" unicode="&#x2dc;" horiz-adv-x="456" d="M366 574 Q343 574 327 583.5 Q311 593 298 605 Q285 617 274 626.5 Q263 636 249 636 Q206 636 182 569 L130 584 Q169 703 248 703 Q271 703 287.5 693.5 Q304 684 317 672 Q330 660 341.5 650.5 Q353 641 366 641 Q407 641 433 709 L485 693 Q465 633 436.5 603.5 Q408 574 366 574 Z " />
<glyph glyph-name="hungarumlaut" unicode="&#x2dd;" horiz-adv-x="489" d="M245 723 L337 703 L167 576 L95 576 L245 723 Z M455 721 L547 702 L377 576 L305 576 L455 721 Z " />
<glyph glyph-name="uni0307" unicode="&#x307;" d="M206 605 Q183 605 168.5 620 Q154 635 154 657 Q154 682 172.5 701 Q191 720 217 720 Q240 720 254.5 705 Q269 690 269 668 Q269 643 249.5 624 Q230 605 206 605 Z " />
<glyph glyph-name="uni0326" unicode="&#x326;" d="M-39 -252 Q3 -215 27 -173 Q7 -175 -4.5 -162 Q-16 -149 -16 -129 Q-16 -107 0.5 -89.5 Q17 -72 40 -72 Q64 -72 77 -88.5 Q90 -105 90 -131 Q90 -173 63 -207 Q36 -241 -6 -282 L-39 -252 Z " />
<glyph glyph-name="Wgrave" unicode="&#x1e80;" horiz-adv-x="1108" d="M109 687 L214 687 L343 116 L508 374 L438 687 L536 687 L581 488 L708 687 L811 687 L607 369 L664 115 L1030 687 L1139 687 L700 0 L591 0 L534 255 L371 0 L263 0 L109 687 Z M590 893 L679 746 L612 746 L495 873 L590 893 Z " />
<glyph glyph-name="wgrave" unicode="&#x1e81;" horiz-adv-x="843" d="M70 517 L165 517 L204 127 L416 517 L496 517 L545 127 L747 517 L846 517 L564 0 L476 0 L433 389 L223 0 L136 0 L70 517 Z M422 723 L511 576 L444 576 L327 703 L422 723 Z " />
<glyph glyph-name="Wacute" unicode="&#x1e82;" horiz-adv-x="1108" d="M109 687 L214 687 L343 116 L508 374 L438 687 L536 687 L581 488 L708 687 L811 687 L607 369 L664 115 L1030 687 L1139 687 L700 0 L591 0 L534 255 L371 0 L263 0 L109 687 Z M760 893 L852 873 L682 746 L610 746 L760 893 Z " />
<glyph glyph-name="wacute" unicode="&#x1e83;" horiz-adv-x="843" d="M70 517 L165 517 L204 127 L416 517 L496 517 L545 127 L747 517 L846 517 L564 0 L476 0 L433 389 L223 0 L136 0 L70 517 Z M591 723 L683 703 L513 576 L441 576 L591 723 Z " />
<glyph glyph-name="Wdieresis" unicode="&#x1e84;" horiz-adv-x="1108" d="M109 687 L214 687 L343 116 L508 374 L438 687 L536 687 L581 488 L708 687 L811 687 L607 369 L664 115 L1030 687 L1139 687 L700 0 L591 0 L534 255 L371 0 L263 0 L109 687 Z M519 812 Q519 835 536 852 Q553 869 576 869 Q598 869 611.5 854.5 Q625 840 625 820 Q625 797 607 780 Q589 763 568 763 Q545 763 532 777.5 Q519 792 519 812 Z M717 812 Q717 835 734 852 Q751 869 774 869 Q796 869 809 854.5 Q822 840 822 820 Q822 797 804.5 780 Q787 763 765 763 Q743 763 730 777.5 Q717 792 717 812 Z " />
<glyph glyph-name="wdieresis" unicode="&#x1e85;" horiz-adv-x="843" d="M70 517 L165 517 L204 127 L416 517 L496 517 L545 127 L747 517 L846 517 L564 0 L476 0 L433 389 L223 0 L136 0 L70 517 Z M351 642 Q351 665 368 682 Q385 699 408 699 Q430 699 443.5 684.5 Q457 670 457 650 Q457 627 439 610 Q421 593 400 593 Q377 593 364 607.5 Q351 622 351 642 Z M549 642 Q549 665 566 682 Q583 699 606 699 Q628 699 641 684.5 Q654 670 654 650 Q654 627 636.5 610 Q619 593 597 593 Q575 593 562 607.5 Q549 622 549 642 Z " />
<glyph glyph-name="uni1EB8" unicode="&#x1eb8;" horiz-adv-x="664" d="M193 687 L696 687 L677 597 L272 597 L232 395 L596 395 L578 305 L211 305 L168 91 L572 91 L553 0 L50 0 L193 687 Z M213 -127 Q213 -104 230 -87 Q247 -70 270 -70 Q292 -70 305.5 -84.5 Q319 -99 319 -119 Q319 -142 301 -159 Q283 -176 262 -176 Q239 -176 226 -161.5 Q213 -147 213 -127 Z " />
<glyph glyph-name="uni1EB9" unicode="&#x1eb9;" horiz-adv-x="571" d="M249 -12 Q201 -12 161.5 4 Q122 20 93.5 48.5 Q65 77 49.5 117 Q34 157 34 205 Q34 270 60.5 328.5 Q87 387 131 431.5 Q175 476 232.5 502.5 Q290 529 352 529 Q390 529 424 519 Q458 509 483.5 490.5 Q509 472 524.5 445.5 Q540 419 540 386 Q540 314 475 270 Q410 226 293 227 L124 227 Q123 223 123 219 Q123 215 123 211 Q123 145 159 106.5 Q195 68 259 68 Q305 68 351.5 86 Q398 104 427 129 L475 66 Q454 48 426 33.5 Q398 19 367.5 9 Q337 -1 306 -6.5 Q275 -12 249 -12 Z M308 300 Q377 300 414.5 320.5 Q452 341 452 378 Q452 411 422 430 Q392 449 346 449 Q310 449 277.5 437.5 Q245 426 219 405.5 Q193 385 173 358 Q153 331 141 300 L308 300 Z M163 -135 Q163 -112 180 -95 Q197 -78 220 -78 Q242 -78 255.5 -92.5 Q269 -107 269 -127 Q269 -150 251 -167 Q233 -184 212 -184 Q189 -184 176 -169.5 Q163 -155 163 -135 Z " />
<glyph glyph-name="uni1EBC" unicode="&#x1ebc;" horiz-adv-x="664" d="M193 687 L696 687 L677 597 L272 597 L232 395 L596 395 L578 305 L211 305 L168 91 L572 91 L553 0 L50 0 L193 687 Z M296 754 Q335 873 414 873 Q437 873 453.5 863.5 Q470 854 483 842 Q496 830 507.5 820.5 Q519 811 532 811 Q573 811 599 879 L651 863 Q631 803 602.5 773.5 Q574 744 532 744 Q509 744 493 753.5 Q477 763 464 775 Q451 787 440 796.5 Q429 806 415 806 Q372 806 348 739 L296 754 Z " />
<glyph glyph-name="uni1EBD" unicode="&#x1ebd;" horiz-adv-x="555" d="M249 -12 Q201 -12 161.5 4 Q122 20 93.5 48.5 Q65 77 49.5 117 Q34 157 34 205 Q34 270 60.5 328.5 Q87 387 131 431.5 Q175 476 232.5 502.5 Q290 529 352 529 Q390 529 424 519 Q458 509 483.5 490.5 Q509 472 524.5 445.5 Q540 419 540 386 Q540 314 475 270 Q410 226 293 227 L124 227 Q123 223 123 219 Q123 215 123 211 Q123 145 159 106.5 Q195 68 259 68 Q305 68 351.5 86 Q398 104 427 129 L475 66 Q454 48 426 33.5 Q398 19 367.5 9 Q337 -1 306 -6.5 Q275 -12 249 -12 Z M308 300 Q377 300 414.5 320.5 Q452 341 452 378 Q452 411 422 430 Q392 449 346 449 Q310 449 277.5 437.5 Q245 426 219 405.5 Q193 385 173 358 Q153 331 141 300 L308 300 Z M198 584 Q237 703 316 703 Q339 703 355.5 693.5 Q372 684 385 672 Q398 660 409.5 650.5 Q421 641 434 641 Q475 641 501 709 L553 693 Q533 633 504.5 603.5 Q476 574 434 574 Q411 574 395 583.5 Q379 593 366 605 Q353 617 342 626.5 Q331 636 317 636 Q274 636 250 569 L198 584 Z " />
<glyph glyph-name="Ygrave" unicode="&#x1ef2;" horiz-adv-x="736" d="M294 271 L105 687 L201 687 L353 355 L638 687 L754 687 L394 271 L336 0 L235 0 L294 271 Z M395 893 L484 746 L417 746 L300 873 L395 893 Z " />
<glyph glyph-name="ygrave" unicode="&#x1ef3;" horiz-adv-x="468" d="M58 -180 Q31 -180 7 -174 Q-17 -168 -36 -157 L-5 -86 Q8 -94 23 -97.5 Q38 -101 52 -101 Q103 -101 136 -56 L176 -3 L63 517 L163 517 L245 106 L491 517 L593 517 L245 -53 Q203 -122 157 -151 Q111 -180 58 -180 Z M237 723 L326 576 L259 576 L142 703 L237 723 Z " />
<glyph glyph-name="uni2002" unicode="&#x2002;" horiz-adv-x="502" d="" />
<glyph glyph-name="uni2003" unicode="&#x2003;" horiz-adv-x="1002" d="" />
<glyph glyph-name="uni2004" unicode="&#x2004;" horiz-adv-x="335" d="" />
<glyph glyph-name="uni2005" unicode="&#x2005;" horiz-adv-x="252" d="" />
<glyph glyph-name="uni2006" unicode="&#x2006;" horiz-adv-x="168" d="" />
<glyph glyph-name="endash" unicode="&#x2013;" horiz-adv-x="635" d="M94 315 L563 315 L546 230 L77 230 L94 315 Z " />
<glyph glyph-name="emdash" unicode="&#x2014;" horiz-adv-x="940" d="M94 315 L868 315 L851 230 L77 230 L94 315 Z " />
<glyph glyph-name="quoteleft" unicode="&#x2018;" horiz-adv-x="289" d="M285 645 Q259 622 239.5 598 Q220 574 206 550 Q228 550 243 535.5 Q258 521 258 497 Q258 465 236 445 Q214 425 187 425 Q158 425 142.5 444.5 Q127 464 127 496 Q127 547 161.5 591 Q196 635 245 681 L285 645 Z " />
<glyph glyph-name="quoteright" unicode="&#x2019;" horiz-adv-x="287" d="M125 461 Q151 484 170.5 508 Q190 532 204 556 Q182 556 167 570.5 Q152 585 152 609 Q152 641 174 661 Q196 681 223 681 Q252 681 267.5 661.5 Q283 642 283 610 Q283 559 248.5 515 Q214 471 165 425 L125 461 Z " />
<glyph glyph-name="quotedblleft" unicode="&#x201c;" horiz-adv-x="505" d="M285 643 Q259 620 239.5 596 Q220 572 206 548 Q228 548 243 533.5 Q258 519 258 495 Q258 463 236 443 Q214 423 187 423 Q158 423 142.5 442.5 Q127 462 127 494 Q127 545 161.5 589 Q196 633 245 679 L285 643 Z M343 494 Q343 545 377.5 589 Q412 633 461 679 L501 643 Q475 620 455.5 596 Q436 572 422 548 Q444 548 459 533.5 Q474 519 474 495 Q474 463 452 443 Q430 423 403 423 Q374 423 358.5 442.5 Q343 462 343 494 Z " />
<glyph glyph-name="quotedblright" unicode="&#x201d;" horiz-adv-x="504" d="M125 461 Q151 484 170.5 508 Q190 532 204 556 Q182 556 167 570.5 Q152 585 152 609 Q152 641 174 661 Q196 681 223 681 Q252 681 267.5 661.5 Q283 642 283 610 Q283 559 248.5 515 Q214 471 165 425 L125 461 Z M342 461 Q368 484 387.5 508 Q407 532 421 556 Q399 556 384 570.5 Q369 585 369 609 Q369 641 391 661 Q413 681 440 681 Q469 681 484.5 661.5 Q500 642 500 610 Q500 559 465.5 515 Q431 471 382 425 L342 461 Z " />
<glyph glyph-name="quotedblbase" unicode="&#x201e;" horiz-adv-x="602" d="M24 -103 Q50 -80 69.5 -56 Q89 -32 103 -8 Q81 -8 66 6.5 Q51 21 51 45 Q51 77 73 97 Q95 117 122 117 Q151 117 166.5 97.5 Q182 78 182 46 Q182 -5 147.5 -49 Q113 -93 64 -139 L24 -103 Z " />
<glyph glyph-name="bullet" unicode="&#x2022;" horiz-adv-x="428" d="M204 173 Q156 173 126.5 203 Q97 233 97 278 Q97 307 109 333 Q121 359 141.5 378.5 Q162 398 188.5 410 Q215 422 243 422 Q290 422 319.5 392 Q349 362 349 317 Q349 289 336.5 262.5 Q324 236 304 216.5 Q284 197 257.5 185 Q231 173 204 173 Z " />
<glyph glyph-name="ellipsis" unicode="&#x2026;" horiz-adv-x="763" d="M116 -12 Q90 -12 74 4.5 Q58 21 58 46 Q58 78 80 97.5 Q102 117 130 117 Q155 117 170.5 100 Q186 83 186 60 Q186 31 164.5 9.5 Q143 -12 116 -12 Z M275 46 Q275 78 297 97.5 Q319 117 347 117 Q372 117 387.5 100 Q403 83 403 60 Q403 31 381.5 9.5 Q360 -12 333 -12 Q307 -12 291 4.5 Q275 21 275 46 Z M491 46 Q491 78 513 97.5 Q535 117 563 117 Q588 117 603.5 100 Q619 83 619 60 Q619 31 597.5 9.5 Q576 -12 549 -12 Q523 -12 507 4.5 Q491 21 491 46 Z " />
<glyph glyph-name="uni202F" unicode="&#x202f;" horiz-adv-x="276" d="" />
<glyph glyph-name="perthousand" unicode="&#x2030;" horiz-adv-x="1233" d="M707 687 L797 687 L182 0 L92 0 L707 687 Z M114 485 Q114 526 129.5 563.5 Q145 601 171 630 Q197 659 233 676 Q269 693 309 693 Q374 693 409.5 654 Q445 615 445 555 Q445 513 429.5 475.5 Q414 438 387.5 409.5 Q361 381 325.5 364 Q290 347 250 347 Q184 347 149 386 Q114 425 114 485 Z M184 485 Q184 451 202 430.5 Q220 410 250 410 Q276 410 298.5 423 Q321 436 337.5 456.5 Q354 477 363.5 503 Q373 529 373 555 Q373 589 356 609.5 Q339 630 308 630 Q282 630 259 617 Q236 604 219.5 583 Q203 562 193.5 536 Q184 510 184 485 Z M440 128 Q440 168 455.5 205.5 Q471 243 497.5 272 Q524 301 560 318.5 Q596 336 636 336 Q702 336 737 296.5 Q772 257 772 198 Q772 157 756.5 119.5 Q741 82 715 53 Q689 24 653.5 7 Q618 -10 577 -10 Q514 -10 477 28.5 Q440 67 440 128 Z M513 127 Q513 93 530 73 Q547 53 578 53 Q605 53 628 66.5 Q651 80 667.5 101 Q684 122 693 148 Q702 174 702 199 Q702 233 684 253 Q666 273 636 273 Q610 273 587.5 260.5 Q565 248 548.5 227 Q532 206 522.5 180 Q513 154 513 127 Z M823 128 Q823 168 838.5 205.5 Q854 243 880.5 272 Q907 301 942.5 318.5 Q978 336 1019 336 Q1084 336 1119.5 296.5 Q1155 257 1155 198 Q1155 157 1139.5 119.5 Q1124 82 1097.5 53 Q1071 24 1035.5 7 Q1000 -10 960 -10 Q897 -10 860 28.5 Q823 67 823 128 Z M895 127 Q895 93 912 73 Q929 53 960 53 Q987 53 1010 66.5 Q1033 80 1049.5 101 Q1066 122 1075 148 Q1084 174 1084 199 Q1084 233 1066 253 Q1048 273 1018 273 Q992 273 969.5 260.5 Q947 248 930.5 227 Q914 206 904.5 180 Q895 154 895 127 Z " />
<glyph glyph-name="guilsinglleft" unicode="&#x2039;" horiz-adv-x="325" d="M32 252 L233 450 L318 432 L134 253 L241 71 L153 51 L32 252 Z " />
<glyph glyph-name="guilsinglright" unicode="&#x203a;" horiz-adv-x="321" d="M5 71 L190 253 L82 432 L163 450 L286 252 L83 51 L5 71 Z " />
<glyph glyph-name="Euro" unicode="&#x20ac;" horiz-adv-x="793" d="M87 307 L161 307 Q164 353 178 398 L106 398 L121 467 L207 467 Q234 518 275 560.5 Q316 603 366 634 Q416 665 474.5 682 Q533 699 595 699 Q627 699 660 691 Q693 683 723 668 Q753 653 779 633 Q805 613 824 589 L747 528 Q721 564 675 587 Q629 610 581 610 Q500 610 430.5 570.5 Q361 531 316 467 L612 467 L597 398 L279 398 Q262 353 259 307 L578 307 L565 238 L263 238 Q271 204 290.5 174.5 Q310 145 337 123 Q364 101 397 89 Q430 77 466 77 Q489 77 515 83.5 Q541 90 567.5 101.5 Q594 113 619.5 129 Q645 145 666 164 L724 93 Q696 70 662.5 51 Q629 32 593 18 Q557 4 520.5 -4 Q484 -12 452 -12 Q398 -12 349 7 Q300 26 261.5 60 Q223 94 197 139.5 Q171 185 163 238 L74 238 L87 307 Z " />
<glyph glyph-name="trademark" unicode="&#x2122;" horiz-adv-x="827" d="M210 503 L131 503 L146 579 L387 579 L371 503 L291 503 L244 279 L163 279 L210 503 Z M432 579 L513 579 L570 435 L687 579 L768 579 L706 279 L625 279 L659 442 L542 296 L485 442 L451 279 L370 279 L432 579 Z " />
<glyph glyph-name="minus" unicode="&#x2212;" horiz-adv-x="713" d="M148 377 L614 377 L595 291 L130 291 L148 377 Z " />
<glyph glyph-name="uniF000" unicode="&#xf000;" horiz-adv-x="957" d="M59 234 Q45 242 50 258 L207 736 Q208 741 212.5 744.5 Q217 748 222 750 L227 751 Q231 753 235.5 750 Q240 747 242 743 L474 472 Q475 470 477 470 Q479 470 480 472 L712 743 Q714 747 718.5 750 Q723 753 727 751 L732 750 Q737 748 741.5 744.5 Q746 741 747 736 L904 258 Q909 242 895 234 L489 -67 Q477 -76 465 -67 L59 234 Z " />
<glyph glyph-name="uniF001" unicode="&#xf001;" horiz-adv-x="2828" d="M1044 -113 Q1005 -113 992.5 -104.5 Q980 -96 980 -91 Q980 -87 983 -84.5 Q986 -82 992.5 -80 Q999 -78 1009.5 -73.5 Q1020 -69 1036 -60 Q1051 -53 1068.5 -43.5 Q1086 -34 1107.5 -17.5 Q1129 -1 1156 24 Q1183 49 1217 86 Q1250 123 1275.5 155.5 Q1301 188 1319 212.5 Q1337 237 1347.5 252.5 Q1358 268 1360 271 L1172 534 L1246 534 Q1278 534 1297 533 Q1316 532 1329.5 526 Q1343 520 1355 507 Q1367 494 1384 470 L1441 387 Q1446 390 1457.5 404 Q1469 418 1487 439 Q1505 460 1528 485 Q1551 510 1578 534 Q1617 567 1655.5 589.5 Q1694 612 1728.5 625.5 Q1763 639 1792 645 Q1821 651 1841 651 Q1881 651 1893 642 Q1905 633 1905 628 Q1905 619 1891 617.5 Q1877 616 1849 602 Q1835 595 1817.5 584.5 Q1800 574 1778 557 Q1756 540 1729 514.5 Q1702 489 1669 451 Q1637 417 1611.5 386 Q1586 355 1567.5 331 Q1549 307 1538 291.5 Q1527 276 1524 271 L1724 -8 L1611 -8 Q1591 -8 1576 -2 Q1561 4 1550 13.5 Q1539 23 1530 34.5 Q1521 46 1513 57 L1441 154 Q1440 152 1429.5 137.5 Q1419 123 1401.5 101.5 Q1384 80 1360.5 54.5 Q1337 29 1308 3 Q1268 -31 1229.5 -53 Q1191 -75 1156.5 -88.5 Q1122 -102 1093 -107.5 Q1064 -113 1044 -113 Z M107 534 L178 534 L178 590 Q178 620 191.5 649.5 Q205 679 229 702.5 Q253 726 286.5 741 Q320 756 360 756 Q392 756 420.5 747 Q449 738 470 727 Q494 714 515 698 L484 628 Q474 632 462 636 Q451 639 438.5 641.5 Q426 644 411 644 Q380 644 354.5 628.5 Q329 613 329 582 L329 534 L446 534 L446 410 L329 410 L329 27 Q329 15 324.5 9.5 Q320 4 303 -8 Q286 -16 259.5 -27.5 Q233 -39 212 -42 Q193 -47 185.5 -45 Q178 -43 178 -23 L178 410 L107 410 L107 534 Z M522 264 Q522 331 548 384 Q574 437 616 473.5 Q658 510 711 529.5 Q764 549 818 549 Q871 549 923 529 Q975 509 1017 472 Q1059 435 1085 382.5 Q1111 330 1111 264 Q1111 207 1089.5 156 Q1068 105 1029.5 66 Q991 27 937 4 Q883 -19 818 -19 Q756 -19 702 2.5 Q648 24 608 62.5 Q568 101 545 152.5 Q522 204 522 264 Z M667 264 Q667 231 679.5 203 Q692 175 712.5 154 Q733 133 760.5 121 Q788 109 818 109 Q840 109 865.5 119 Q891 129 913 148.5 Q935 168 949.5 197 Q964 226 964 264 Q964 300 951.5 328.5 Q939 357 919 376.5 Q899 396 872.5 406.5 Q846 417 818 417 Q779 417 751 403.5 Q723 390 704 368 Q685 346 676 318.5 Q667 291 667 264 Z M1787 154 Q1787 198 1806 231.5 Q1825 265 1857 288 Q1889 311 1930 323 Q1971 335 2015 335 Q2049 335 2084 327 Q2119 319 2154 306 L2154 317 Q2154 367 2118.5 395.5 Q2083 424 2025 424 Q1995 424 1959 415.5 Q1923 407 1886 387 L1845 466 Q1876 500 1925.5 523 Q1975 546 2062 549 Q2121 549 2165 530 Q2209 511 2239 479 Q2269 447 2284 405 Q2299 363 2299 317 L2299 -8 L2154 -8 L2154 49 Q2122 11 2079.5 -4 Q2037 -19 1992 -19 Q1951 -19 1913.5 -7.5 Q1876 4 1848 26.5 Q1820 49 1803.5 81 Q1787 113 1787 154 Z M1935 157 Q1935 121 1962.5 103.5 Q1990 86 2025 86 Q2071 86 2106 104.5 Q2141 123 2154 166 L2154 215 Q2125 223 2097 228 Q2069 233 2037 233 Q2019 233 2001 228.5 Q1983 224 1968.5 214.5 Q1954 205 1944.5 190.5 Q1935 176 1935 157 Z M2439 534 L2593 534 L2593 443 Q2605 466 2623 485 Q2641 504 2663 518.5 Q2685 533 2710 541 Q2735 549 2760 549 Q2779 549 2798.5 545.5 Q2818 542 2835 534 L2794 410 Q2779 415 2764.5 418.5 Q2750 422 2736 422 Q2704 422 2677.5 409.5 Q2651 397 2632.5 376 Q2614 355 2603.5 326.5 Q2593 298 2593 266 L2593 -8 L2439 -8 L2439 534 Z " />
<glyph glyph-name="uniF002" unicode="&#xf002;" horiz-adv-x="3819" d="M59 234 Q45 242 50 258 L207 736 Q208 741 212.5 744.5 Q217 748 222 750 L227 751 Q231 753 235.5 750 Q240 747 242 743 L474 472 Q475 470 477 470 Q479 470 480 472 L712 743 Q714 747 718.5 750 Q723 753 727 751 L732 750 Q737 748 741.5 744.5 Q746 741 747 736 L904 258 Q909 242 895 234 L489 -67 Q477 -76 465 -67 L59 234 Z M1098 534 L1169 534 L1169 590 Q1169 620 1182.5 649.5 Q1196 679 1220 702.5 Q1244 726 1277.5 741 Q1311 756 1351 756 Q1383 756 1411.5 747 Q1440 738 1461 727 Q1485 714 1506 698 L1475 628 Q1465 632 1453 636 Q1442 639 1429.5 641.5 Q1417 644 1402 644 Q1371 644 1345.5 628.5 Q1320 613 1320 582 L1320 534 L1437 534 L1437 410 L1320 410 L1320 27 Q1320 15 1315.5 9.5 Q1311 4 1294 -8 Q1277 -16 1250.5 -27.5 Q1224 -39 1203 -42 Q1184 -47 1176.5 -45 Q1169 -43 1169 -23 L1169 410 L1098 410 L1098 534 Z M1513 264 Q1513 331 1539 384 Q1565 437 1607 473.5 Q1649 510 1702 529.5 Q1755 549 1809 549 Q1862 549 1914 529 Q1966 509 2008 472 Q2050 435 2076 382.5 Q2102 330 2102 264 Q2102 207 2080.5 156 Q2059 105 2020.5 66 Q1982 27 1928 4 Q1874 -19 1809 -19 Q1747 -19 1693 2.5 Q1639 24 1599 62.5 Q1559 101 1536 152.5 Q1513 204 1513 264 Z M1658 264 Q1658 231 1670.5 203 Q1683 175 1703.5 154 Q1724 133 1751.5 121 Q1779 109 1809 109 Q1831 109 1856.5 119 Q1882 129 1904 148.5 Q1926 168 1940.5 197 Q1955 226 1955 264 Q1955 300 1942.5 328.5 Q1930 357 1910 376.5 Q1890 396 1863.5 406.5 Q1837 417 1809 417 Q1770 417 1742 403.5 Q1714 390 1695 368 Q1676 346 1667 318.5 Q1658 291 1658 264 Z M1971 -91 Q1971 -87 1974 -84.5 Q1977 -82 1983.5 -80 Q1990 -78 2000.5 -73.5 Q2011 -69 2027 -60 Q2042 -53 2059.5 -43.5 Q2077 -34 2098.5 -17.5 Q2120 -1 2147 24 Q2174 49 2208 86 Q2241 123 2266.5 155.5 Q2292 188 2310 212.5 Q2328 237 2338.5 252.5 Q2349 268 2351 271 L2163 534 L2237 534 Q2269 534 2288 533 Q2307 532 2320.5 526 Q2334 520 2346 507 Q2358 494 2375 470 L2432 387 Q2437 390 2448.5 404 Q2460 418 2478 439 Q2496 460 2519 485 Q2542 510 2569 534 Q2608 567 2646.5 589.5 Q2685 612 2719.5 625.5 Q2754 639 2783 645 Q2812 651 2832 651 Q2872 651 2884 642 Q2896 633 2896 628 Q2896 619 2882 617.5 Q2868 616 2840 602 Q2826 595 2808.5 584.5 Q2791 574 2769 557 Q2747 540 2720 514.5 Q2693 489 2660 451 Q2628 417 2602.5 386 Q2577 355 2558.5 331 Q2540 307 2529 291.5 Q2518 276 2515 271 L2715 -8 L2602 -8 Q2582 -8 2567 -2 Q2552 4 2541 13.5 Q2530 23 2521 34.5 Q2512 46 2504 57 L2432 154 Q2431 152 2420.5 137.5 Q2410 123 2392.5 101.5 Q2375 80 2351.5 54.5 Q2328 29 2299 3 Q2259 -31 2220.5 -53 Q2182 -75 2147.5 -88.5 Q2113 -102 2084 -107.5 Q2055 -113 2035 -113 Q1996 -113 1983.5 -104.5 Q1971 -96 1971 -91 Z M2778 154 Q2778 198 2797 231.5 Q2816 265 2848 288 Q2880 311 2921 323 Q2962 335 3006 335 Q3040 335 3075 327 Q3110 319 3145 306 L3145 317 Q3145 367 3109.5 395.5 Q3074 424 3016 424 Q2986 424 2950 415.5 Q2914 407 2877 387 L2836 466 Q2867 500 2916.5 523 Q2966 546 3053 549 Q3112 549 3156 530 Q3200 511 3230 479 Q3260 447 3275 405 Q3290 363 3290 317 L3290 -8 L3145 -8 L3145 49 Q3113 11 3070.5 -4 Q3028 -19 2983 -19 Q2942 -19 2904.5 -7.5 Q2867 4 2839 26.5 Q2811 49 2794.5 81 Q2778 113 2778 154 Z M2926 157 Q2926 121 2953.5 103.5 Q2981 86 3016 86 Q3062 86 3097 104.5 Q3132 123 3145 166 L3145 215 Q3116 223 3088 228 Q3060 233 3028 233 Q3010 233 2992 228.5 Q2974 224 2959.5 214.5 Q2945 205 2935.5 190.5 Q2926 176 2926 157 Z M3430 534 L3584 534 L3584 443 Q3596 466 3614 485 Q3632 504 3654 518.5 Q3676 533 3701 541 Q3726 549 3751 549 Q3770 549 3789.5 545.5 Q3809 542 3826 534 L3785 410 Q3770 415 3755.5 418.5 Q3741 422 3727 422 Q3695 422 3668.5 409.5 Q3642 397 3623.5 376 Q3605 355 3594.5 326.5 Q3584 298 3584 266 L3584 -8 L3430 -8 L3430 534 Z " />
<glyph glyph-name="uniF003" unicode="&#xf003;" horiz-adv-x="944" d="M195 447 Q186 452 190 461 L283 744 Q283 749 292 753 L295 753 Q297 754 299.5 752.5 Q302 751 303 749 L441 588 Q443 584 445 588 L582 749 Q584 751 586.5 752.5 Q589 754 591 753 L594 753 Q602 749 603 744 L696 461 Q700 452 691 447 L450 268 Q443 263 436 268 L195 447 Z M31 168 L53 168 L53 186 Q53 204 68.5 220.5 Q84 237 109 237 Q119 237 128 234 Q137 231 143 228 Q151 224 157 219 L148 197 Q145 198 141 200 Q138 201 134 201.5 Q130 202 125 202 Q116 202 108 197.5 Q100 193 100 183 L100 168 L136 168 L136 130 L100 130 L100 11 Q100 7 98.5 5.5 Q97 4 92 1 Q87 -2 78.5 -5.5 Q70 -9 64 -10 Q58 -12 55.5 -11 Q53 -10 53 -4 L53 130 L31 130 L31 168 Z M160 85 Q160 106 168 122 Q176 138 189 149.5 Q202 161 218.5 167 Q235 173 251 173 Q268 173 284 167 Q300 161 313 149.5 Q326 138 334 121.5 Q342 105 342 85 Q342 50 317 23.5 Q292 -3 251 -3 Q213 -3 186.5 22 Q160 47 160 85 Z M204 85 Q204 65 218 51 Q232 37 251 37 Q265 37 280.5 49 Q296 61 296 85 Q296 107 282 119.5 Q268 132 251 132 Q227 132 215.5 117 Q204 102 204 85 Z M301 -25 Q301 -22 305 -21.5 Q309 -21 319 -16 Q328 -11 341 -2 Q354 7 375 30 Q395 53 406 69 Q417 85 419 87 L361 168 L384 168 Q404 168 409.5 166 Q415 164 426 148 L444 123 Q447 125 458 139 Q469 153 486 168 Q511 189 533 196.5 Q555 204 568 204 Q580 204 584 201.5 Q588 199 588 197 Q588 195 583.5 194.5 Q579 194 570 189 Q562 184 548.5 175 Q535 166 515 143 Q495 121 483.5 105.5 Q472 90 470 87 L532 1 L497 1 Q484 1 477.5 7.5 Q471 14 466 21 L444 51 Q443 49 431.5 34.5 Q420 20 403 4 Q378 -17 356 -24.5 Q334 -32 321 -32 Q309 -32 305 -29.5 Q301 -27 301 -25 Z M551 51 Q551 78 572.5 92.5 Q594 107 622 107 Q633 107 643.5 104.5 Q654 102 665 98 L665 101 Q665 117 654 125.5 Q643 134 625 134 Q615 134 604 131.5 Q593 129 582 123 L569 147 Q579 158 594 165 Q609 172 636 173 Q672 173 691 151.5 Q710 130 710 101 L710 1 L665 1 L665 18 Q655 7 642 2 Q629 -3 615 -3 Q589 -3 570 11 Q551 25 551 51 Z M597 52 Q597 41 605.5 35.5 Q614 30 625 30 Q639 30 649.5 35.5 Q660 41 665 54 L665 70 Q645 75 628 75 Q617 75 607 69 Q597 63 597 52 Z M753 168 L801 168 L801 140 Q808 154 822 163.5 Q836 173 852 173 Q858 173 864 172 Q870 171 875 168 L863 130 Q858 132 854 133 Q850 134 845 134 Q825 134 813 119.5 Q801 105 801 85 L801 1 L753 1 L753 168 Z " />
</font>
</svg>
